osu file format v14

[General]
AudioFilename: audio.mp3
AudioLeadIn: 0
PreviewTime: 41310
Countdown: 0
SampleSet: Normal
StackLeniency: 0.7
Mode: 3
LetterboxInBreaks: 0
SpecialStyle: 0
WidescreenStoryboard: 0

[Editor]
DistanceSpacing: 1.8
BeatDivisor: 4
GridSize: 16
TimelineZoom: 1.9

[Metadata]
Title:Bon Appetit S (Re: v Funkot Remix)
TitleUnicode:Bon Appetit S (Re: v Funkot Remix)
Artist:Blend A
ArtistUnicode:Blend A
Creator:Alvin69-
Version:Goyang Blender
Source:ブレンド・S
Tags:blend s opening funkot remix re: v dugem
BeatmapID:1552421
BeatmapSetID:735397

[Difficulty]
HPDrainRate:8
CircleSize:4
OverallDifficulty:8
ApproachRate:5
SliderMultiplier:1.4
SliderTickRate:1

[Events]
//Background and Video events
0,0,"minimalist_wallpaper___blend_s_by_mrtapoz_kun-dbr99af.jpg",0,0
//Break Periods
//Storyboard Layer 0 (Background)
//Storyboard Layer 1 (Fail)
//Storyboard Layer 2 (Pass)
//Storyboard Layer 3 (Foreground)
//Storyboard Sound Samples

[TimingPoints]
1311,333.333333333333,4,1,0,0,1,0
14644,-66.6666666666667,4,1,0,0,0,0
14977,-200,4,1,0,0,0,0
15310,-66.6666666666667,4,1,0,0,0,0
15644,-200,4,1,0,0,0,0
15810,-100,4,1,0,0,0,0
26644,-200,4,1,0,0,0,0
26977,-66.6666666666667,4,1,0,0,0,0
27144,-200,4,1,0,0,0,0
27310,-66.6666666666667,4,1,0,0,0,0
27644,-200,4,1,0,0,0,0
27810,-66.6666666666667,4,1,0,0,0,0
27977,-100,4,1,0,0,0,0
41310,-100,4,1,0,0,0,1
51644,-200,4,1,0,0,0,0
51810,-66.6666666666667,4,1,0,0,0,0
51977,-100,4,1,0,0,0,1
62644,-100,4,1,0,0,0,0
77977,-50,4,1,0,0,0,0
78310,-500,4,1,0,0,0,0
78477,-66.6666666666667,4,1,0,0,0,0
78644,-100,4,1,0,0,0,0
83310,-50,4,1,0,0,0,0
83644,-500,4,1,0,0,0,0
83810,-66.6666666666667,4,1,0,0,0,0
83977,-100,4,1,0,0,0,0
86310,-200,4,1,0,0,0,0
86477,-66.6666666666667,4,1,0,0,0,0
86644,-100,4,1,0,0,0,0
96977,-200,4,1,0,0,0,0
97144,-66.6666666666667,4,1,0,0,0,0
97310,-100,4,1,0,0,0,0
110644,-100,4,1,0,0,0,1
120977,-200,4,1,0,0,0,0
121144,-66.6666666666667,4,1,0,0,0,0
121310,-100,4,1,0,0,0,1
131644,-200,4,1,0,0,0,0
131810,-66.6666666666667,4,1,0,0,0,0
131977,-100,4,1,0,0,0,0
143644,-200,4,1,0,0,0,0
143810,-66.6666666666667,4,1,0,0,0,0
143977,-100,4,1,0,0,0,0
164977,-200,4,1,0,0,0,0
165144,-66.6666666666667,4,1,0,0,0,0
165310,-100,4,1,0,0,0,0
173310,-66.6666666666667,4,1,0,0,0,0
173644,-200,4,1,0,0,0,0
173810,-100,4,1,0,0,0,0
173977,-66.6666666666667,4,1,0,0,0,0
174310,-200,4,1,0,0,0,0
174477,-100,4,1,0,0,0,0
174644,-100,4,1,0,0,0,0
175644,-200,4,1,0,0,0,0
175810,-66.6666666666667,4,1,0,0,0,0
175977,-100,4,1,0,0,0,0
186644,-66.6666666666667,4,1,0,0,0,0
186810,-200,4,1,0,0,0,0
186977,-66.6666666666667,4,1,0,0,0,0
187144,-200,4,1,0,0,0,0
187310,-66.6666666666667,4,1,0,0,0,0
187477,-200,4,1,0,0,0,0
187644,-66.6666666666667,4,1,0,0,0,0
187810,-100,4,1,0,0,0,0
187977,-100,4,1,0,0,0,0
189310,-125,4,1,0,0,0,0
193310,-100,4,1,0,0,0,0
205310,-50,4,1,0,0,0,0
205644,-500,4,1,0,0,0,0
206477,-100,4,1,0,0,0,0
206977,-66.6666666666667,4,1,0,0,0,0
207144,-500,4,1,0,0,0,0
207477,-66.6666666666667,4,1,0,0,0,0
207644,-500,4,1,0,0,0,0
207977,-100,4,1,0,0,0,1
215644,-200,4,1,0,0,0,0
215810,-66.6666666666667,4,1,0,0,0,0
215977,-100,4,1,0,0,0,1
226644,-100,4,1,0,0,0,0
242310,-200,4,1,0,0,0,0
242477,-66.6666666666667,4,1,0,0,0,0
242644,-100,4,1,0,0,0,0

[HitObjects]
320,192,1311,5,0,0:0:0:0:
448,192,1311,1,0,0:0:0:0:
448,192,1477,1,0,0:0:0:0:
192,192,1477,1,0,0:0:0:0:
64,192,1727,1,0,0:0:0:0:
192,192,1810,1,0,0:0:0:0:
320,192,1810,1,0,0:0:0:0:
448,192,1977,1,0,0:0:0:0:
192,192,1977,1,0,0:0:0:0:
64,192,2144,1,0,0:0:0:0:
320,192,2144,1,0,0:0:0:0:
192,192,2310,1,0,0:0:0:0:
64,192,2310,1,0,0:0:0:0:
320,192,2394,1,0,0:0:0:0:
64,192,2477,1,0,0:0:0:0:
192,192,2560,1,0,0:0:0:0:
320,192,2644,1,0,0:0:0:0:
448,192,2644,1,0,0:0:0:0:
320,192,2810,1,0,0:0:0:0:
64,192,2810,1,0,0:0:0:0:
448,192,3060,1,0,0:0:0:0:
64,192,3144,1,0,0:0:0:0:
320,192,3144,1,0,0:0:0:0:
192,192,3310,1,0,0:0:0:0:
448,192,3310,1,0,0:0:0:0:
64,192,3477,1,0,0:0:0:0:
320,192,3644,1,0,0:0:0:0:
448,192,3644,1,0,0:0:0:0:
192,192,3727,1,0,0:0:0:0:
64,192,3810,1,0,0:0:0:0:
448,192,3894,1,0,0:0:0:0:
64,192,3977,1,0,0:0:0:0:
192,192,3977,1,0,0:0:0:0:
192,192,4144,1,0,0:0:0:0:
448,192,4144,1,0,0:0:0:0:
64,192,4394,1,0,0:0:0:0:
448,192,4477,1,0,0:0:0:0:
192,192,4477,1,0,0:0:0:0:
320,192,4644,1,0,0:0:0:0:
448,192,4810,1,0,0:0:0:0:
192,192,4810,1,0,0:0:0:0:
448,192,4977,1,0,0:0:0:0:
320,192,4977,1,0,0:0:0:0:
64,192,5060,1,0,0:0:0:0:
192,192,5144,1,0,0:0:0:0:
448,192,5227,1,0,0:0:0:0:
320,192,5310,1,0,0:0:0:0:
64,192,5310,1,0,0:0:0:0:
192,192,5477,1,0,0:0:0:0:
448,192,5477,1,0,0:0:0:0:
448,192,5644,1,0,0:0:0:0:
192,192,5644,1,0,0:0:0:0:
64,192,5727,1,0,0:0:0:0:
320,192,5727,1,0,0:0:0:0:
448,192,5894,1,0,0:0:0:0:
64,192,5894,1,0,0:0:0:0:
320,192,5977,1,0,0:0:0:0:
192,192,5977,1,0,0:0:0:0:
448,192,6060,1,0,0:0:0:0:
64,192,6060,1,0,0:0:0:0:
320,192,6144,1,0,0:0:0:0:
192,192,6144,1,0,0:0:0:0:
64,192,6227,1,0,0:0:0:0:
320,192,6310,1,0,0:0:0:0:
448,192,6310,1,0,0:0:0:0:
192,192,6394,1,0,0:0:0:0:
64,192,6394,1,0,0:0:0:0:
320,192,6477,1,0,0:0:0:0:
448,192,6477,1,0,0:0:0:0:
64,192,6560,1,0,0:0:0:0:
192,192,6560,1,0,0:0:0:0:
448,192,6644,1,0,0:0:0:0:
320,192,6644,1,0,0:0:0:0:
64,192,6810,1,0,0:0:0:0:
320,192,6810,1,0,0:0:0:0:
64,192,6977,1,0,0:0:0:0:
192,192,6977,1,0,0:0:0:0:
448,192,6977,1,0,0:0:0:0:
192,192,7144,1,0,0:0:0:0:
320,192,7144,1,0,0:0:0:0:
448,192,7310,128,0,7644:0:0:0:0:
320,192,7310,1,0,0:0:0:0:
64,192,7310,1,0,0:0:0:0:
64,192,7477,1,0,0:0:0:0:
192,192,7477,1,0,0:0:0:0:
320,192,7644,1,0,0:0:0:0:
192,192,7644,1,0,0:0:0:0:
64,192,7810,1,0,0:0:0:0:
448,192,7810,1,0,0:0:0:0:
448,192,7977,1,0,0:0:0:0:
320,192,7977,1,0,0:0:0:0:
64,192,8144,1,0,0:0:0:0:
320,192,8144,1,0,0:0:0:0:
64,192,8310,1,0,0:0:0:0:
192,192,8310,1,0,0:0:0:0:
448,192,8310,1,0,0:0:0:0:
448,192,8477,1,0,0:0:0:0:
320,192,8477,1,0,0:0:0:0:
320,192,8644,128,0,8977:0:0:0:0:
192,192,8644,1,0,0:0:0:0:
64,192,8644,1,0,0:0:0:0:
448,192,8810,1,0,0:0:0:0:
64,192,8810,1,0,0:0:0:0:
192,192,8977,1,0,0:0:0:0:
448,192,8977,1,0,0:0:0:0:
192,192,9144,1,0,0:0:0:0:
64,192,9144,1,0,0:0:0:0:
64,192,9310,128,0,9977:0:0:0:0:
320,192,9310,1,0,0:0:0:0:
448,192,9310,1,0,0:0:0:0:
192,192,9477,1,0,0:0:0:0:
320,192,9477,1,0,0:0:0:0:
192,192,9644,1,0,0:0:0:0:
320,192,9644,1,0,0:0:0:0:
448,192,9644,1,0,0:0:0:0:
192,192,9810,1,0,0:0:0:0:
448,192,9810,1,0,0:0:0:0:
192,192,9977,128,0,10310:0:0:0:0:
320,192,9977,1,0,0:0:0:0:
448,192,9977,1,0,0:0:0:0:
448,192,10144,1,0,0:0:0:0:
320,192,10310,128,0,10477:0:0:0:0:
64,192,10310,1,0,0:0:0:0:
448,192,10477,128,0,10644:0:0:0:0:
64,192,10477,1,0,0:0:0:0:
64,192,10644,1,0,0:0:0:0:
192,192,10644,1,0,0:0:0:0:
448,192,10810,1,0,0:0:0:0:
64,192,10810,1,0,0:0:0:0:
192,192,10894,1,0,0:0:0:0:
320,192,10894,1,0,0:0:0:0:
448,192,10977,1,0,0:0:0:0:
64,192,10977,1,0,0:0:0:0:
192,192,11144,1,0,0:0:0:0:
448,192,11144,1,0,0:0:0:0:
64,192,11310,1,0,0:0:0:0:
192,192,11310,1,0,0:0:0:0:
320,192,11310,1,0,0:0:0:0:
448,192,11477,1,0,0:0:0:0:
320,192,11477,1,0,0:0:0:0:
192,192,11560,1,0,0:0:0:0:
320,192,11644,1,0,0:0:0:0:
448,192,11644,1,0,0:0:0:0:
64,192,11644,1,0,0:0:0:0:
64,192,11810,1,0,0:0:0:0:
448,192,11810,1,0,0:0:0:0:
320,192,11810,1,0,0:0:0:0:
192,192,11977,1,0,0:0:0:0:
64,192,11977,1,0,0:0:0:0:
448,192,11977,1,0,0:0:0:0:
320,192,12144,1,0,0:0:0:0:
448,192,12144,1,0,0:0:0:0:
320,192,12310,1,0,0:0:0:0:
192,192,12310,1,0,0:0:0:0:
64,192,12310,1,0,0:0:0:0:
192,192,12477,1,0,0:0:0:0:
448,192,12477,1,0,0:0:0:0:
320,192,12644,1,0,0:0:0:0:
64,192,12644,1,0,0:0:0:0:
64,192,12810,1,0,0:0:0:0:
192,192,12810,1,0,0:0:0:0:
320,192,12977,1,0,0:0:0:0:
448,192,12977,1,0,0:0:0:0:
192,192,13144,1,0,0:0:0:0:
320,192,13144,1,0,0:0:0:0:
64,192,13310,128,0,13644:0:0:0:0:
192,192,13310,1,0,0:0:0:0:
448,192,13477,1,0,0:0:0:0:
320,192,13477,1,0,0:0:0:0:
192,192,13644,1,0,0:0:0:0:
448,192,13644,1,0,0:0:0:0:
192,192,13810,1,0,0:0:0:0:
320,192,13810,1,0,0:0:0:0:
448,192,13977,128,0,14310:0:0:0:0:
64,192,13977,1,0,0:0:0:0:
192,192,13977,1,0,0:0:0:0:
64,192,14144,1,0,0:0:0:0:
320,192,14144,1,0,0:0:0:0:
192,192,14310,1,0,0:0:0:0:
320,192,14310,1,0,0:0:0:0:
64,192,14477,1,0,0:0:0:0:
192,192,14477,1,0,0:0:0:0:
320,192,14644,1,0,0:0:0:0:
448,192,14644,1,0,0:0:0:0:
64,192,15144,1,0,0:0:0:0:
192,192,15144,1,0,0:0:0:0:
448,192,15310,1,0,0:0:0:0:
320,192,15310,1,0,0:0:0:0:
192,192,15810,128,0,16144:0:0:0:0:
64,192,15977,128,0,16144:0:0:0:0:
448,192,15977,128,0,16144:0:0:0:0:
320,192,15977,128,0,16144:0:0:0:0:
64,192,16310,128,0,16477:0:0:0:0:
448,192,16310,128,0,16477:0:0:0:0:
192,192,16644,128,0,16810:0:0:0:0:
320,192,16644,128,0,16810:0:0:0:0:
64,192,16810,1,0,0:0:0:0:
448,192,16810,1,0,0:0:0:0:
64,192,16977,1,0,0:0:0:0:
448,192,16977,1,0,0:0:0:0:
320,192,16977,128,0,17310:0:0:0:0:
64,192,17310,1,0,0:0:0:0:
448,192,17477,1,0,0:0:0:0:
192,192,17644,1,0,0:0:0:0:
64,192,17644,1,0,0:0:0:0:
320,192,17810,1,0,0:0:0:0:
192,192,17977,1,0,0:0:0:0:
320,192,18144,1,0,0:0:0:0:
448,192,18144,1,0,0:0:0:0:
192,192,18310,1,0,0:0:0:0:
64,192,18310,1,0,0:0:0:0:
320,192,18477,1,0,0:0:0:0:
192,192,18644,1,0,0:0:0:0:
448,192,18810,1,0,0:0:0:0:
64,192,18977,1,0,0:0:0:0:
320,192,18977,1,0,0:0:0:0:
192,192,19144,1,0,0:0:0:0:
320,192,19310,1,0,0:0:0:0:
192,192,19477,1,0,0:0:0:0:
448,192,19477,1,0,0:0:0:0:
320,192,19644,1,0,0:0:0:0:
64,192,19644,1,0,0:0:0:0:
192,192,19810,1,0,0:0:0:0:
64,192,19977,1,0,0:0:0:0:
448,192,20144,1,0,0:0:0:0:
320,192,20310,1,0,0:0:0:0:
192,192,20310,1,0,0:0:0:0:
64,192,20477,1,0,0:0:0:0:
448,192,20644,1,0,0:0:0:0:
64,192,20810,1,0,0:0:0:0:
320,192,20810,1,0,0:0:0:0:
192,192,20977,1,0,0:0:0:0:
448,192,20977,1,0,0:0:0:0:
64,192,21144,1,0,0:0:0:0:
448,192,21310,1,0,0:0:0:0:
320,192,21310,1,0,0:0:0:0:
64,192,21477,1,0,0:0:0:0:
192,192,21477,1,0,0:0:0:0:
320,192,21644,1,0,0:0:0:0:
192,192,21727,1,0,0:0:0:0:
448,192,21810,1,0,0:0:0:0:
64,192,21977,1,0,0:0:0:0:
320,192,21977,1,0,0:0:0:0:
448,192,22144,1,0,0:0:0:0:
192,192,22310,1,0,0:0:0:0:
320,192,22394,1,0,0:0:0:0:
64,192,22477,1,0,0:0:0:0:
448,192,22644,1,0,0:0:0:0:
192,192,22644,1,0,0:0:0:0:
320,192,22810,1,0,0:0:0:0:
64,192,22977,1,0,0:0:0:0:
192,192,22977,1,0,0:0:0:0:
448,192,23144,1,0,0:0:0:0:
64,192,23310,1,0,0:0:0:0:
192,192,23477,1,0,0:0:0:0:
448,192,23477,1,0,0:0:0:0:
320,192,23644,1,0,0:0:0:0:
64,192,23644,1,0,0:0:0:0:
192,192,23810,1,0,0:0:0:0:
448,192,23977,1,0,0:0:0:0:
64,192,24144,1,0,0:0:0:0:
192,192,24310,1,0,0:0:0:0:
448,192,24310,1,0,0:0:0:0:
320,192,24477,1,0,0:0:0:0:
192,192,24644,1,0,0:0:0:0:
64,192,24810,1,0,0:0:0:0:
448,192,24810,1,0,0:0:0:0:
320,192,24977,1,0,0:0:0:0:
192,192,24977,1,0,0:0:0:0:
448,192,25144,1,0,0:0:0:0:
192,192,25310,1,0,0:0:0:0:
448,192,25477,1,0,0:0:0:0:
320,192,25644,1,0,0:0:0:0:
192,192,25644,1,0,0:0:0:0:
64,192,25810,1,0,0:0:0:0:
320,192,25977,1,0,0:0:0:0:
192,192,26144,1,0,0:0:0:0:
64,192,26144,1,0,0:0:0:0:
320,192,26310,1,0,0:0:0:0:
448,192,26310,1,0,0:0:0:0:
192,192,26477,1,0,0:0:0:0:
64,192,26644,1,0,0:0:0:0:
320,192,26644,1,0,0:0:0:0:
448,192,26644,1,0,0:0:0:0:
320,192,27144,1,0,0:0:0:0:
64,192,27144,1,0,0:0:0:0:
448,192,27144,1,0,0:0:0:0:
320,192,27477,1,0,0:0:0:0:
192,192,27477,1,0,0:0:0:0:
64,192,27644,1,0,0:0:0:0:
448,192,27644,1,0,0:0:0:0:
192,192,27644,1,0,0:0:0:0:
64,192,27977,1,0,0:0:0:0:
448,192,27977,1,0,0:0:0:0:
320,192,28060,1,0,0:0:0:0:
192,192,28144,1,0,0:0:0:0:
64,192,28227,1,0,0:0:0:0:
320,192,28310,1,0,0:0:0:0:
448,192,28310,1,0,0:0:0:0:
192,192,28394,1,0,0:0:0:0:
320,192,28477,1,0,0:0:0:0:
448,192,28560,1,0,0:0:0:0:
64,192,28644,1,0,0:0:0:0:
192,192,28727,1,0,0:0:0:0:
448,192,28810,1,0,0:0:0:0:
320,192,28894,1,0,0:0:0:0:
192,192,28977,1,0,0:0:0:0:
64,192,28977,1,0,0:0:0:0:
448,192,29060,1,0,0:0:0:0:
320,192,29144,1,0,0:0:0:0:
192,192,29227,1,0,0:0:0:0:
64,192,29310,1,0,0:0:0:0:
448,192,29310,1,0,0:0:0:0:
320,192,29394,1,0,0:0:0:0:
64,192,29477,1,0,0:0:0:0:
192,192,29560,1,0,0:0:0:0:
448,192,29644,1,0,0:0:0:0:
320,192,29644,1,0,0:0:0:0:
64,192,29727,1,0,0:0:0:0:
192,192,29810,1,0,0:0:0:0:
320,192,29894,1,0,0:0:0:0:
448,192,29977,1,0,0:0:0:0:
320,192,30060,1,0,0:0:0:0:
192,192,30144,1,0,0:0:0:0:
64,192,30227,1,0,0:0:0:0:
192,192,30310,1,0,0:0:0:0:
448,192,30310,1,0,0:0:0:0:
320,192,30394,1,0,0:0:0:0:
192,192,30477,1,0,0:0:0:0:
320,192,30560,1,0,0:0:0:0:
64,192,30644,1,0,0:0:0:0:
448,192,30644,1,0,0:0:0:0:
320,192,30727,1,0,0:0:0:0:
64,192,30810,1,0,0:0:0:0:
192,192,30894,1,0,0:0:0:0:
320,192,30977,1,0,0:0:0:0:
448,192,30977,1,0,0:0:0:0:
64,192,31060,1,0,0:0:0:0:
192,192,31144,1,0,0:0:0:0:
320,192,31227,1,0,0:0:0:0:
448,192,31310,1,0,0:0:0:0:
320,192,31394,1,0,0:0:0:0:
192,192,31477,1,0,0:0:0:0:
64,192,31560,1,0,0:0:0:0:
448,192,31644,1,0,0:0:0:0:
192,192,31644,1,0,0:0:0:0:
320,192,31727,1,0,0:0:0:0:
64,192,31810,1,0,0:0:0:0:
192,192,31894,1,0,0:0:0:0:
448,192,31977,1,0,0:0:0:0:
320,192,31977,1,0,0:0:0:0:
64,192,32060,1,0,0:0:0:0:
192,192,32144,1,0,0:0:0:0:
448,192,32227,1,0,0:0:0:0:
64,192,32310,1,0,0:0:0:0:
320,192,32310,1,0,0:0:0:0:
192,192,32394,1,0,0:0:0:0:
320,192,32477,1,0,0:0:0:0:
448,192,32560,1,0,0:0:0:0:
64,192,32644,1,0,0:0:0:0:
192,192,32727,1,0,0:0:0:0:
448,192,32810,1,0,0:0:0:0:
320,192,32894,1,0,0:0:0:0:
192,192,32977,1,0,0:0:0:0:
64,192,32977,1,0,0:0:0:0:
448,192,33060,1,0,0:0:0:0:
320,192,33144,1,0,0:0:0:0:
192,192,33227,1,0,0:0:0:0:
64,192,33310,1,0,0:0:0:0:
448,192,33310,1,0,0:0:0:0:
192,192,33394,1,0,0:0:0:0:
320,192,33477,1,0,0:0:0:0:
448,192,33560,1,0,0:0:0:0:
64,192,33644,1,0,0:0:0:0:
320,192,33644,1,0,0:0:0:0:
192,192,33727,1,0,0:0:0:0:
448,192,33810,1,0,0:0:0:0:
320,192,33894,1,0,0:0:0:0:
64,192,33977,1,0,0:0:0:0:
192,192,34060,1,0,0:0:0:0:
320,192,34144,1,0,0:0:0:0:
448,192,34227,1,0,0:0:0:0:
192,192,34310,1,0,0:0:0:0:
64,192,34310,1,0,0:0:0:0:
320,192,34394,1,0,0:0:0:0:
64,192,34477,1,0,0:0:0:0:
192,192,34560,1,0,0:0:0:0:
320,192,34644,1,0,0:0:0:0:
448,192,34644,1,0,0:0:0:0:
64,192,34727,1,0,0:0:0:0:
192,192,34810,1,0,0:0:0:0:
320,192,34894,1,0,0:0:0:0:
448,192,34977,1,0,0:0:0:0:
64,192,34977,1,0,0:0:0:0:
320,192,35060,1,0,0:0:0:0:
192,192,35144,1,0,0:0:0:0:
64,192,35227,1,0,0:0:0:0:
320,192,35310,1,0,0:0:0:0:
448,192,35394,1,0,0:0:0:0:
64,192,35477,1,0,0:0:0:0:
192,192,35560,1,0,0:0:0:0:
320,192,35644,1,0,0:0:0:0:
448,192,35644,1,0,0:0:0:0:
192,192,35727,1,0,0:0:0:0:
64,192,35810,1,0,0:0:0:0:
448,192,35894,1,0,0:0:0:0:
320,192,35977,1,0,0:0:0:0:
64,192,35977,1,0,0:0:0:0:
192,192,36060,1,0,0:0:0:0:
320,192,36144,1,0,0:0:0:0:
448,192,36227,1,0,0:0:0:0:
64,192,36310,1,0,0:0:0:0:
192,192,36310,1,0,0:0:0:0:
320,192,36394,1,0,0:0:0:0:
448,192,36477,1,0,0:0:0:0:
320,192,36560,1,0,0:0:0:0:
192,192,36644,1,0,0:0:0:0:
64,192,36727,1,0,0:0:0:0:
448,192,36810,1,0,0:0:0:0:
320,192,36894,1,0,0:0:0:0:
192,192,36977,1,0,0:0:0:0:
64,192,36977,1,0,0:0:0:0:
320,192,37060,1,0,0:0:0:0:
448,192,37144,1,0,0:0:0:0:
64,192,37227,1,0,0:0:0:0:
448,192,37310,1,0,0:0:0:0:
192,192,37310,1,0,0:0:0:0:
320,192,37394,1,0,0:0:0:0:
64,192,37477,5,0,0:0:0:0:
192,192,37560,1,0,0:0:0:0:
448,192,37644,1,0,0:0:0:0:
320,192,37644,1,0,0:0:0:0:
64,192,37727,1,0,0:0:0:0:
192,192,37810,1,0,0:0:0:0:
320,192,37894,1,0,0:0:0:0:
64,192,37977,1,0,0:0:0:0:
448,192,37977,1,0,0:0:0:0:
192,192,38060,1,0,0:0:0:0:
320,192,38144,1,0,0:0:0:0:
448,192,38227,1,0,0:0:0:0:
192,192,38310,1,0,0:0:0:0:
64,192,38310,1,0,0:0:0:0:
320,192,38394,1,0,0:0:0:0:
192,192,38477,1,0,0:0:0:0:
64,192,38560,1,0,0:0:0:0:
448,192,38644,5,0,0:0:0:0:
320,192,38644,1,0,0:0:0:0:
320,192,38810,1,0,0:0:0:0:
192,192,38977,1,0,0:0:0:0:
448,192,38977,1,0,0:0:0:0:
64,192,39144,1,0,0:0:0:0:
192,192,39310,1,0,0:0:0:0:
320,192,39310,1,0,0:0:0:0:
448,192,39310,1,0,0:0:0:0:
320,192,39477,1,0,0:0:0:0:
64,192,39644,1,0,0:0:0:0:
448,192,39644,1,0,0:0:0:0:
192,192,39810,1,0,0:0:0:0:
64,192,39977,1,0,0:0:0:0:
448,192,39977,1,0,0:0:0:0:
192,192,40144,1,0,0:0:0:0:
448,192,40144,1,0,0:0:0:0:
64,192,40310,1,0,0:0:0:0:
320,192,40310,1,0,0:0:0:0:
192,192,40394,1,0,0:0:0:0:
448,192,40394,1,0,0:0:0:0:
64,192,40560,1,0,0:0:0:0:
448,192,40560,1,0,0:0:0:0:
320,192,40644,1,0,0:0:0:0:
192,192,40644,1,0,0:0:0:0:
448,192,40727,1,0,0:0:0:0:
64,192,40727,1,0,0:0:0:0:
192,192,40810,1,0,0:0:0:0:
320,192,40810,1,0,0:0:0:0:
448,192,40894,1,0,0:0:0:0:
192,192,40977,1,0,0:0:0:0:
64,192,40977,1,0,0:0:0:0:
320,192,41060,1,0,0:0:0:0:
448,192,41060,1,0,0:0:0:0:
192,192,41144,1,0,0:0:0:0:
64,192,41144,1,0,0:0:0:0:
320,192,41227,1,0,0:0:0:0:
448,192,41227,1,0,0:0:0:0:
64,192,41310,1,0,0:0:0:0:
192,192,41310,1,0,0:0:0:0:
320,192,41477,1,0,0:0:0:0:
64,192,41644,1,0,0:0:0:0:
192,192,41644,1,0,0:0:0:0:
448,192,41644,1,0,0:0:0:0:
320,192,41810,1,0,0:0:0:0:
64,192,41810,1,0,0:0:0:0:
192,192,41977,1,0,0:0:0:0:
320,192,42144,1,0,0:0:0:0:
448,192,42144,1,0,0:0:0:0:
192,192,42310,1,0,0:0:0:0:
64,192,42310,1,0,0:0:0:0:
448,192,42310,1,0,0:0:0:0:
320,192,42477,1,0,0:0:0:0:
64,192,42644,1,0,0:0:0:0:
448,192,42644,1,0,0:0:0:0:
192,192,42810,1,0,0:0:0:0:
64,192,42977,1,0,0:0:0:0:
320,192,42977,1,0,0:0:0:0:
448,192,42977,1,0,0:0:0:0:
192,192,43144,1,0,0:0:0:0:
448,192,43144,1,0,0:0:0:0:
64,192,43310,1,0,0:0:0:0:
192,192,43477,1,0,0:0:0:0:
320,192,43477,1,0,0:0:0:0:
448,192,43644,1,0,0:0:0:0:
64,192,43644,1,0,0:0:0:0:
192,192,43644,1,0,0:0:0:0:
320,192,43810,1,0,0:0:0:0:
192,192,43977,1,0,0:0:0:0:
448,192,43977,1,0,0:0:0:0:
320,192,44144,1,0,0:0:0:0:
192,192,44310,1,0,0:0:0:0:
64,192,44310,1,0,0:0:0:0:
448,192,44310,1,0,0:0:0:0:
192,192,44477,1,0,0:0:0:0:
320,192,44477,1,0,0:0:0:0:
64,192,44644,1,0,0:0:0:0:
320,192,44810,1,0,0:0:0:0:
448,192,44810,1,0,0:0:0:0:
320,192,44977,1,0,0:0:0:0:
192,192,44977,1,0,0:0:0:0:
64,192,44977,1,0,0:0:0:0:
448,192,45144,1,0,0:0:0:0:
320,192,45310,1,0,0:0:0:0:
64,192,45310,1,0,0:0:0:0:
192,192,45477,1,0,0:0:0:0:
320,192,45644,1,0,0:0:0:0:
448,192,45644,1,0,0:0:0:0:
64,192,45644,1,0,0:0:0:0:
448,192,45810,1,0,0:0:0:0:
192,192,45810,1,0,0:0:0:0:
320,192,45977,1,0,0:0:0:0:
64,192,46144,1,0,0:0:0:0:
448,192,46144,1,0,0:0:0:0:
64,192,46310,1,0,0:0:0:0:
192,192,46310,1,0,0:0:0:0:
320,192,46310,1,0,0:0:0:0:
448,192,46477,1,0,0:0:0:0:
320,192,46644,1,0,0:0:0:0:
192,192,46644,1,0,0:0:0:0:
64,192,46810,1,0,0:0:0:0:
448,192,46977,1,0,0:0:0:0:
192,192,46977,1,0,0:0:0:0:
320,192,46977,1,0,0:0:0:0:
64,192,47144,1,0,0:0:0:0:
320,192,47144,1,0,0:0:0:0:
448,192,47310,1,0,0:0:0:0:
192,192,47477,1,0,0:0:0:0:
320,192,47477,1,0,0:0:0:0:
64,192,47644,1,0,0:0:0:0:
192,192,47644,1,0,0:0:0:0:
448,192,47644,1,0,0:0:0:0:
320,192,47810,1,0,0:0:0:0:
192,192,47977,1,0,0:0:0:0:
64,192,47977,1,0,0:0:0:0:
448,192,48144,1,0,0:0:0:0:
320,192,48310,1,0,0:0:0:0:
192,192,48310,1,0,0:0:0:0:
64,192,48310,1,0,0:0:0:0:
64,192,48477,1,0,0:0:0:0:
448,192,48477,1,0,0:0:0:0:
192,192,48644,1,0,0:0:0:0:
448,192,48810,1,0,0:0:0:0:
320,192,48810,1,0,0:0:0:0:
64,192,48977,1,0,0:0:0:0:
192,192,48977,1,0,0:0:0:0:
448,192,48977,1,0,0:0:0:0:
320,192,49144,1,0,0:0:0:0:
448,192,49144,1,0,0:0:0:0:
64,192,49310,1,0,0:0:0:0:
320,192,49310,1,0,0:0:0:0:
192,192,49477,1,0,0:0:0:0:
64,192,49644,1,0,0:0:0:0:
320,192,49644,1,0,0:0:0:0:
448,192,49644,1,0,0:0:0:0:
448,192,49810,1,0,0:0:0:0:
192,192,49810,1,0,0:0:0:0:
448,192,49977,1,0,0:0:0:0:
320,192,49977,1,0,0:0:0:0:
192,192,50144,1,0,0:0:0:0:
64,192,50310,1,0,0:0:0:0:
192,192,50310,1,0,0:0:0:0:
448,192,50310,1,0,0:0:0:0:
320,192,50477,1,0,0:0:0:0:
64,192,50477,1,0,0:0:0:0:
64,192,50644,1,0,0:0:0:0:
192,192,50644,1,0,0:0:0:0:
448,192,50810,1,0,0:0:0:0:
320,192,50894,1,0,0:0:0:0:
192,192,50977,1,0,0:0:0:0:
64,192,51144,1,0,0:0:0:0:
320,192,51310,1,0,0:0:0:0:
64,192,51477,1,0,0:0:0:0:
192,192,51477,1,0,0:0:0:0:
64,192,51644,1,0,0:0:0:0:
192,192,51644,1,0,0:0:0:0:
320,192,51977,1,0,0:0:0:0:
448,192,51977,1,0,0:0:0:0:
192,192,52144,1,0,0:0:0:0:
64,192,52310,1,0,0:0:0:0:
320,192,52310,1,0,0:0:0:0:
448,192,52310,1,0,0:0:0:0:
448,192,52477,1,0,0:0:0:0:
192,192,52477,1,0,0:0:0:0:
320,192,52644,1,0,0:0:0:0:
64,192,52810,1,0,0:0:0:0:
192,192,52810,1,0,0:0:0:0:
64,192,52977,1,0,0:0:0:0:
448,192,52977,1,0,0:0:0:0:
320,192,52977,1,0,0:0:0:0:
192,192,53144,1,0,0:0:0:0:
448,192,53310,1,0,0:0:0:0:
64,192,53310,1,0,0:0:0:0:
320,192,53477,1,0,0:0:0:0:
192,192,53644,1,0,0:0:0:0:
64,192,53644,1,0,0:0:0:0:
448,192,53644,1,0,0:0:0:0:
192,192,53810,1,0,0:0:0:0:
320,192,53810,1,0,0:0:0:0:
64,192,53977,1,0,0:0:0:0:
320,192,54144,1,0,0:0:0:0:
448,192,54144,1,0,0:0:0:0:
448,192,54310,1,0,0:0:0:0:
192,192,54310,1,0,0:0:0:0:
64,192,54310,1,0,0:0:0:0:
320,192,54477,1,0,0:0:0:0:
64,192,54644,1,0,0:0:0:0:
192,192,54644,1,0,0:0:0:0:
448,192,54810,1,0,0:0:0:0:
320,192,54977,1,0,0:0:0:0:
64,192,54977,1,0,0:0:0:0:
192,192,54977,1,0,0:0:0:0:
448,192,55144,1,0,0:0:0:0:
192,192,55144,1,0,0:0:0:0:
64,192,55310,1,0,0:0:0:0:
320,192,55477,1,0,0:0:0:0:
448,192,55477,1,0,0:0:0:0:
192,192,55644,1,0,0:0:0:0:
64,192,55644,1,0,0:0:0:0:
448,192,55644,1,0,0:0:0:0:
320,192,55810,1,0,0:0:0:0:
192,192,55977,1,0,0:0:0:0:
448,192,55977,1,0,0:0:0:0:
64,192,56144,1,0,0:0:0:0:
320,192,56310,1,0,0:0:0:0:
192,192,56310,1,0,0:0:0:0:
448,192,56310,1,0,0:0:0:0:
192,192,56477,1,0,0:0:0:0:
64,192,56477,1,0,0:0:0:0:
448,192,56644,1,0,0:0:0:0:
320,192,56810,1,0,0:0:0:0:
192,192,56810,1,0,0:0:0:0:
64,192,56977,1,0,0:0:0:0:
192,192,56977,1,0,0:0:0:0:
448,192,56977,1,0,0:0:0:0:
320,192,57144,1,0,0:0:0:0:
192,192,57310,1,0,0:0:0:0:
448,192,57310,1,0,0:0:0:0:
64,192,57477,1,0,0:0:0:0:
192,192,57644,1,0,0:0:0:0:
448,192,57644,1,0,0:0:0:0:
320,192,57644,1,0,0:0:0:0:
448,192,57810,1,0,0:0:0:0:
64,192,57810,1,0,0:0:0:0:
192,192,57977,1,0,0:0:0:0:
320,192,58144,1,0,0:0:0:0:
448,192,58144,1,0,0:0:0:0:
448,192,58310,1,0,0:0:0:0:
192,192,58310,1,0,0:0:0:0:
64,192,58310,1,0,0:0:0:0:
320,192,58477,1,0,0:0:0:0:
448,192,58644,1,0,0:0:0:0:
64,192,58644,1,0,0:0:0:0:
192,192,58810,1,0,0:0:0:0:
64,192,58977,1,0,0:0:0:0:
320,192,58977,1,0,0:0:0:0:
448,192,58977,1,0,0:0:0:0:
64,192,59144,1,0,0:0:0:0:
192,192,59144,1,0,0:0:0:0:
448,192,59310,1,0,0:0:0:0:
64,192,59477,1,0,0:0:0:0:
320,192,59477,1,0,0:0:0:0:
64,192,59644,1,0,0:0:0:0:
192,192,59644,1,0,0:0:0:0:
448,192,59644,1,0,0:0:0:0:
192,192,59810,1,0,0:0:0:0:
448,192,59810,1,0,0:0:0:0:
320,192,59977,1,0,0:0:0:0:
448,192,59977,1,0,0:0:0:0:
320,192,60144,1,0,0:0:0:0:
448,192,60144,1,0,0:0:0:0:
448,192,60310,1,0,0:0:0:0:
320,192,60310,1,0,0:0:0:0:
320,192,60477,1,0,0:0:0:0:
448,192,60477,1,0,0:0:0:0:
448,192,60644,1,0,0:0:0:0:
192,192,60644,1,0,0:0:0:0:
64,192,60644,1,0,0:0:0:0:
320,192,60810,1,0,0:0:0:0:
448,192,60810,1,0,0:0:0:0:
192,192,60894,1,0,0:0:0:0:
64,192,60977,1,0,0:0:0:0:
320,192,60977,1,0,0:0:0:0:
448,192,60977,1,0,0:0:0:0:
64,192,61144,1,0,0:0:0:0:
320,192,61144,1,0,0:0:0:0:
448,192,61144,1,0,0:0:0:0:
64,192,61310,1,0,0:0:0:0:
192,192,61310,1,0,0:0:0:0:
320,192,61477,1,0,0:0:0:0:
448,192,61477,1,0,0:0:0:0:
192,192,61560,1,0,0:0:0:0:
64,192,61560,1,0,0:0:0:0:
320,192,61644,1,0,0:0:0:0:
448,192,61644,1,0,0:0:0:0:
192,192,61810,1,0,0:0:0:0:
320,192,61810,1,0,0:0:0:0:
64,192,61977,1,0,0:0:0:0:
448,192,61977,1,0,0:0:0:0:
64,192,62144,1,0,0:0:0:0:
448,192,62144,1,0,0:0:0:0:
320,192,62227,1,0,0:0:0:0:
192,192,62227,1,0,0:0:0:0:
64,192,62310,1,0,0:0:0:0:
448,192,62310,1,0,0:0:0:0:
64,192,62477,1,0,0:0:0:0:
448,192,62477,1,0,0:0:0:0:
192,192,62644,1,0,0:0:0:0:
64,192,62644,1,0,0:0:0:0:
320,192,62810,1,0,0:0:0:0:
192,192,62977,1,0,0:0:0:0:
448,192,62977,1,0,0:0:0:0:
64,192,62977,1,0,0:0:0:0:
192,192,63144,1,0,0:0:0:0:
320,192,63144,1,0,0:0:0:0:
448,192,63310,1,0,0:0:0:0:
64,192,63477,1,0,0:0:0:0:
320,192,63477,1,0,0:0:0:0:
64,192,63644,1,0,0:0:0:0:
192,192,63644,1,0,0:0:0:0:
448,192,63644,1,0,0:0:0:0:
320,192,63810,1,0,0:0:0:0:
64,192,63977,1,0,0:0:0:0:
448,192,63977,1,0,0:0:0:0:
192,192,64144,1,0,0:0:0:0:
320,192,64310,1,0,0:0:0:0:
448,192,64310,1,0,0:0:0:0:
64,192,64310,1,0,0:0:0:0:
448,192,64477,1,0,0:0:0:0:
192,192,64477,1,0,0:0:0:0:
320,192,64644,1,0,0:0:0:0:
64,192,64810,1,0,0:0:0:0:
448,192,64810,1,0,0:0:0:0:
192,192,64977,1,0,0:0:0:0:
320,192,64977,1,0,0:0:0:0:
448,192,64977,1,0,0:0:0:0:
64,192,65144,1,0,0:0:0:0:
320,192,65144,1,0,0:0:0:0:
192,192,65310,1,0,0:0:0:0:
64,192,65310,1,0,0:0:0:0:
64,192,65477,1,0,0:0:0:0:
192,192,65477,1,0,0:0:0:0:
192,192,65644,1,0,0:0:0:0:
64,192,65644,1,0,0:0:0:0:
64,192,65810,1,0,0:0:0:0:
192,192,65810,1,0,0:0:0:0:
64,192,65977,1,0,0:0:0:0:
320,192,65977,1,0,0:0:0:0:
448,192,65977,1,0,0:0:0:0:
64,192,66144,1,0,0:0:0:0:
192,192,66144,1,0,0:0:0:0:
320,192,66227,1,0,0:0:0:0:
192,192,66310,1,0,0:0:0:0:
64,192,66310,1,0,0:0:0:0:
448,192,66310,1,0,0:0:0:0:
192,192,66477,1,0,0:0:0:0:
448,192,66477,1,0,0:0:0:0:
64,192,66644,1,0,0:0:0:0:
320,192,66644,1,0,0:0:0:0:
448,192,66810,1,0,0:0:0:0:
320,192,66810,1,0,0:0:0:0:
192,192,66894,1,0,0:0:0:0:
64,192,66894,1,0,0:0:0:0:
320,192,66977,1,0,0:0:0:0:
448,192,66977,1,0,0:0:0:0:
192,192,67144,1,0,0:0:0:0:
320,192,67144,1,0,0:0:0:0:
64,192,67310,1,0,0:0:0:0:
448,192,67310,1,0,0:0:0:0:
64,192,67477,1,0,0:0:0:0:
448,192,67477,1,0,0:0:0:0:
320,192,67560,1,0,0:0:0:0:
192,192,67560,1,0,0:0:0:0:
64,192,67644,1,0,0:0:0:0:
448,192,67644,1,0,0:0:0:0:
64,192,67810,1,0,0:0:0:0:
320,192,67810,1,0,0:0:0:0:
192,192,67977,1,0,0:0:0:0:
64,192,67977,1,0,0:0:0:0:
448,192,68144,1,0,0:0:0:0:
64,192,68310,1,0,0:0:0:0:
320,192,68310,1,0,0:0:0:0:
192,192,68310,1,0,0:0:0:0:
448,192,68477,1,0,0:0:0:0:
64,192,68477,1,0,0:0:0:0:
320,192,68644,1,0,0:0:0:0:
192,192,68810,1,0,0:0:0:0:
448,192,68810,1,0,0:0:0:0:
448,192,68977,1,0,0:0:0:0:
320,192,68977,1,0,0:0:0:0:
64,192,68977,1,0,0:0:0:0:
192,192,69144,1,0,0:0:0:0:
320,192,69310,1,0,0:0:0:0:
448,192,69310,1,0,0:0:0:0:
64,192,69477,1,0,0:0:0:0:
192,192,69644,1,0,0:0:0:0:
320,192,69644,1,0,0:0:0:0:
448,192,69644,1,0,0:0:0:0:
192,192,69810,1,0,0:0:0:0:
64,192,69810,1,0,0:0:0:0:
320,192,69977,1,0,0:0:0:0:
192,192,70144,1,0,0:0:0:0:
448,192,70144,1,0,0:0:0:0:
448,192,70310,1,0,0:0:0:0:
320,192,70310,1,0,0:0:0:0:
64,192,70310,1,0,0:0:0:0:
64,192,70477,1,0,0:0:0:0:
192,192,70477,1,0,0:0:0:0:
320,192,70644,1,0,0:0:0:0:
448,192,70644,1,0,0:0:0:0:
192,192,70644,1,0,0:0:0:0:
64,192,70810,1,0,0:0:0:0:
64,192,70977,1,0,0:0:0:0:
192,192,70977,1,0,0:0:0:0:
448,192,70977,1,0,0:0:0:0:
448,192,71144,1,0,0:0:0:0:
320,192,71144,1,0,0:0:0:0:
192,192,71310,1,0,0:0:0:0:
64,192,71310,1,0,0:0:0:0:
320,192,71310,1,0,0:0:0:0:
448,192,71477,1,0,0:0:0:0:
64,192,71644,1,0,0:0:0:0:
320,192,71644,1,0,0:0:0:0:
448,192,71644,1,0,0:0:0:0:
64,192,71810,1,0,0:0:0:0:
192,192,71810,1,0,0:0:0:0:
320,192,71977,1,0,0:0:0:0:
448,192,71977,1,0,0:0:0:0:
192,192,71977,1,0,0:0:0:0:
64,192,72144,1,0,0:0:0:0:
64,192,72310,1,0,0:0:0:0:
192,192,72310,1,0,0:0:0:0:
448,192,72310,1,0,0:0:0:0:
320,192,72477,1,0,0:0:0:0:
448,192,72477,1,0,0:0:0:0:
192,192,72644,1,0,0:0:0:0:
64,192,72810,1,0,0:0:0:0:
448,192,72810,1,0,0:0:0:0:
320,192,72977,1,0,0:0:0:0:
192,192,72977,1,0,0:0:0:0:
448,192,72977,1,0,0:0:0:0:
64,192,73144,1,0,0:0:0:0:
192,192,73144,1,0,0:0:0:0:
320,192,73310,1,0,0:0:0:0:
448,192,73310,1,0,0:0:0:0:
320,192,73477,1,0,0:0:0:0:
448,192,73477,1,0,0:0:0:0:
64,192,73644,1,0,0:0:0:0:
192,192,73644,1,0,0:0:0:0:
192,192,73810,1,0,0:0:0:0:
64,192,73810,1,0,0:0:0:0:
320,192,73977,1,0,0:0:0:0:
448,192,73977,1,0,0:0:0:0:
192,192,74060,1,0,0:0:0:0:
64,192,74060,1,0,0:0:0:0:
320,192,74144,1,0,0:0:0:0:
448,192,74144,1,0,0:0:0:0:
192,192,74227,1,0,0:0:0:0:
64,192,74227,1,0,0:0:0:0:
320,192,74310,1,0,0:0:0:0:
448,192,74310,1,0,0:0:0:0:
192,192,74394,1,0,0:0:0:0:
64,192,74394,1,0,0:0:0:0:
320,192,74477,1,0,0:0:0:0:
448,192,74477,1,0,0:0:0:0:
192,192,74560,1,0,0:0:0:0:
64,192,74560,1,0,0:0:0:0:
320,192,74644,1,0,0:0:0:0:
448,192,74644,1,0,0:0:0:0:
448,192,74810,1,0,0:0:0:0:
320,192,74852,1,0,0:0:0:0:
192,192,74894,1,0,0:0:0:0:
64,192,74935,1,0,0:0:0:0:
320,192,74977,1,0,0:0:0:0:
448,192,74977,1,0,0:0:0:0:
64,192,75144,1,0,0:0:0:0:
192,192,75199,1,0,0:0:0:0:
320,192,75255,1,0,0:0:0:0:
448,192,75310,1,0,0:0:0:0:
64,192,75310,1,0,0:0:0:0:
64,192,75477,1,0,0:0:0:0:
192,192,75477,1,0,0:0:0:0:
192,192,75644,1,0,0:0:0:0:
448,192,75644,1,0,0:0:0:0:
320,192,75810,1,0,0:0:0:0:
192,192,75977,1,0,0:0:0:0:
64,192,75977,1,0,0:0:0:0:
448,192,75977,128,0,76310:0:0:0:0:
320,192,76144,1,0,0:0:0:0:
192,192,76310,1,0,0:0:0:0:
64,192,76477,128,0,76644:0:0:0:0:
192,192,76644,128,0,76810:0:0:0:0:
448,192,76644,1,0,0:0:0:0:
320,192,76810,1,0,0:0:0:0:
448,192,76977,1,0,0:0:0:0:
320,192,77144,128,0,77310:0:0:0:0:
192,192,77310,128,0,77477:0:0:0:0:
64,192,77310,1,0,0:0:0:0:
448,192,77477,1,0,0:0:0:0:
64,192,77644,1,0,0:0:0:0:
320,192,77810,128,0,77977:0:0:0:0:
192,192,77977,1,0,0:0:0:0:
448,192,77977,1,0,0:0:0:0:
64,192,78644,128,0,78977:0:0:0:0:
320,192,78644,1,0,0:0:0:0:
448,192,78810,1,0,0:0:0:0:
320,192,78977,1,0,0:0:0:0:
448,192,79144,128,0,79310:0:0:0:0:
192,192,79144,1,0,0:0:0:0:
320,192,79310,128,0,79477:0:0:0:0:
64,192,79310,1,0,0:0:0:0:
192,192,79477,1,0,0:0:0:0:
448,192,79644,1,0,0:0:0:0:
64,192,79810,128,0,79977:0:0:0:0:
320,192,79810,1,0,0:0:0:0:
192,192,79977,128,0,80144:0:0:0:0:
320,192,79977,1,0,0:0:0:0:
448,192,79977,1,0,0:0:0:0:
448,192,80144,1,0,0:0:0:0:
320,192,80144,1,0,0:0:0:0:
64,192,80310,1,0,0:0:0:0:
192,192,80394,1,0,0:0:0:0:
320,192,80477,1,0,0:0:0:0:
448,192,80477,1,0,0:0:0:0:
448,192,80644,1,0,0:0:0:0:
192,192,80644,1,0,0:0:0:0:
64,192,80810,1,0,0:0:0:0:
192,192,80894,1,0,0:0:0:0:
320,192,80977,1,0,0:0:0:0:
448,192,81060,1,0,0:0:0:0:
320,192,81144,1,0,0:0:0:0:
192,192,81227,1,0,0:0:0:0:
64,192,81310,1,0,0:0:0:0:
320,192,81310,1,0,0:0:0:0:
192,192,81477,128,0,81644:0:0:0:0:
64,192,81644,128,0,81810:0:0:0:0:
448,192,81644,1,0,0:0:0:0:
192,192,81810,128,0,81977:0:0:0:0:
320,192,81977,1,0,0:0:0:0:
448,192,82144,128,0,82310:0:0:0:0:
320,192,82310,128,0,82477:0:0:0:0:
64,192,82310,1,0,0:0:0:0:
192,192,82477,128,0,82644:0:0:0:0:
64,192,82644,1,0,0:0:0:0:
448,192,82810,128,0,82977:0:0:0:0:
192,192,82977,128,0,83144:0:0:0:0:
64,192,82977,1,0,0:0:0:0:
320,192,83144,128,0,83310:0:0:0:0:
448,192,83310,1,0,0:0:0:0:
448,192,83977,1,0,0:0:0:0:
320,192,83977,1,0,0:0:0:0:
64,192,83977,128,0,84144:0:0:0:0:
192,192,84144,128,0,84310:0:0:0:0:
320,192,84310,128,0,84477:0:0:0:0:
448,192,84310,1,0,0:0:0:0:
64,192,84477,128,0,84644:0:0:0:0:
448,192,84644,1,0,0:0:0:0:
192,192,84810,128,0,84977:0:0:0:0:
320,192,84977,128,0,85144:0:0:0:0:
64,192,84977,1,0,0:0:0:0:
448,192,85144,128,0,85310:0:0:0:0:
192,192,85310,1,0,0:0:0:0:
64,192,85310,1,0,0:0:0:0:
320,192,85477,1,0,0:0:0:0:
192,192,85560,1,0,0:0:0:0:
64,192,85644,1,0,0:0:0:0:
448,192,85644,1,0,0:0:0:0:
192,192,85810,1,0,0:0:0:0:
448,192,85810,1,0,0:0:0:0:
448,192,85977,1,0,0:0:0:0:
192,192,85977,1,0,0:0:0:0:
320,192,86144,1,0,0:0:0:0:
448,192,86144,1,0,0:0:0:0:
320,192,86310,1,0,0:0:0:0:
448,192,86310,1,0,0:0:0:0:
64,192,86644,1,0,0:0:0:0:
192,192,86644,1,0,0:0:0:0:
320,192,86810,1,0,0:0:0:0:
448,192,86977,1,0,0:0:0:0:
64,192,86977,1,0,0:0:0:0:
192,192,87144,1,0,0:0:0:0:
320,192,87310,1,0,0:0:0:0:
64,192,87477,1,0,0:0:0:0:
192,192,87477,1,0,0:0:0:0:
320,192,87644,1,0,0:0:0:0:
448,192,87644,1,0,0:0:0:0:
192,192,87810,1,0,0:0:0:0:
64,192,87977,1,0,0:0:0:0:
448,192,87977,1,0,0:0:0:0:
320,192,88144,1,0,0:0:0:0:
64,192,88310,1,0,0:0:0:0:
192,192,88310,1,0,0:0:0:0:
320,192,88477,1,0,0:0:0:0:
64,192,88644,1,0,0:0:0:0:
448,192,88810,1,0,0:0:0:0:
320,192,88810,1,0,0:0:0:0:
192,192,88977,1,0,0:0:0:0:
64,192,88977,1,0,0:0:0:0:
64,192,89144,1,0,0:0:0:0:
448,192,89144,1,0,0:0:0:0:
192,192,89310,1,0,0:0:0:0:
448,192,89310,1,0,0:0:0:0:
320,192,89477,1,0,0:0:0:0:
64,192,89644,1,0,0:0:0:0:
448,192,89644,1,0,0:0:0:0:
192,192,89810,1,0,0:0:0:0:
320,192,89977,1,0,0:0:0:0:
64,192,90144,1,0,0:0:0:0:
448,192,90144,1,0,0:0:0:0:
320,192,90310,1,0,0:0:0:0:
192,192,90310,1,0,0:0:0:0:
64,192,90477,1,0,0:0:0:0:
320,192,90644,1,0,0:0:0:0:
448,192,90644,1,0,0:0:0:0:
448,192,90810,1,0,0:0:0:0:
64,192,90810,1,0,0:0:0:0:
192,192,90810,1,0,0:0:0:0:
64,192,90977,1,0,0:0:0:0:
448,192,90977,1,0,0:0:0:0:
320,192,90977,1,0,0:0:0:0:
320,192,91144,1,0,0:0:0:0:
192,192,91144,1,0,0:0:0:0:
64,192,91310,1,0,0:0:0:0:
448,192,91310,1,0,0:0:0:0:
64,192,91477,1,0,0:0:0:0:
192,192,91477,1,0,0:0:0:0:
448,192,91644,1,0,0:0:0:0:
320,192,91644,1,0,0:0:0:0:
192,192,91810,1,0,0:0:0:0:
320,192,91810,1,0,0:0:0:0:
192,192,91977,1,0,0:0:0:0:
64,192,91977,1,0,0:0:0:0:
448,192,92144,1,0,0:0:0:0:
320,192,92310,1,0,0:0:0:0:
64,192,92310,1,0,0:0:0:0:
192,192,92477,1,0,0:0:0:0:
320,192,92644,1,0,0:0:0:0:
192,192,92810,1,0,0:0:0:0:
448,192,92810,1,0,0:0:0:0:
320,192,92977,1,0,0:0:0:0:
64,192,92977,1,0,0:0:0:0:
192,192,93144,1,0,0:0:0:0:
320,192,93310,1,0,0:0:0:0:
448,192,93310,1,0,0:0:0:0:
64,192,93477,1,0,0:0:0:0:
448,192,93644,1,0,0:0:0:0:
192,192,93644,1,0,0:0:0:0:
64,192,93810,1,0,0:0:0:0:
320,192,93977,1,0,0:0:0:0:
64,192,94144,1,0,0:0:0:0:
192,192,94144,1,0,0:0:0:0:
320,192,94310,1,0,0:0:0:0:
448,192,94310,1,0,0:0:0:0:
64,192,94477,1,0,0:0:0:0:
448,192,94477,1,0,0:0:0:0:
192,192,94644,1,0,0:0:0:0:
64,192,94644,1,0,0:0:0:0:
320,192,94810,1,0,0:0:0:0:
448,192,94977,1,0,0:0:0:0:
64,192,94977,1,0,0:0:0:0:
192,192,95144,1,0,0:0:0:0:
448,192,95310,1,0,0:0:0:0:
192,192,95477,1,0,0:0:0:0:
320,192,95477,1,0,0:0:0:0:
448,192,95644,1,0,0:0:0:0:
64,192,95644,1,0,0:0:0:0:
192,192,95810,1,0,0:0:0:0:
64,192,95977,1,0,0:0:0:0:
320,192,95977,1,0,0:0:0:0:
448,192,96144,1,0,0:0:0:0:
320,192,96185,1,0,0:0:0:0:
192,192,96227,1,0,0:0:0:0:
64,192,96269,1,0,0:0:0:0:
448,192,96310,1,0,0:0:0:0:
320,192,96310,1,0,0:0:0:0:
64,192,96477,1,0,0:0:0:0:
192,192,96477,1,0,0:0:0:0:
448,192,96477,1,0,0:0:0:0:
64,192,96644,1,0,0:0:0:0:
192,192,96644,1,0,0:0:0:0:
448,192,96644,1,0,0:0:0:0:
320,192,96810,1,0,0:0:0:0:
448,192,96810,1,0,0:0:0:0:
320,192,96977,1,0,0:0:0:0:
448,192,96977,1,0,0:0:0:0:
448,192,97310,1,0,0:0:0:0:
64,192,97310,1,0,0:0:0:0:
320,192,97394,1,0,0:0:0:0:
192,192,97477,1,0,0:0:0:0:
64,192,97560,1,0,0:0:0:0:
448,192,97644,1,0,0:0:0:0:
320,192,97644,1,0,0:0:0:0:
192,192,97727,1,0,0:0:0:0:
320,192,97810,1,0,0:0:0:0:
448,192,97894,1,0,0:0:0:0:
64,192,97977,1,0,0:0:0:0:
192,192,98060,1,0,0:0:0:0:
448,192,98144,1,0,0:0:0:0:
320,192,98227,1,0,0:0:0:0:
64,192,98310,1,0,0:0:0:0:
192,192,98310,1,0,0:0:0:0:
448,192,98394,1,0,0:0:0:0:
320,192,98477,1,0,0:0:0:0:
192,192,98560,1,0,0:0:0:0:
448,192,98644,1,0,0:0:0:0:
64,192,98644,1,0,0:0:0:0:
320,192,98727,1,0,0:0:0:0:
64,192,98810,1,0,0:0:0:0:
192,192,98894,1,0,0:0:0:0:
320,192,98977,1,0,0:0:0:0:
448,192,98977,1,0,0:0:0:0:
64,192,99060,1,0,0:0:0:0:
192,192,99144,1,0,0:0:0:0:
320,192,99227,1,0,0:0:0:0:
448,192,99310,1,0,0:0:0:0:
320,192,99394,1,0,0:0:0:0:
64,192,99477,1,0,0:0:0:0:
192,192,99560,1,0,0:0:0:0:
448,192,99644,1,0,0:0:0:0:
64,192,99644,1,0,0:0:0:0:
320,192,99727,1,0,0:0:0:0:
192,192,99810,1,0,0:0:0:0:
320,192,99894,1,0,0:0:0:0:
448,192,99977,1,0,0:0:0:0:
64,192,99977,1,0,0:0:0:0:
320,192,100060,1,0,0:0:0:0:
64,192,100144,1,0,0:0:0:0:
192,192,100227,1,0,0:0:0:0:
448,192,100310,1,0,0:0:0:0:
320,192,100310,1,0,0:0:0:0:
64,192,100394,1,0,0:0:0:0:
192,192,100477,1,0,0:0:0:0:
320,192,100560,1,0,0:0:0:0:
448,192,100644,1,0,0:0:0:0:
320,192,100727,1,0,0:0:0:0:
192,192,100810,1,0,0:0:0:0:
64,192,100894,1,0,0:0:0:0:
192,192,100977,1,0,0:0:0:0:
448,192,100977,1,0,0:0:0:0:
320,192,101060,1,0,0:0:0:0:
64,192,101144,1,0,0:0:0:0:
192,192,101227,1,0,0:0:0:0:
320,192,101310,1,0,0:0:0:0:
448,192,101310,1,0,0:0:0:0:
64,192,101394,1,0,0:0:0:0:
448,192,101477,1,0,0:0:0:0:
320,192,101560,1,0,0:0:0:0:
448,192,101644,1,0,0:0:0:0:
64,192,101644,1,0,0:0:0:0:
192,192,101727,1,0,0:0:0:0:
320,192,101810,1,0,0:0:0:0:
448,192,101894,1,0,0:0:0:0:
64,192,101977,1,0,0:0:0:0:
192,192,102060,1,0,0:0:0:0:
448,192,102144,1,0,0:0:0:0:
320,192,102227,1,0,0:0:0:0:
64,192,102310,1,0,0:0:0:0:
192,192,102310,1,0,0:0:0:0:
448,192,102394,1,0,0:0:0:0:
320,192,102477,1,0,0:0:0:0:
192,192,102560,1,0,0:0:0:0:
448,192,102644,1,0,0:0:0:0:
64,192,102644,1,0,0:0:0:0:
192,192,102727,1,0,0:0:0:0:
320,192,102810,1,0,0:0:0:0:
448,192,102894,1,0,0:0:0:0:
320,192,102977,1,0,0:0:0:0:
64,192,102977,1,0,0:0:0:0:
192,192,103060,1,0,0:0:0:0:
448,192,103144,1,0,0:0:0:0:
320,192,103227,1,0,0:0:0:0:
64,192,103310,1,0,0:0:0:0:
192,192,103394,1,0,0:0:0:0:
320,192,103477,1,0,0:0:0:0:
448,192,103560,1,0,0:0:0:0:
64,192,103644,1,0,0:0:0:0:
192,192,103644,1,0,0:0:0:0:
320,192,103727,1,0,0:0:0:0:
64,192,103810,1,0,0:0:0:0:
192,192,103894,1,0,0:0:0:0:
448,192,103977,1,0,0:0:0:0:
320,192,103977,1,0,0:0:0:0:
64,192,104060,1,0,0:0:0:0:
192,192,104144,1,0,0:0:0:0:
320,192,104227,1,0,0:0:0:0:
64,192,104310,1,0,0:0:0:0:
448,192,104310,1,0,0:0:0:0:
320,192,104394,1,0,0:0:0:0:
192,192,104477,1,0,0:0:0:0:
64,192,104560,1,0,0:0:0:0:
320,192,104644,1,0,0:0:0:0:
448,192,104727,1,0,0:0:0:0:
64,192,104810,1,0,0:0:0:0:
192,192,104894,1,0,0:0:0:0:
448,192,104977,1,0,0:0:0:0:
320,192,104977,1,0,0:0:0:0:
192,192,105060,1,0,0:0:0:0:
64,192,105144,1,0,0:0:0:0:
448,192,105227,1,0,0:0:0:0:
64,192,105310,1,0,0:0:0:0:
320,192,105310,1,0,0:0:0:0:
192,192,105394,1,0,0:0:0:0:
320,192,105477,1,0,0:0:0:0:
448,192,105560,1,0,0:0:0:0:
192,192,105644,1,0,0:0:0:0:
64,192,105644,1,0,0:0:0:0:
320,192,105727,1,0,0:0:0:0:
448,192,105810,1,0,0:0:0:0:
320,192,105894,1,0,0:0:0:0:
192,192,105977,1,0,0:0:0:0:
64,192,106060,1,0,0:0:0:0:
448,192,106144,1,0,0:0:0:0:
320,192,106227,1,0,0:0:0:0:
64,192,106310,1,0,0:0:0:0:
192,192,106310,1,0,0:0:0:0:
320,192,106394,1,0,0:0:0:0:
448,192,106477,1,0,0:0:0:0:
64,192,106560,1,0,0:0:0:0:
192,192,106644,1,0,0:0:0:0:
448,192,106644,1,0,0:0:0:0:
320,192,106727,1,0,0:0:0:0:
64,192,106810,5,0,0:0:0:0:
192,192,106894,1,0,0:0:0:0:
320,192,106977,1,0,0:0:0:0:
64,192,106977,1,0,0:0:0:0:
448,192,107060,1,0,0:0:0:0:
192,192,107144,1,0,0:0:0:0:
64,192,107227,1,0,0:0:0:0:
448,192,107310,1,0,0:0:0:0:
320,192,107310,1,0,0:0:0:0:
192,192,107394,1,0,0:0:0:0:
320,192,107477,1,0,0:0:0:0:
448,192,107560,1,0,0:0:0:0:
64,192,107644,1,0,0:0:0:0:
192,192,107644,1,0,0:0:0:0:
448,192,107727,1,0,0:0:0:0:
320,192,107810,1,0,0:0:0:0:
192,192,107894,1,0,0:0:0:0:
448,192,107977,5,0,0:0:0:0:
64,192,107977,1,0,0:0:0:0:
320,192,108144,1,0,0:0:0:0:
448,192,108310,1,0,0:0:0:0:
192,192,108310,1,0,0:0:0:0:
64,192,108477,1,0,0:0:0:0:
192,192,108477,1,0,0:0:0:0:
448,192,108644,1,0,0:0:0:0:
320,192,108644,1,0,0:0:0:0:
192,192,108644,1,0,0:0:0:0:
320,192,108810,1,0,0:0:0:0:
448,192,108977,1,0,0:0:0:0:
64,192,108977,1,0,0:0:0:0:
192,192,109144,1,0,0:0:0:0:
320,192,109144,1,0,0:0:0:0:
448,192,109310,1,0,0:0:0:0:
64,192,109310,1,0,0:0:0:0:
320,192,109310,1,0,0:0:0:0:
448,192,109477,1,0,0:0:0:0:
192,192,109477,1,0,0:0:0:0:
320,192,109644,1,0,0:0:0:0:
64,192,109644,1,0,0:0:0:0:
448,192,109727,1,0,0:0:0:0:
192,192,109727,1,0,0:0:0:0:
192,192,109894,1,0,0:0:0:0:
320,192,109894,1,0,0:0:0:0:
448,192,109977,1,0,0:0:0:0:
64,192,109977,1,0,0:0:0:0:
192,192,110060,1,0,0:0:0:0:
320,192,110060,1,0,0:0:0:0:
448,192,110144,1,0,0:0:0:0:
64,192,110144,1,0,0:0:0:0:
192,192,110227,1,0,0:0:0:0:
448,192,110310,1,0,0:0:0:0:
320,192,110310,1,0,0:0:0:0:
64,192,110394,1,0,0:0:0:0:
192,192,110394,1,0,0:0:0:0:
448,192,110477,1,0,0:0:0:0:
320,192,110477,1,0,0:0:0:0:
64,192,110560,1,0,0:0:0:0:
192,192,110560,1,0,0:0:0:0:
448,192,110644,1,0,0:0:0:0:
320,192,110644,1,0,0:0:0:0:
192,192,110810,1,0,0:0:0:0:
448,192,110977,1,0,0:0:0:0:
320,192,110977,1,0,0:0:0:0:
64,192,110977,1,0,0:0:0:0:
192,192,111144,1,0,0:0:0:0:
448,192,111144,1,0,0:0:0:0:
64,192,111310,1,0,0:0:0:0:
448,192,111477,1,0,0:0:0:0:
320,192,111477,1,0,0:0:0:0:
448,192,111644,1,0,0:0:0:0:
64,192,111644,1,0,0:0:0:0:
192,192,111644,1,0,0:0:0:0:
320,192,111810,1,0,0:0:0:0:
448,192,111977,1,0,0:0:0:0:
64,192,111977,1,0,0:0:0:0:
192,192,112144,1,0,0:0:0:0:
448,192,112310,1,0,0:0:0:0:
320,192,112310,1,0,0:0:0:0:
64,192,112310,1,0,0:0:0:0:
448,192,112477,1,0,0:0:0:0:
192,192,112477,1,0,0:0:0:0:
64,192,112644,1,0,0:0:0:0:
320,192,112810,1,0,0:0:0:0:
192,192,112810,1,0,0:0:0:0:
192,192,112977,1,0,0:0:0:0:
64,192,112977,1,0,0:0:0:0:
448,192,112977,1,0,0:0:0:0:
320,192,113144,1,0,0:0:0:0:
448,192,113310,1,0,0:0:0:0:
192,192,113310,1,0,0:0:0:0:
320,192,113477,1,0,0:0:0:0:
448,192,113644,1,0,0:0:0:0:
64,192,113644,1,0,0:0:0:0:
192,192,113644,1,0,0:0:0:0:
320,192,113810,1,0,0:0:0:0:
192,192,113810,1,0,0:0:0:0:
64,192,113977,1,0,0:0:0:0:
448,192,114144,1,0,0:0:0:0:
320,192,114144,1,0,0:0:0:0:
64,192,114310,1,0,0:0:0:0:
192,192,114310,1,0,0:0:0:0:
320,192,114310,1,0,0:0:0:0:
448,192,114477,1,0,0:0:0:0:
64,192,114644,1,0,0:0:0:0:
320,192,114644,1,0,0:0:0:0:
192,192,114810,1,0,0:0:0:0:
64,192,114977,1,0,0:0:0:0:
448,192,114977,1,0,0:0:0:0:
320,192,114977,1,0,0:0:0:0:
192,192,115144,1,0,0:0:0:0:
448,192,115144,1,0,0:0:0:0:
320,192,115310,1,0,0:0:0:0:
448,192,115477,1,0,0:0:0:0:
192,192,115477,1,0,0:0:0:0:
320,192,115644,1,0,0:0:0:0:
448,192,115644,1,0,0:0:0:0:
64,192,115644,1,0,0:0:0:0:
192,192,115810,1,0,0:0:0:0:
320,192,115977,1,0,0:0:0:0:
448,192,115977,1,0,0:0:0:0:
64,192,116144,1,0,0:0:0:0:
320,192,116310,1,0,0:0:0:0:
192,192,116310,1,0,0:0:0:0:
448,192,116310,1,0,0:0:0:0:
320,192,116477,1,0,0:0:0:0:
64,192,116477,1,0,0:0:0:0:
448,192,116644,1,0,0:0:0:0:
320,192,116810,1,0,0:0:0:0:
192,192,116810,1,0,0:0:0:0:
448,192,116977,1,0,0:0:0:0:
192,192,116977,1,0,0:0:0:0:
64,192,116977,1,0,0:0:0:0:
320,192,117144,1,0,0:0:0:0:
64,192,117310,1,0,0:0:0:0:
192,192,117310,1,0,0:0:0:0:
448,192,117477,1,0,0:0:0:0:
64,192,117644,1,0,0:0:0:0:
192,192,117644,1,0,0:0:0:0:
320,192,117644,1,0,0:0:0:0:
448,192,117810,1,0,0:0:0:0:
64,192,117810,1,0,0:0:0:0:
192,192,117977,1,0,0:0:0:0:
320,192,118144,1,0,0:0:0:0:
448,192,118144,1,0,0:0:0:0:
448,192,118310,1,0,0:0:0:0:
192,192,118310,1,0,0:0:0:0:
64,192,118310,1,0,0:0:0:0:
448,192,118477,1,0,0:0:0:0:
320,192,118477,1,0,0:0:0:0:
320,192,118644,1,0,0:0:0:0:
64,192,118644,1,0,0:0:0:0:
192,192,118810,1,0,0:0:0:0:
448,192,118977,1,0,0:0:0:0:
320,192,118977,1,0,0:0:0:0:
64,192,118977,1,0,0:0:0:0:
192,192,119144,1,0,0:0:0:0:
448,192,119144,1,0,0:0:0:0:
320,192,119310,1,0,0:0:0:0:
448,192,119310,1,0,0:0:0:0:
192,192,119477,1,0,0:0:0:0:
448,192,119644,1,0,0:0:0:0:
192,192,119644,1,0,0:0:0:0:
64,192,119644,1,0,0:0:0:0:
64,192,119810,1,0,0:0:0:0:
320,192,119810,1,0,0:0:0:0:
192,192,119977,1,0,0:0:0:0:
64,192,119977,1,0,0:0:0:0:
448,192,120144,1,0,0:0:0:0:
192,192,120227,1,0,0:0:0:0:
320,192,120310,1,0,0:0:0:0:
64,192,120477,1,0,0:0:0:0:
320,192,120644,1,0,0:0:0:0:
448,192,120810,1,0,0:0:0:0:
192,192,120810,1,0,0:0:0:0:
448,192,120977,1,0,0:0:0:0:
192,192,120977,1,0,0:0:0:0:
64,192,121310,1,0,0:0:0:0:
448,192,121310,1,0,0:0:0:0:
192,192,121477,1,0,0:0:0:0:
448,192,121644,1,0,0:0:0:0:
320,192,121644,1,0,0:0:0:0:
64,192,121644,1,0,0:0:0:0:
192,192,121810,1,0,0:0:0:0:
448,192,121810,1,0,0:0:0:0:
320,192,121977,1,0,0:0:0:0:
192,192,122144,1,0,0:0:0:0:
64,192,122144,1,0,0:0:0:0:
320,192,122310,1,0,0:0:0:0:
448,192,122310,1,0,0:0:0:0:
64,192,122310,1,0,0:0:0:0:
192,192,122477,1,0,0:0:0:0:
64,192,122644,1,0,0:0:0:0:
448,192,122644,1,0,0:0:0:0:
320,192,122810,1,0,0:0:0:0:
448,192,122977,1,0,0:0:0:0:
64,192,122977,1,0,0:0:0:0:
192,192,122977,1,0,0:0:0:0:
448,192,123144,1,0,0:0:0:0:
320,192,123144,1,0,0:0:0:0:
64,192,123310,1,0,0:0:0:0:
192,192,123477,1,0,0:0:0:0:
320,192,123477,1,0,0:0:0:0:
64,192,123644,1,0,0:0:0:0:
192,192,123644,1,0,0:0:0:0:
448,192,123644,1,0,0:0:0:0:
320,192,123810,1,0,0:0:0:0:
192,192,123977,1,0,0:0:0:0:
64,192,123977,1,0,0:0:0:0:
448,192,124144,1,0,0:0:0:0:
192,192,124310,1,0,0:0:0:0:
64,192,124310,1,0,0:0:0:0:
320,192,124310,1,0,0:0:0:0:
192,192,124477,1,0,0:0:0:0:
448,192,124477,1,0,0:0:0:0:
64,192,124644,1,0,0:0:0:0:
448,192,124810,1,0,0:0:0:0:
320,192,124810,1,0,0:0:0:0:
448,192,124977,1,0,0:0:0:0:
64,192,124977,1,0,0:0:0:0:
192,192,124977,1,0,0:0:0:0:
320,192,125144,1,0,0:0:0:0:
448,192,125310,1,0,0:0:0:0:
192,192,125310,1,0,0:0:0:0:
64,192,125477,1,0,0:0:0:0:
448,192,125644,1,0,0:0:0:0:
192,192,125644,1,0,0:0:0:0:
320,192,125644,1,0,0:0:0:0:
64,192,125810,1,0,0:0:0:0:
192,192,125810,1,0,0:0:0:0:
448,192,125977,1,0,0:0:0:0:
192,192,126144,1,0,0:0:0:0:
320,192,126144,1,0,0:0:0:0:
448,192,126310,1,0,0:0:0:0:
320,192,126310,1,0,0:0:0:0:
64,192,126310,1,0,0:0:0:0:
192,192,126477,1,0,0:0:0:0:
448,192,126644,1,0,0:0:0:0:
64,192,126644,1,0,0:0:0:0:
320,192,126810,1,0,0:0:0:0:
64,192,126977,1,0,0:0:0:0:
448,192,126977,1,0,0:0:0:0:
192,192,126977,1,0,0:0:0:0:
64,192,127144,1,0,0:0:0:0:
320,192,127144,1,0,0:0:0:0:
192,192,127310,1,0,0:0:0:0:
448,192,127477,1,0,0:0:0:0:
320,192,127477,1,0,0:0:0:0:
64,192,127644,1,0,0:0:0:0:
192,192,127644,1,0,0:0:0:0:
448,192,127644,1,0,0:0:0:0:
320,192,127810,1,0,0:0:0:0:
64,192,127977,1,0,0:0:0:0:
448,192,127977,1,0,0:0:0:0:
64,192,128144,1,0,0:0:0:0:
192,192,128144,1,0,0:0:0:0:
320,192,128227,1,0,0:0:0:0:
448,192,128227,1,0,0:0:0:0:
192,192,128310,1,0,0:0:0:0:
64,192,128310,1,0,0:0:0:0:
192,192,128477,1,0,0:0:0:0:
320,192,128477,1,0,0:0:0:0:
64,192,128644,1,0,0:0:0:0:
320,192,128644,1,0,0:0:0:0:
448,192,128644,1,0,0:0:0:0:
320,192,128810,1,0,0:0:0:0:
448,192,128810,1,0,0:0:0:0:
192,192,128894,1,0,0:0:0:0:
64,192,128894,1,0,0:0:0:0:
64,192,128977,1,0,0:0:0:0:
320,192,128977,1,0,0:0:0:0:
448,192,128977,1,0,0:0:0:0:
64,192,129144,1,0,0:0:0:0:
192,192,129144,1,0,0:0:0:0:
448,192,129144,1,0,0:0:0:0:
448,192,129310,1,0,0:0:0:0:
320,192,129310,1,0,0:0:0:0:
448,192,129477,1,0,0:0:0:0:
320,192,129477,1,0,0:0:0:0:
64,192,129644,1,0,0:0:0:0:
192,192,129644,1,0,0:0:0:0:
192,192,129810,1,0,0:0:0:0:
64,192,129810,1,0,0:0:0:0:
320,192,129977,1,0,0:0:0:0:
448,192,129977,1,0,0:0:0:0:
64,192,130060,1,0,0:0:0:0:
192,192,130060,1,0,0:0:0:0:
448,192,130144,1,0,0:0:0:0:
320,192,130144,1,0,0:0:0:0:
64,192,130227,1,0,0:0:0:0:
192,192,130227,1,0,0:0:0:0:
448,192,130310,1,0,0:0:0:0:
320,192,130310,1,0,0:0:0:0:
192,192,130394,1,0,0:0:0:0:
64,192,130394,1,0,0:0:0:0:
448,192,130477,1,0,0:0:0:0:
320,192,130477,1,0,0:0:0:0:
192,192,130560,1,0,0:0:0:0:
64,192,130560,1,0,0:0:0:0:
320,192,130644,1,0,0:0:0:0:
448,192,130644,1,0,0:0:0:0:
64,192,130810,1,0,0:0:0:0:
192,192,130852,1,0,0:0:0:0:
320,192,130894,1,0,0:0:0:0:
448,192,130935,1,0,0:0:0:0:
192,192,130977,1,0,0:0:0:0:
64,192,130977,1,0,0:0:0:0:
64,192,131144,1,0,0:0:0:0:
320,192,131144,1,0,0:0:0:0:
448,192,131310,1,0,0:0:0:0:
192,192,131310,1,0,0:0:0:0:
320,192,131477,1,0,0:0:0:0:
192,192,131477,1,0,0:0:0:0:
192,192,131644,1,0,0:0:0:0:
320,192,131644,1,0,0:0:0:0:
320,192,131977,1,0,0:0:0:0:
448,192,131977,1,0,0:0:0:0:
64,192,131977,1,0,0:0:0:0:
192,192,131977,1,0,0:0:0:0:
448,192,132144,1,0,0:0:0:0:
64,192,132144,1,0,0:0:0:0:
64,192,132477,1,0,0:0:0:0:
192,192,132477,1,0,0:0:0:0:
64,192,132810,1,0,0:0:0:0:
320,192,132810,1,0,0:0:0:0:
448,192,132810,1,0,0:0:0:0:
192,192,132977,1,0,0:0:0:0:
64,192,133144,1,0,0:0:0:0:
320,192,133144,1,0,0:0:0:0:
448,192,133144,1,0,0:0:0:0:
448,192,133310,128,0,133644:0:0:0:0:
192,192,133310,1,0,0:0:0:0:
64,192,133310,1,0,0:0:0:0:
320,192,133310,1,0,0:0:0:0:
64,192,133477,1,0,0:0:0:0:
192,192,133477,1,0,0:0:0:0:
320,192,133644,1,0,0:0:0:0:
448,192,133810,1,0,0:0:0:0:
64,192,133810,1,0,0:0:0:0:
64,192,134144,1,0,0:0:0:0:
448,192,134144,1,0,0:0:0:0:
320,192,134144,1,0,0:0:0:0:
192,192,134310,1,0,0:0:0:0:
64,192,134477,1,0,0:0:0:0:
448,192,134477,1,0,0:0:0:0:
320,192,134477,1,0,0:0:0:0:
448,192,134644,128,0,134977:0:0:0:0:
320,192,134644,1,0,0:0:0:0:
192,192,134644,1,0,0:0:0:0:
64,192,134644,1,0,0:0:0:0:
192,192,134810,1,0,0:0:0:0:
320,192,134810,1,0,0:0:0:0:
64,192,134977,1,0,0:0:0:0:
192,192,135144,1,0,0:0:0:0:
448,192,135144,1,0,0:0:0:0:
64,192,135477,1,0,0:0:0:0:
192,192,135477,1,0,0:0:0:0:
448,192,135477,1,0,0:0:0:0:
320,192,135644,1,0,0:0:0:0:
64,192,135810,1,0,0:0:0:0:
192,192,135810,1,0,0:0:0:0:
448,192,135810,1,0,0:0:0:0:
64,192,135977,128,0,136310:0:0:0:0:
192,192,135977,1,0,0:0:0:0:
320,192,135977,1,0,0:0:0:0:
448,192,135977,1,0,0:0:0:0:
320,192,136144,1,0,0:0:0:0:
448,192,136144,1,0,0:0:0:0:
192,192,136310,1,0,0:0:0:0:
64,192,136477,1,0,0:0:0:0:
320,192,136477,1,0,0:0:0:0:
64,192,136810,1,0,0:0:0:0:
192,192,136810,1,0,0:0:0:0:
448,192,136810,1,0,0:0:0:0:
320,192,136977,1,0,0:0:0:0:
64,192,137144,1,0,0:0:0:0:
192,192,137144,1,0,0:0:0:0:
448,192,137144,1,0,0:0:0:0:
64,192,137310,128,0,137644:0:0:0:0:
192,192,137310,1,0,0:0:0:0:
320,192,137310,1,0,0:0:0:0:
448,192,137310,1,0,0:0:0:0:
192,192,137477,1,0,0:0:0:0:
320,192,137477,1,0,0:0:0:0:
448,192,137644,1,0,0:0:0:0:
192,192,137810,1,0,0:0:0:0:
320,192,137810,1,0,0:0:0:0:
448,192,137977,128,0,138310:0:0:0:0:
64,192,137977,1,0,0:0:0:0:
320,192,137977,1,0,0:0:0:0:
64,192,138144,1,0,0:0:0:0:
192,192,138144,1,0,0:0:0:0:
320,192,138144,1,0,0:0:0:0:
192,192,138310,1,0,0:0:0:0:
448,192,138477,1,0,0:0:0:0:
64,192,138477,1,0,0:0:0:0:
64,192,138644,128,0,138977:0:0:0:0:
320,192,138644,1,0,0:0:0:0:
192,192,138644,1,0,0:0:0:0:
192,192,138810,1,0,0:0:0:0:
448,192,138810,1,0,0:0:0:0:
320,192,138977,1,0,0:0:0:0:
64,192,139144,1,0,0:0:0:0:
448,192,139144,1,0,0:0:0:0:
320,192,139310,128,0,139644:0:0:0:0:
192,192,139310,1,0,0:0:0:0:
448,192,139310,1,0,0:0:0:0:
64,192,139477,1,0,0:0:0:0:
448,192,139477,1,0,0:0:0:0:
192,192,139644,1,0,0:0:0:0:
320,192,139810,1,0,0:0:0:0:
64,192,139810,1,0,0:0:0:0:
192,192,139977,128,0,140310:0:0:0:0:
64,192,139977,1,0,0:0:0:0:
320,192,139977,1,0,0:0:0:0:
64,192,140144,1,0,0:0:0:0:
448,192,140144,1,0,0:0:0:0:
320,192,140310,1,0,0:0:0:0:
448,192,140310,1,0,0:0:0:0:
64,192,140477,1,0,0:0:0:0:
192,192,140477,1,0,0:0:0:0:
320,192,140644,128,0,141310:0:0:0:0:
64,192,140644,1,0,0:0:0:0:
448,192,140644,1,0,0:0:0:0:
192,192,140810,1,0,0:0:0:0:
448,192,140977,1,0,0:0:0:0:
64,192,140977,1,0,0:0:0:0:
192,192,141144,1,0,0:0:0:0:
64,192,141310,1,0,0:0:0:0:
448,192,141310,1,0,0:0:0:0:
192,192,141310,1,0,0:0:0:0:
320,192,141477,1,0,0:0:0:0:
448,192,141644,1,0,0:0:0:0:
64,192,141644,1,0,0:0:0:0:
192,192,141644,1,0,0:0:0:0:
320,192,141810,1,0,0:0:0:0:
448,192,141977,1,0,0:0:0:0:
192,192,142060,1,0,0:0:0:0:
320,192,142144,1,0,0:0:0:0:
64,192,142227,1,0,0:0:0:0:
448,192,142310,1,0,0:0:0:0:
192,192,142394,1,0,0:0:0:0:
320,192,142477,1,0,0:0:0:0:
64,192,142560,1,0,0:0:0:0:
320,192,142644,1,0,0:0:0:0:
448,192,142644,1,0,0:0:0:0:
64,192,142810,1,0,0:0:0:0:
192,192,142852,1,0,0:0:0:0:
320,192,142894,1,0,0:0:0:0:
448,192,142935,1,0,0:0:0:0:
192,192,142977,1,0,0:0:0:0:
64,192,142977,1,0,0:0:0:0:
64,192,143144,1,0,0:0:0:0:
320,192,143144,1,0,0:0:0:0:
320,192,143310,1,0,0:0:0:0:
64,192,143310,1,0,0:0:0:0:
448,192,143477,1,0,0:0:0:0:
192,192,143477,1,0,0:0:0:0:
320,192,143644,1,0,0:0:0:0:
448,192,143644,1,0,0:0:0:0:
320,192,143977,1,0,0:0:0:0:
448,192,143977,1,0,0:0:0:0:
64,192,143977,128,0,145310:0:0:0:0:
192,192,144144,1,0,0:0:0:0:
448,192,144310,1,0,0:0:0:0:
320,192,144310,1,0,0:0:0:0:
448,192,144477,1,0,0:0:0:0:
320,192,144644,1,0,0:0:0:0:
192,192,144810,1,0,0:0:0:0:
320,192,144977,1,0,0:0:0:0:
192,192,144977,1,0,0:0:0:0:
448,192,145144,1,0,0:0:0:0:
320,192,145310,128,0,145644:0:0:0:0:
192,192,145310,1,0,0:0:0:0:
448,192,145477,1,0,0:0:0:0:
64,192,145644,128,0,145810:0:0:0:0:
192,192,145644,1,0,0:0:0:0:
192,192,145810,128,0,146144:0:0:0:0:
448,192,145810,1,0,0:0:0:0:
320,192,145977,1,0,0:0:0:0:
448,192,146144,128,0,146477:0:0:0:0:
64,192,146144,1,0,0:0:0:0:
320,192,146310,1,0,0:0:0:0:
64,192,146310,1,0,0:0:0:0:
192,192,146477,128,0,147810:0:0:0:0:
320,192,146644,1,0,0:0:0:0:
448,192,146644,1,0,0:0:0:0:
64,192,146810,1,0,0:0:0:0:
448,192,146977,1,0,0:0:0:0:
320,192,146977,1,0,0:0:0:0:
320,192,147144,1,0,0:0:0:0:
64,192,147310,1,0,0:0:0:0:
448,192,147477,1,0,0:0:0:0:
448,192,147644,1,0,0:0:0:0:
320,192,147644,1,0,0:0:0:0:
64,192,147810,128,0,148477:0:0:0:0:
448,192,147977,1,0,0:0:0:0:
320,192,147977,1,0,0:0:0:0:
192,192,148144,1,0,0:0:0:0:
448,192,148310,1,0,0:0:0:0:
320,192,148310,1,0,0:0:0:0:
448,192,148477,128,0,148977:0:0:0:0:
320,192,148644,1,0,0:0:0:0:
192,192,148810,1,0,0:0:0:0:
320,192,148977,128,0,149310:0:0:0:0:
192,192,148977,1,0,0:0:0:0:
64,192,149144,1,0,0:0:0:0:
192,192,149310,128,0,150310:0:0:0:0:
448,192,149310,1,0,0:0:0:0:
64,192,149477,1,0,0:0:0:0:
448,192,149644,1,0,0:0:0:0:
320,192,149644,1,0,0:0:0:0:
448,192,149810,1,0,0:0:0:0:
320,192,149977,1,0,0:0:0:0:
64,192,150144,1,0,0:0:0:0:
64,192,150310,128,0,150477:0:0:0:0:
320,192,150310,1,0,0:0:0:0:
192,192,150477,128,0,150644:0:0:0:0:
320,192,150644,128,0,150977:0:0:0:0:
448,192,150644,1,0,0:0:0:0:
64,192,150810,1,0,0:0:0:0:
448,192,150977,1,0,0:0:0:0:
192,192,150977,1,0,0:0:0:0:
448,192,151144,1,0,0:0:0:0:
192,192,151310,128,0,151644:0:0:0:0:
320,192,151477,1,0,0:0:0:0:
320,192,151644,128,0,151977:0:0:0:0:
448,192,151644,1,0,0:0:0:0:
64,192,151810,1,0,0:0:0:0:
448,192,151977,128,0,152477:0:0:0:0:
192,192,151977,1,0,0:0:0:0:
64,192,152144,1,0,0:0:0:0:
192,192,152310,1,0,0:0:0:0:
320,192,152310,1,0,0:0:0:0:
320,192,152477,128,0,152977:0:0:0:0:
64,192,152644,1,0,0:0:0:0:
448,192,152810,1,0,0:0:0:0:
448,192,152977,1,0,0:0:0:0:
192,192,152977,1,0,0:0:0:0:
64,192,153144,1,0,0:0:0:0:
320,192,153144,1,0,0:0:0:0:
64,192,153310,1,0,0:0:0:0:
448,192,153310,1,0,0:0:0:0:
192,192,153310,1,0,0:0:0:0:
448,192,153477,1,0,0:0:0:0:
192,192,153477,1,0,0:0:0:0:
64,192,153477,1,0,0:0:0:0:
64,192,153644,1,0,0:0:0:0:
320,192,153644,1,0,0:0:0:0:
448,192,153644,1,0,0:0:0:0:
320,192,153810,1,0,0:0:0:0:
192,192,153810,1,0,0:0:0:0:
192,192,153977,1,0,0:0:0:0:
64,192,153977,1,0,0:0:0:0:
320,192,154060,1,0,0:0:0:0:
448,192,154060,1,0,0:0:0:0:
192,192,154144,1,0,0:0:0:0:
64,192,154144,1,0,0:0:0:0:
320,192,154310,128,0,154644:0:0:0:0:
448,192,154310,1,0,0:0:0:0:
192,192,154310,1,0,0:0:0:0:
448,192,154477,1,0,0:0:0:0:
64,192,154477,1,0,0:0:0:0:
192,192,154644,128,0,155644:0:0:0:0:
64,192,154644,1,0,0:0:0:0:
448,192,154810,1,0,0:0:0:0:
448,192,154977,1,0,0:0:0:0:
320,192,154977,1,0,0:0:0:0:
320,192,155144,1,0,0:0:0:0:
448,192,155310,1,0,0:0:0:0:
64,192,155477,1,0,0:0:0:0:
320,192,155644,128,0,155977:0:0:0:0:
64,192,155644,1,0,0:0:0:0:
192,192,155810,1,0,0:0:0:0:
448,192,155977,128,0,156310:0:0:0:0:
64,192,155977,1,0,0:0:0:0:
320,192,156144,1,0,0:0:0:0:
192,192,156310,128,0,156644:0:0:0:0:
64,192,156310,1,0,0:0:0:0:
64,192,156477,1,0,0:0:0:0:
320,192,156644,128,0,156977:0:0:0:0:
448,192,156810,1,0,0:0:0:0:
64,192,156977,128,0,157310:0:0:0:0:
448,192,156977,1,0,0:0:0:0:
192,192,156977,1,0,0:0:0:0:
320,192,157144,1,0,0:0:0:0:
448,192,157310,128,0,158310:0:0:0:0:
192,192,157310,1,0,0:0:0:0:
320,192,157477,1,0,0:0:0:0:
64,192,157644,1,0,0:0:0:0:
192,192,157644,1,0,0:0:0:0:
192,192,157810,1,0,0:0:0:0:
64,192,157977,1,0,0:0:0:0:
320,192,158144,1,0,0:0:0:0:
320,192,158310,128,0,158644:0:0:0:0:
192,192,158310,1,0,0:0:0:0:
448,192,158477,1,0,0:0:0:0:
64,192,158644,1,0,0:0:0:0:
192,192,158644,128,0,159644:0:0:0:0:
448,192,158810,1,0,0:0:0:0:
320,192,158977,1,0,0:0:0:0:
320,192,159144,1,0,0:0:0:0:
448,192,159144,1,0,0:0:0:0:
64,192,159310,1,0,0:0:0:0:
448,192,159477,1,0,0:0:0:0:
320,192,159644,128,0,159977:0:0:0:0:
64,192,159644,1,0,0:0:0:0:
448,192,159644,1,0,0:0:0:0:
192,192,159810,1,0,0:0:0:0:
448,192,159977,128,0,161310:0:0:0:0:
64,192,159977,1,0,0:0:0:0:
192,192,160144,1,0,0:0:0:0:
64,192,160310,1,0,0:0:0:0:
320,192,160310,1,0,0:0:0:0:
64,192,160477,1,0,0:0:0:0:
192,192,160644,1,0,0:0:0:0:
320,192,160810,1,0,0:0:0:0:
320,192,160977,1,0,0:0:0:0:
192,192,160977,1,0,0:0:0:0:
64,192,161144,1,0,0:0:0:0:
192,192,161144,1,0,0:0:0:0:
320,192,161310,128,0,161644:0:0:0:0:
64,192,161310,1,0,0:0:0:0:
64,192,161644,1,0,0:0:0:0:
192,192,161644,1,0,0:0:0:0:
64,192,161810,1,0,0:0:0:0:
448,192,161810,1,0,0:0:0:0:
448,192,161977,1,0,0:0:0:0:
192,192,161977,128,0,162310:0:0:0:0:
64,192,162310,128,0,162644:0:0:0:0:
320,192,162310,1,0,0:0:0:0:
448,192,162310,1,0,0:0:0:0:
192,192,162477,1,0,0:0:0:0:
320,192,162477,1,0,0:0:0:0:
448,192,162644,1,0,0:0:0:0:
192,192,162644,1,0,0:0:0:0:
448,192,162810,1,0,0:0:0:0:
192,192,162810,1,0,0:0:0:0:
192,192,162977,1,0,0:0:0:0:
64,192,162977,1,0,0:0:0:0:
192,192,163144,1,0,0:0:0:0:
64,192,163144,1,0,0:0:0:0:
320,192,163310,1,0,0:0:0:0:
448,192,163310,1,0,0:0:0:0:
192,192,163394,1,0,0:0:0:0:
64,192,163394,1,0,0:0:0:0:
320,192,163477,1,0,0:0:0:0:
448,192,163477,1,0,0:0:0:0:
192,192,163560,1,0,0:0:0:0:
64,192,163560,1,0,0:0:0:0:
320,192,163644,1,0,0:0:0:0:
448,192,163644,1,0,0:0:0:0:
192,192,163727,1,0,0:0:0:0:
64,192,163727,1,0,0:0:0:0:
320,192,163810,1,0,0:0:0:0:
448,192,163810,1,0,0:0:0:0:
192,192,163894,1,0,0:0:0:0:
64,192,163894,1,0,0:0:0:0:
448,192,163977,1,0,0:0:0:0:
320,192,163977,1,0,0:0:0:0:
448,192,164144,1,0,0:0:0:0:
320,192,164185,1,0,0:0:0:0:
192,192,164227,1,0,0:0:0:0:
64,192,164269,1,0,0:0:0:0:
320,192,164310,1,0,0:0:0:0:
448,192,164310,1,0,0:0:0:0:
192,192,164477,1,0,0:0:0:0:
448,192,164477,1,0,0:0:0:0:
192,192,164644,1,0,0:0:0:0:
448,192,164644,1,0,0:0:0:0:
64,192,164810,1,0,0:0:0:0:
192,192,164810,1,0,0:0:0:0:
192,192,164977,1,0,0:0:0:0:
320,192,164977,1,0,0:0:0:0:
64,192,165310,1,0,0:0:0:0:
320,192,165310,1,0,0:0:0:0:
448,192,165310,128,0,166310:0:0:0:0:
192,192,165477,1,0,0:0:0:0:
64,192,165644,1,0,0:0:0:0:
192,192,165644,1,0,0:0:0:0:
320,192,165810,1,0,0:0:0:0:
192,192,165977,1,0,0:0:0:0:
320,192,166144,1,0,0:0:0:0:
320,192,166310,128,0,166477:0:0:0:0:
64,192,166310,1,0,0:0:0:0:
192,192,166477,128,0,166644:0:0:0:0:
64,192,166644,128,0,166977:0:0:0:0:
320,192,166644,1,0,0:0:0:0:
448,192,166810,1,0,0:0:0:0:
192,192,166977,128,0,167310:0:0:0:0:
320,192,166977,1,0,0:0:0:0:
320,192,167144,1,0,0:0:0:0:
448,192,167310,128,0,167644:0:0:0:0:
64,192,167477,1,0,0:0:0:0:
320,192,167644,128,0,167977:0:0:0:0:
64,192,167644,1,0,0:0:0:0:
192,192,167810,1,0,0:0:0:0:
64,192,167977,128,0,168310:0:0:0:0:
448,192,167977,1,0,0:0:0:0:
192,192,168144,1,0,0:0:0:0:
320,192,168310,1,0,0:0:0:0:
448,192,168310,1,0,0:0:0:0:
448,192,168477,1,0,0:0:0:0:
320,192,168644,128,0,168977:0:0:0:0:
64,192,168810,1,0,0:0:0:0:
192,192,168977,1,0,0:0:0:0:
64,192,168977,1,0,0:0:0:0:
448,192,169144,1,0,0:0:0:0:
320,192,169310,128,0,169644:0:0:0:0:
192,192,169310,1,0,0:0:0:0:
64,192,169477,1,0,0:0:0:0:
448,192,169644,128,0,169977:0:0:0:0:
192,192,169644,1,0,0:0:0:0:
192,192,169810,1,0,0:0:0:0:
320,192,169977,128,0,170310:0:0:0:0:
64,192,169977,1,0,0:0:0:0:
448,192,170144,1,0,0:0:0:0:
64,192,170310,128,0,170644:0:0:0:0:
448,192,170310,1,0,0:0:0:0:
192,192,170477,1,0,0:0:0:0:
320,192,170644,1,0,0:0:0:0:
448,192,170810,1,0,0:0:0:0:
192,192,170810,1,0,0:0:0:0:
320,192,170977,1,0,0:0:0:0:
64,192,170977,1,0,0:0:0:0:
448,192,170977,1,0,0:0:0:0:
64,192,171144,1,0,0:0:0:0:
192,192,171144,1,0,0:0:0:0:
448,192,171310,128,0,171477:0:0:0:0:
64,192,171310,1,0,0:0:0:0:
320,192,171477,128,0,171644:0:0:0:0:
192,192,171477,1,0,0:0:0:0:
64,192,171644,128,0,171810:0:0:0:0:
192,192,171644,1,0,0:0:0:0:
192,192,171810,128,0,171977:0:0:0:0:
320,192,171977,1,0,0:0:0:0:
448,192,172144,1,0,0:0:0:0:
64,192,172144,1,0,0:0:0:0:
64,192,172310,1,0,0:0:0:0:
320,192,172310,1,0,0:0:0:0:
320,192,172477,1,0,0:0:0:0:
448,192,172477,1,0,0:0:0:0:
192,192,172644,128,0,172810:0:0:0:0:
448,192,172644,1,0,0:0:0:0:
64,192,172810,128,0,172977:0:0:0:0:
320,192,172810,1,0,0:0:0:0:
320,192,172977,128,0,173144:0:0:0:0:
192,192,172977,1,0,0:0:0:0:
448,192,173144,128,0,173310:0:0:0:0:
64,192,173310,1,0,0:0:0:0:
192,192,173310,1,0,0:0:0:0:
64,192,173810,128,0,173977:0:0:0:0:
192,192,173810,128,0,173977:0:0:0:0:
320,192,173977,1,0,0:0:0:0:
448,192,173977,1,0,0:0:0:0:
192,192,174477,128,0,174644:0:0:0:0:
320,192,174477,128,0,174644:0:0:0:0:
448,192,174644,1,0,0:0:0:0:
64,192,174644,1,0,0:0:0:0:
320,192,174810,1,0,0:0:0:0:
64,192,174894,1,0,0:0:0:0:
448,192,174977,1,0,0:0:0:0:
192,192,175144,1,0,0:0:0:0:
64,192,175310,1,0,0:0:0:0:
448,192,175310,1,0,0:0:0:0:
192,192,175477,1,0,0:0:0:0:
320,192,175477,1,0,0:0:0:0:
192,192,175644,1,0,0:0:0:0:
320,192,175644,1,0,0:0:0:0:
448,192,175977,128,0,176310:0:0:0:0:
192,192,175977,1,0,0:0:0:0:
320,192,175977,1,0,0:0:0:0:
64,192,176144,1,0,0:0:0:0:
192,192,176310,1,0,0:0:0:0:
320,192,176310,1,0,0:0:0:0:
320,192,176477,1,0,0:0:0:0:
448,192,176644,128,0,176977:0:0:0:0:
64,192,176810,1,0,0:0:0:0:
192,192,176977,128,0,177144:0:0:0:0:
64,192,176977,1,0,0:0:0:0:
320,192,177144,128,0,177310:0:0:0:0:
64,192,177310,128,0,177644:0:0:0:0:
448,192,177310,1,0,0:0:0:0:
320,192,177477,1,0,0:0:0:0:
192,192,177644,128,0,177977:0:0:0:0:
448,192,177644,1,0,0:0:0:0:
448,192,177810,1,0,0:0:0:0:
320,192,177977,128,0,178310:0:0:0:0:
64,192,178144,1,0,0:0:0:0:
192,192,178310,128,0,178644:0:0:0:0:
64,192,178310,1,0,0:0:0:0:
320,192,178477,1,0,0:0:0:0:
64,192,178644,128,0,178977:0:0:0:0:
448,192,178644,1,0,0:0:0:0:
448,192,178810,1,0,0:0:0:0:
320,192,178977,1,0,0:0:0:0:
192,192,178977,1,0,0:0:0:0:
320,192,179144,1,0,0:0:0:0:
192,192,179310,1,0,0:0:0:0:
64,192,179477,1,0,0:0:0:0:
192,192,179644,1,0,0:0:0:0:
64,192,179644,1,0,0:0:0:0:
320,192,179810,1,0,0:0:0:0:
448,192,179977,128,0,180310:0:0:0:0:
64,192,179977,1,0,0:0:0:0:
192,192,180144,1,0,0:0:0:0:
320,192,180310,128,0,180644:0:0:0:0:
64,192,180310,1,0,0:0:0:0:
64,192,180477,1,0,0:0:0:0:
192,192,180644,128,0,180977:0:0:0:0:
448,192,180810,1,0,0:0:0:0:
64,192,180977,128,0,181310:0:0:0:0:
448,192,180977,1,0,0:0:0:0:
320,192,181144,1,0,0:0:0:0:
192,192,181310,1,0,0:0:0:0:
448,192,181310,1,0,0:0:0:0:
448,192,181477,1,0,0:0:0:0:
320,192,181560,1,0,0:0:0:0:
192,192,181644,1,0,0:0:0:0:
64,192,181644,1,0,0:0:0:0:
448,192,181810,128,0,182144:0:0:0:0:
192,192,181977,128,0,182144:0:0:0:0:
64,192,182144,128,0,182477:0:0:0:0:
320,192,182144,128,0,182310:0:0:0:0:
192,192,182310,128,0,182644:0:0:0:0:
448,192,182477,128,0,182644:0:0:0:0:
320,192,182644,1,0,0:0:0:0:
64,192,182810,1,0,0:0:0:0:
192,192,182894,1,0,0:0:0:0:
320,192,182977,1,0,0:0:0:0:
448,192,182977,1,0,0:0:0:0:
64,192,183144,128,0,183477:0:0:0:0:
320,192,183310,128,0,183477:0:0:0:0:
192,192,183477,128,0,183644:0:0:0:0:
448,192,183477,128,0,183810:0:0:0:0:
320,192,183644,128,0,183977:0:0:0:0:
64,192,183810,128,0,183977:0:0:0:0:
448,192,183977,1,0,0:0:0:0:
192,192,184144,1,0,0:0:0:0:
64,192,184144,1,0,0:0:0:0:
448,192,184310,1,0,0:0:0:0:
320,192,184310,1,0,0:0:0:0:
320,192,184477,1,0,0:0:0:0:
448,192,184477,1,0,0:0:0:0:
448,192,184644,1,0,0:0:0:0:
192,192,184644,1,0,0:0:0:0:
64,192,184644,1,0,0:0:0:0:
320,192,184810,1,0,0:0:0:0:
448,192,184810,1,0,0:0:0:0:
192,192,184894,1,0,0:0:0:0:
64,192,184894,1,0,0:0:0:0:
64,192,184977,1,0,0:0:0:0:
320,192,184977,1,0,0:0:0:0:
448,192,184977,1,0,0:0:0:0:
64,192,185144,1,0,0:0:0:0:
320,192,185144,1,0,0:0:0:0:
448,192,185144,1,0,0:0:0:0:
192,192,185310,1,0,0:0:0:0:
64,192,185310,1,0,0:0:0:0:
448,192,185310,1,0,0:0:0:0:
64,192,185477,1,0,0:0:0:0:
192,192,185477,1,0,0:0:0:0:
320,192,185560,1,0,0:0:0:0:
448,192,185560,1,0,0:0:0:0:
64,192,185644,1,0,0:0:0:0:
192,192,185644,1,0,0:0:0:0:
192,192,185810,1,0,0:0:0:0:
320,192,185810,1,0,0:0:0:0:
448,192,185977,1,0,0:0:0:0:
64,192,185977,1,0,0:0:0:0:
448,192,186144,1,0,0:0:0:0:
64,192,186144,1,0,0:0:0:0:
192,192,186227,1,0,0:0:0:0:
320,192,186227,1,0,0:0:0:0:
448,192,186310,1,0,0:0:0:0:
64,192,186310,1,0,0:0:0:0:
192,192,186477,1,0,0:0:0:0:
448,192,186477,1,0,0:0:0:0:
64,192,186644,128,0,186810:0:0:0:0:
448,192,186644,128,0,186810:0:0:0:0:
320,192,186644,128,0,186810:0:0:0:0:
64,192,186977,128,0,187144:0:0:0:0:
320,192,186977,128,0,187144:0:0:0:0:
192,192,186977,128,0,187144:0:0:0:0:
448,192,187310,128,0,187477:0:0:0:0:
192,192,187310,128,0,187477:0:0:0:0:
320,192,187310,128,0,187477:0:0:0:0:
192,192,187644,128,0,187810:0:0:0:0:
64,192,187644,128,0,187810:0:0:0:0:
448,192,187644,128,0,187810:0:0:0:0:
192,192,187977,1,0,0:0:0:0:
320,192,187977,1,0,0:0:0:0:
192,192,188477,1,0,0:0:0:0:
320,192,188477,1,0,0:0:0:0:
64,192,188810,1,0,0:0:0:0:
448,192,188810,1,0,0:0:0:0:
64,192,188977,1,0,0:0:0:0:
448,192,188977,1,0,0:0:0:0:
64,192,189310,128,0,189644:0:0:0:0:
320,192,189310,1,0,0:0:0:0:
448,192,189810,1,0,0:0:0:0:
320,192,189894,1,0,0:0:0:0:
192,192,189977,1,0,0:0:0:0:
64,192,190144,1,0,0:0:0:0:
192,192,190310,1,0,0:0:0:0:
320,192,190477,1,0,0:0:0:0:
64,192,190644,128,0,190977:0:0:0:0:
192,192,190644,1,0,0:0:0:0:
448,192,191144,1,0,0:0:0:0:
320,192,191227,1,0,0:0:0:0:
64,192,191310,1,0,0:0:0:0:
192,192,191477,1,0,0:0:0:0:
320,192,191644,1,0,0:0:0:0:
448,192,191810,1,0,0:0:0:0:
64,192,191977,128,0,192310:0:0:0:0:
320,192,191977,1,0,0:0:0:0:
192,192,192477,1,0,0:0:0:0:
320,192,192560,1,0,0:0:0:0:
448,192,192644,1,0,0:0:0:0:
192,192,192810,1,0,0:0:0:0:
64,192,192977,1,0,0:0:0:0:
192,192,193144,1,0,0:0:0:0:
320,192,193310,1,0,0:0:0:0:
448,192,193310,1,0,0:0:0:0:
64,192,193644,1,0,0:0:0:0:
192,192,193644,1,0,0:0:0:0:
448,192,193644,1,0,0:0:0:0:
448,192,193810,1,0,0:0:0:0:
320,192,193810,1,0,0:0:0:0:
64,192,194144,1,0,0:0:0:0:
320,192,194144,1,0,0:0:0:0:
448,192,194144,1,0,0:0:0:0:
192,192,194310,1,0,0:0:0:0:
64,192,194310,1,0,0:0:0:0:
64,192,194477,1,0,0:0:0:0:
192,192,194477,1,0,0:0:0:0:
192,192,194644,1,0,0:0:0:0:
448,192,194644,1,0,0:0:0:0:
64,192,194977,1,0,0:0:0:0:
192,192,194977,1,0,0:0:0:0:
448,192,194977,1,0,0:0:0:0:
320,192,195144,1,0,0:0:0:0:
192,192,195144,1,0,0:0:0:0:
192,192,195477,1,0,0:0:0:0:
320,192,195477,1,0,0:0:0:0:
448,192,195644,1,0,0:0:0:0:
320,192,195644,1,0,0:0:0:0:
64,192,195644,1,0,0:0:0:0:
192,192,195810,1,0,0:0:0:0:
64,192,195810,1,0,0:0:0:0:
320,192,195977,1,0,0:0:0:0:
448,192,195977,1,0,0:0:0:0:
64,192,196310,1,0,0:0:0:0:
320,192,196310,1,0,0:0:0:0:
448,192,196310,1,0,0:0:0:0:
64,192,196477,1,0,0:0:0:0:
192,192,196477,1,0,0:0:0:0:
320,192,196810,1,0,0:0:0:0:
448,192,196810,1,0,0:0:0:0:
448,192,196977,1,0,0:0:0:0:
192,192,196977,1,0,0:0:0:0:
64,192,196977,1,0,0:0:0:0:
320,192,197144,1,0,0:0:0:0:
192,192,197144,1,0,0:0:0:0:
448,192,197310,1,0,0:0:0:0:
320,192,197310,1,0,0:0:0:0:
192,192,197644,1,0,0:0:0:0:
64,192,197644,1,0,0:0:0:0:
320,192,197644,1,0,0:0:0:0:
448,192,197810,1,0,0:0:0:0:
320,192,197810,1,0,0:0:0:0:
64,192,197977,1,0,0:0:0:0:
192,192,198144,1,0,0:0:0:0:
320,192,198144,1,0,0:0:0:0:
64,192,198310,1,0,0:0:0:0:
448,192,198310,1,0,0:0:0:0:
192,192,198310,1,0,0:0:0:0:
64,192,198477,1,0,0:0:0:0:
320,192,198477,1,0,0:0:0:0:
448,192,198477,1,0,0:0:0:0:
192,192,198477,1,0,0:0:0:0:
64,192,198810,1,0,0:0:0:0:
320,192,198810,1,0,0:0:0:0:
448,192,198810,1,0,0:0:0:0:
64,192,198977,1,0,0:0:0:0:
320,192,198977,1,0,0:0:0:0:
448,192,198977,1,0,0:0:0:0:
192,192,199144,1,0,0:0:0:0:
320,192,199144,1,0,0:0:0:0:
448,192,199310,1,0,0:0:0:0:
192,192,199310,1,0,0:0:0:0:
64,192,199310,1,0,0:0:0:0:
64,192,199477,1,0,0:0:0:0:
448,192,199477,1,0,0:0:0:0:
192,192,199560,1,0,0:0:0:0:
320,192,199560,1,0,0:0:0:0:
64,192,199644,1,0,0:0:0:0:
448,192,199644,1,0,0:0:0:0:
448,192,199810,1,0,0:0:0:0:
64,192,199810,1,0,0:0:0:0:
320,192,199977,1,0,0:0:0:0:
448,192,199977,1,0,0:0:0:0:
192,192,200144,1,0,0:0:0:0:
64,192,200310,1,0,0:0:0:0:
320,192,200310,1,0,0:0:0:0:
448,192,200310,1,0,0:0:0:0:
448,192,200477,1,0,0:0:0:0:
192,192,200477,1,0,0:0:0:0:
320,192,200644,1,0,0:0:0:0:
192,192,200810,1,0,0:0:0:0:
64,192,200810,1,0,0:0:0:0:
192,192,200977,1,0,0:0:0:0:
320,192,200977,1,0,0:0:0:0:
448,192,200977,1,0,0:0:0:0:
64,192,201144,1,0,0:0:0:0:
192,192,201144,1,0,0:0:0:0:
448,192,201310,1,0,0:0:0:0:
64,192,201310,1,0,0:0:0:0:
320,192,201477,1,0,0:0:0:0:
192,192,201644,1,0,0:0:0:0:
64,192,201644,1,0,0:0:0:0:
448,192,201644,1,0,0:0:0:0:
64,192,201810,1,0,0:0:0:0:
320,192,201810,1,0,0:0:0:0:
192,192,201977,1,0,0:0:0:0:
320,192,202144,1,0,0:0:0:0:
448,192,202144,1,0,0:0:0:0:
192,192,202310,1,0,0:0:0:0:
64,192,202310,1,0,0:0:0:0:
448,192,202310,1,0,0:0:0:0:
64,192,202477,1,0,0:0:0:0:
320,192,202477,1,0,0:0:0:0:
192,192,202644,1,0,0:0:0:0:
448,192,202644,1,0,0:0:0:0:
320,192,202810,1,0,0:0:0:0:
192,192,202977,1,0,0:0:0:0:
64,192,203144,1,0,0:0:0:0:
448,192,203144,1,0,0:0:0:0:
320,192,203477,1,0,0:0:0:0:
192,192,203477,1,0,0:0:0:0:
64,192,203644,1,0,0:0:0:0:
448,192,203644,1,0,0:0:0:0:
64,192,203977,1,0,0:0:0:0:
320,192,203977,1,0,0:0:0:0:
64,192,204144,1,0,0:0:0:0:
448,192,204144,1,0,0:0:0:0:
192,192,204310,1,0,0:0:0:0:
448,192,204310,1,0,0:0:0:0:
64,192,204394,1,0,0:0:0:0:
320,192,204394,1,0,0:0:0:0:
64,192,204560,1,0,0:0:0:0:
448,192,204560,1,0,0:0:0:0:
320,192,204644,1,0,0:0:0:0:
192,192,204644,1,0,0:0:0:0:
448,192,204727,1,0,0:0:0:0:
64,192,204727,1,0,0:0:0:0:
192,192,204810,1,0,0:0:0:0:
320,192,204810,1,0,0:0:0:0:
448,192,204894,1,0,0:0:0:0:
192,192,204977,1,0,0:0:0:0:
64,192,204977,1,0,0:0:0:0:
320,192,205060,1,0,0:0:0:0:
448,192,205060,1,0,0:0:0:0:
192,192,205144,1,0,0:0:0:0:
64,192,205144,1,0,0:0:0:0:
320,192,205227,1,0,0:0:0:0:
448,192,205227,1,0,0:0:0:0:
64,192,205310,1,0,0:0:0:0:
192,192,205310,1,0,0:0:0:0:
320,192,206477,1,0,0:0:0:0:
448,192,206477,1,0,0:0:0:0:
192,192,206560,1,0,0:0:0:0:
64,192,206560,1,0,0:0:0:0:
320,192,206644,1,0,0:0:0:0:
448,192,206644,1,0,0:0:0:0:
448,192,206810,1,0,0:0:0:0:
320,192,206810,1,0,0:0:0:0:
320,192,206977,1,0,0:0:0:0:
448,192,206977,1,0,0:0:0:0:
64,192,207477,1,0,0:0:0:0:
192,192,207477,1,0,0:0:0:0:
320,192,207977,1,0,0:0:0:0:
448,192,207977,1,0,0:0:0:0:
192,192,208144,1,0,0:0:0:0:
64,192,208310,1,0,0:0:0:0:
448,192,208310,1,0,0:0:0:0:
320,192,208310,1,0,0:0:0:0:
192,192,208477,1,0,0:0:0:0:
448,192,208477,1,0,0:0:0:0:
320,192,208644,1,0,0:0:0:0:
448,192,208810,1,0,0:0:0:0:
64,192,208810,1,0,0:0:0:0:
64,192,208977,1,0,0:0:0:0:
192,192,208977,1,0,0:0:0:0:
320,192,208977,1,0,0:0:0:0:
320,192,209144,1,0,0:0:0:0:
64,192,209310,1,0,0:0:0:0:
192,192,209310,1,0,0:0:0:0:
448,192,209477,1,0,0:0:0:0:
320,192,209644,1,0,0:0:0:0:
192,192,209644,1,0,0:0:0:0:
64,192,209644,1,0,0:0:0:0:
192,192,209810,1,0,0:0:0:0:
448,192,209810,1,0,0:0:0:0:
64,192,209977,1,0,0:0:0:0:
448,192,210144,1,0,0:0:0:0:
320,192,210144,1,0,0:0:0:0:
448,192,210310,1,0,0:0:0:0:
192,192,210310,1,0,0:0:0:0:
64,192,210310,1,0,0:0:0:0:
192,192,210477,1,0,0:0:0:0:
448,192,210644,1,0,0:0:0:0:
64,192,210644,1,0,0:0:0:0:
320,192,210810,1,0,0:0:0:0:
192,192,210977,1,0,0:0:0:0:
64,192,210977,1,0,0:0:0:0:
448,192,210977,1,0,0:0:0:0:
320,192,211144,1,0,0:0:0:0:
192,192,211144,1,0,0:0:0:0:
448,192,211310,1,0,0:0:0:0:
320,192,211477,1,0,0:0:0:0:
64,192,211477,1,0,0:0:0:0:
192,192,211644,1,0,0:0:0:0:
320,192,211644,1,0,0:0:0:0:
448,192,211644,1,0,0:0:0:0:
192,192,211810,1,0,0:0:0:0:
320,192,211977,1,0,0:0:0:0:
64,192,211977,1,0,0:0:0:0:
192,192,212144,1,0,0:0:0:0:
320,192,212310,1,0,0:0:0:0:
64,192,212310,1,0,0:0:0:0:
448,192,212310,1,0,0:0:0:0:
320,192,212477,1,0,0:0:0:0:
192,192,212477,1,0,0:0:0:0:
64,192,212644,1,0,0:0:0:0:
448,192,212810,1,0,0:0:0:0:
192,192,212810,1,0,0:0:0:0:
192,192,212977,1,0,0:0:0:0:
64,192,212977,1,0,0:0:0:0:
320,192,212977,1,0,0:0:0:0:
64,192,213144,1,0,0:0:0:0:
448,192,213144,1,0,0:0:0:0:
192,192,213310,1,0,0:0:0:0:
64,192,213310,1,0,0:0:0:0:
64,192,213477,1,0,0:0:0:0:
192,192,213477,1,0,0:0:0:0:
64,192,213644,1,0,0:0:0:0:
448,192,213644,1,0,0:0:0:0:
320,192,213644,1,0,0:0:0:0:
192,192,213810,1,0,0:0:0:0:
320,192,213810,1,0,0:0:0:0:
448,192,213977,1,0,0:0:0:0:
320,192,213977,1,0,0:0:0:0:
448,192,214144,1,0,0:0:0:0:
320,192,214144,1,0,0:0:0:0:
192,192,214227,1,0,0:0:0:0:
64,192,214310,1,0,0:0:0:0:
320,192,214310,1,0,0:0:0:0:
448,192,214310,1,0,0:0:0:0:
192,192,214477,1,0,0:0:0:0:
64,192,214477,1,0,0:0:0:0:
192,192,214644,1,0,0:0:0:0:
448,192,214644,1,0,0:0:0:0:
64,192,214810,1,0,0:0:0:0:
192,192,214852,1,0,0:0:0:0:
320,192,214894,1,0,0:0:0:0:
448,192,214935,1,0,0:0:0:0:
192,192,214977,1,0,0:0:0:0:
64,192,214977,1,0,0:0:0:0:
64,192,215144,1,0,0:0:0:0:
448,192,215144,1,0,0:0:0:0:
320,192,215310,1,0,0:0:0:0:
64,192,215310,1,0,0:0:0:0:
320,192,215477,1,0,0:0:0:0:
192,192,215477,1,0,0:0:0:0:
320,192,215644,1,0,0:0:0:0:
192,192,215644,1,0,0:0:0:0:
320,192,215977,1,0,0:0:0:0:
64,192,215977,1,0,0:0:0:0:
448,192,216144,1,0,0:0:0:0:
320,192,216310,1,0,0:0:0:0:
192,192,216310,1,0,0:0:0:0:
64,192,216310,1,0,0:0:0:0:
192,192,216477,1,0,0:0:0:0:
448,192,216477,1,0,0:0:0:0:
64,192,216644,1,0,0:0:0:0:
320,192,216810,1,0,0:0:0:0:
448,192,216810,1,0,0:0:0:0:
192,192,216977,1,0,0:0:0:0:
64,192,216977,1,0,0:0:0:0:
448,192,216977,1,0,0:0:0:0:
64,192,217144,1,0,0:0:0:0:
192,192,217310,1,0,0:0:0:0:
320,192,217310,1,0,0:0:0:0:
448,192,217477,1,0,0:0:0:0:
320,192,217644,1,0,0:0:0:0:
192,192,217644,1,0,0:0:0:0:
64,192,217644,1,0,0:0:0:0:
448,192,217810,1,0,0:0:0:0:
64,192,217810,1,0,0:0:0:0:
320,192,217977,1,0,0:0:0:0:
192,192,218144,1,0,0:0:0:0:
448,192,218144,1,0,0:0:0:0:
448,192,218310,1,0,0:0:0:0:
320,192,218310,1,0,0:0:0:0:
64,192,218310,1,0,0:0:0:0:
64,192,218477,1,0,0:0:0:0:
192,192,218644,1,0,0:0:0:0:
448,192,218644,1,0,0:0:0:0:
320,192,218810,1,0,0:0:0:0:
448,192,218977,1,0,0:0:0:0:
192,192,218977,1,0,0:0:0:0:
64,192,218977,1,0,0:0:0:0:
192,192,219144,1,0,0:0:0:0:
320,192,219144,1,0,0:0:0:0:
64,192,219310,1,0,0:0:0:0:
192,192,219477,1,0,0:0:0:0:
448,192,219477,1,0,0:0:0:0:
64,192,219644,1,0,0:0:0:0:
192,192,219644,1,0,0:0:0:0:
320,192,219644,1,0,0:0:0:0:
320,192,219810,1,0,0:0:0:0:
192,192,219977,1,0,0:0:0:0:
448,192,219977,1,0,0:0:0:0:
64,192,220144,1,0,0:0:0:0:
192,192,220310,1,0,0:0:0:0:
320,192,220310,1,0,0:0:0:0:
448,192,220310,1,0,0:0:0:0:
448,192,220477,1,0,0:0:0:0:
64,192,220477,1,0,0:0:0:0:
320,192,220644,1,0,0:0:0:0:
192,192,220810,1,0,0:0:0:0:
448,192,220810,1,0,0:0:0:0:
64,192,220977,1,0,0:0:0:0:
448,192,220977,1,0,0:0:0:0:
320,192,220977,1,0,0:0:0:0:
64,192,221144,1,0,0:0:0:0:
320,192,221310,1,0,0:0:0:0:
448,192,221310,1,0,0:0:0:0:
192,192,221477,1,0,0:0:0:0:
64,192,221644,1,0,0:0:0:0:
320,192,221644,1,0,0:0:0:0:
448,192,221644,1,0,0:0:0:0:
64,192,221810,1,0,0:0:0:0:
192,192,221810,1,0,0:0:0:0:
448,192,221977,1,0,0:0:0:0:
320,192,222144,1,0,0:0:0:0:
192,192,222144,1,0,0:0:0:0:
64,192,222310,1,0,0:0:0:0:
192,192,222310,1,0,0:0:0:0:
448,192,222310,1,0,0:0:0:0:
448,192,222477,1,0,0:0:0:0:
192,192,222644,1,0,0:0:0:0:
320,192,222644,1,0,0:0:0:0:
64,192,222810,1,0,0:0:0:0:
320,192,222977,1,0,0:0:0:0:
448,192,222977,1,0,0:0:0:0:
192,192,222977,1,0,0:0:0:0:
64,192,223144,1,0,0:0:0:0:
448,192,223144,1,0,0:0:0:0:
320,192,223310,1,0,0:0:0:0:
192,192,223477,1,0,0:0:0:0:
448,192,223477,1,0,0:0:0:0:
320,192,223644,1,0,0:0:0:0:
192,192,223644,1,0,0:0:0:0:
64,192,223644,1,0,0:0:0:0:
448,192,223810,1,0,0:0:0:0:
320,192,223810,1,0,0:0:0:0:
64,192,223977,1,0,0:0:0:0:
320,192,223977,1,0,0:0:0:0:
320,192,224144,1,0,0:0:0:0:
64,192,224144,1,0,0:0:0:0:
448,192,224310,1,0,0:0:0:0:
192,192,224310,1,0,0:0:0:0:
448,192,224477,1,0,0:0:0:0:
192,192,224477,1,0,0:0:0:0:
192,192,224644,1,0,0:0:0:0:
448,192,224644,1,0,0:0:0:0:
64,192,224644,1,0,0:0:0:0:
448,192,224810,1,0,0:0:0:0:
320,192,224810,1,0,0:0:0:0:
192,192,224894,1,0,0:0:0:0:
64,192,224894,1,0,0:0:0:0:
448,192,224977,1,0,0:0:0:0:
320,192,224977,1,0,0:0:0:0:
64,192,224977,1,0,0:0:0:0:
448,192,225144,1,0,0:0:0:0:
64,192,225144,1,0,0:0:0:0:
320,192,225144,1,0,0:0:0:0:
448,192,225310,1,0,0:0:0:0:
64,192,225310,1,0,0:0:0:0:
192,192,225310,1,0,0:0:0:0:
320,192,225477,1,0,0:0:0:0:
448,192,225477,1,0,0:0:0:0:
192,192,225560,1,0,0:0:0:0:
64,192,225560,1,0,0:0:0:0:
320,192,225644,1,0,0:0:0:0:
448,192,225644,1,0,0:0:0:0:
192,192,225810,1,0,0:0:0:0:
320,192,225810,1,0,0:0:0:0:
448,192,225977,1,0,0:0:0:0:
64,192,225977,1,0,0:0:0:0:
64,192,226144,1,0,0:0:0:0:
448,192,226144,1,0,0:0:0:0:
192,192,226227,1,0,0:0:0:0:
320,192,226227,1,0,0:0:0:0:
64,192,226310,1,0,0:0:0:0:
448,192,226310,1,0,0:0:0:0:
64,192,226477,1,0,0:0:0:0:
320,192,226477,1,0,0:0:0:0:
192,192,226644,1,0,0:0:0:0:
64,192,226644,1,0,0:0:0:0:
320,192,226810,1,0,0:0:0:0:
64,192,226977,1,0,0:0:0:0:
192,192,226977,1,0,0:0:0:0:
448,192,226977,1,0,0:0:0:0:
192,192,227144,1,0,0:0:0:0:
320,192,227144,1,0,0:0:0:0:
64,192,227310,1,0,0:0:0:0:
448,192,227477,1,0,0:0:0:0:
320,192,227477,1,0,0:0:0:0:
320,192,227644,1,0,0:0:0:0:
192,192,227644,1,0,0:0:0:0:
64,192,227644,1,0,0:0:0:0:
64,192,227810,1,0,0:0:0:0:
192,192,227977,1,0,0:0:0:0:
448,192,227977,1,0,0:0:0:0:
320,192,228144,1,0,0:0:0:0:
192,192,228310,1,0,0:0:0:0:
64,192,228310,1,0,0:0:0:0:
448,192,228310,1,0,0:0:0:0:
64,192,228477,1,0,0:0:0:0:
320,192,228477,1,0,0:0:0:0:
448,192,228644,1,0,0:0:0:0:
320,192,228810,1,0,0:0:0:0:
192,192,228810,1,0,0:0:0:0:
64,192,228977,1,0,0:0:0:0:
320,192,228977,1,0,0:0:0:0:
448,192,228977,1,0,0:0:0:0:
320,192,229144,1,0,0:0:0:0:
192,192,229144,1,0,0:0:0:0:
64,192,229310,1,0,0:0:0:0:
192,192,229310,1,0,0:0:0:0:
448,192,229310,1,0,0:0:0:0:
192,192,229477,1,0,0:0:0:0:
448,192,229477,1,0,0:0:0:0:
192,192,229644,1,0,0:0:0:0:
448,192,229644,1,0,0:0:0:0:
448,192,229810,1,0,0:0:0:0:
192,192,229810,1,0,0:0:0:0:
448,192,229977,1,0,0:0:0:0:
320,192,229977,1,0,0:0:0:0:
64,192,229977,1,0,0:0:0:0:
64,192,230144,1,0,0:0:0:0:
192,192,230144,1,0,0:0:0:0:
320,192,230227,1,0,0:0:0:0:
448,192,230227,1,0,0:0:0:0:
192,192,230310,1,0,0:0:0:0:
64,192,230310,1,0,0:0:0:0:
448,192,230310,1,0,0:0:0:0:
64,192,230477,1,0,0:0:0:0:
192,192,230477,1,0,0:0:0:0:
448,192,230477,1,0,0:0:0:0:
448,192,230644,1,0,0:0:0:0:
320,192,230644,1,0,0:0:0:0:
64,192,230644,1,0,0:0:0:0:
192,192,230810,1,0,0:0:0:0:
64,192,230810,1,0,0:0:0:0:
448,192,230894,1,0,0:0:0:0:
320,192,230894,1,0,0:0:0:0:
192,192,230977,1,0,0:0:0:0:
64,192,230977,1,0,0:0:0:0:
320,192,231144,1,0,0:0:0:0:
64,192,231144,1,0,0:0:0:0:
192,192,231310,1,0,0:0:0:0:
320,192,231310,1,0,0:0:0:0:
448,192,231310,1,0,0:0:0:0:
64,192,231477,1,0,0:0:0:0:
448,192,231477,1,0,0:0:0:0:
320,192,231560,1,0,0:0:0:0:
192,192,231560,1,0,0:0:0:0:
64,192,231644,1,0,0:0:0:0:
448,192,231644,1,0,0:0:0:0:
64,192,231810,1,0,0:0:0:0:
448,192,231810,1,0,0:0:0:0:
192,192,231977,1,0,0:0:0:0:
320,192,231977,1,0,0:0:0:0:
64,192,232144,1,0,0:0:0:0:
192,192,232310,1,0,0:0:0:0:
320,192,232310,1,0,0:0:0:0:
448,192,232310,1,0,0:0:0:0:
192,192,232477,1,0,0:0:0:0:
64,192,232477,1,0,0:0:0:0:
448,192,232644,1,0,0:0:0:0:
320,192,232810,1,0,0:0:0:0:
192,192,232810,1,0,0:0:0:0:
64,192,232977,1,0,0:0:0:0:
320,192,232977,1,0,0:0:0:0:
448,192,232977,1,0,0:0:0:0:
64,192,233144,1,0,0:0:0:0:
192,192,233310,1,0,0:0:0:0:
448,192,233310,1,0,0:0:0:0:
320,192,233477,1,0,0:0:0:0:
192,192,233644,1,0,0:0:0:0:
64,192,233644,1,0,0:0:0:0:
448,192,233644,1,0,0:0:0:0:
320,192,233810,1,0,0:0:0:0:
64,192,233810,1,0,0:0:0:0:
192,192,233977,1,0,0:0:0:0:
448,192,234144,1,0,0:0:0:0:
320,192,234144,1,0,0:0:0:0:
192,192,234310,1,0,0:0:0:0:
320,192,234310,1,0,0:0:0:0:
64,192,234310,1,0,0:0:0:0:
448,192,234477,1,0,0:0:0:0:
64,192,234477,1,0,0:0:0:0:
320,192,234644,1,0,0:0:0:0:
448,192,234644,1,0,0:0:0:0:
192,192,234644,1,0,0:0:0:0:
64,192,234810,1,0,0:0:0:0:
192,192,234977,1,0,0:0:0:0:
448,192,234977,1,0,0:0:0:0:
448,192,235144,1,0,0:0:0:0:
64,192,235144,1,0,0:0:0:0:
192,192,235310,1,0,0:0:0:0:
64,192,235310,1,0,0:0:0:0:
320,192,235310,1,0,0:0:0:0:
448,192,235477,1,0,0:0:0:0:
64,192,235644,1,0,0:0:0:0:
192,192,235644,1,0,0:0:0:0:
192,192,235810,1,0,0:0:0:0:
448,192,235810,1,0,0:0:0:0:
320,192,235977,1,0,0:0:0:0:
448,192,235977,1,0,0:0:0:0:
64,192,235977,1,0,0:0:0:0:
192,192,236144,1,0,0:0:0:0:
64,192,236310,1,0,0:0:0:0:
320,192,236310,1,0,0:0:0:0:
448,192,236310,1,0,0:0:0:0:
192,192,236477,1,0,0:0:0:0:
64,192,236477,1,0,0:0:0:0:
320,192,236644,1,0,0:0:0:0:
448,192,236810,1,0,0:0:0:0:
192,192,236810,1,0,0:0:0:0:
448,192,236977,1,0,0:0:0:0:
320,192,236977,1,0,0:0:0:0:
192,192,237144,1,0,0:0:0:0:
320,192,237144,1,0,0:0:0:0:
64,192,237310,1,0,0:0:0:0:
448,192,237310,1,0,0:0:0:0:
192,192,237310,1,0,0:0:0:0:
320,192,237477,1,0,0:0:0:0:
448,192,237644,1,0,0:0:0:0:
192,192,237644,1,0,0:0:0:0:
320,192,237810,1,0,0:0:0:0:
192,192,237810,1,0,0:0:0:0:
320,192,237977,1,0,0:0:0:0:
64,192,237977,1,0,0:0:0:0:
448,192,237977,1,0,0:0:0:0:
448,192,238144,1,0,0:0:0:0:
320,192,238310,1,0,0:0:0:0:
192,192,238310,1,0,0:0:0:0:
192,192,238477,1,0,0:0:0:0:
448,192,238477,1,0,0:0:0:0:
320,192,238644,1,0,0:0:0:0:
448,192,238644,1,0,0:0:0:0:
64,192,238644,1,0,0:0:0:0:
192,192,238810,1,0,0:0:0:0:
448,192,238977,1,0,0:0:0:0:
192,192,238977,1,0,0:0:0:0:
64,192,238977,1,0,0:0:0:0:
448,192,239144,1,0,0:0:0:0:
320,192,239144,1,0,0:0:0:0:
192,192,239310,1,0,0:0:0:0:
320,192,239477,1,0,0:0:0:0:
64,192,239477,1,0,0:0:0:0:
448,192,239644,1,0,0:0:0:0:
192,192,239644,1,0,0:0:0:0:
64,192,239644,1,0,0:0:0:0:
448,192,239810,1,0,0:0:0:0:
320,192,239810,1,0,0:0:0:0:
192,192,239977,1,0,0:0:0:0:
448,192,239977,1,0,0:0:0:0:
192,192,240144,1,0,0:0:0:0:
448,192,240144,1,0,0:0:0:0:
64,192,240310,1,0,0:0:0:0:
320,192,240310,1,0,0:0:0:0:
320,192,240477,1,0,0:0:0:0:
64,192,240477,1,0,0:0:0:0:
64,192,240644,1,0,0:0:0:0:
192,192,240644,1,0,0:0:0:0:
320,192,240727,1,0,0:0:0:0:
448,192,240727,1,0,0:0:0:0:
192,192,240810,1,0,0:0:0:0:
64,192,240810,1,0,0:0:0:0:
320,192,240894,1,0,0:0:0:0:
448,192,240894,1,0,0:0:0:0:
192,192,240977,1,0,0:0:0:0:
64,192,240977,1,0,0:0:0:0:
320,192,241060,1,0,0:0:0:0:
448,192,241060,1,0,0:0:0:0:
192,192,241144,5,0,0:0:0:0:
64,192,241144,1,0,0:0:0:0:
320,192,241227,1,0,0:0:0:0:
448,192,241227,1,0,0:0:0:0:
64,192,241310,1,0,0:0:0:0:
192,192,241310,1,0,0:0:0:0:
64,192,241477,1,0,0:0:0:0:
192,192,241519,1,0,0:0:0:0:
320,192,241560,1,0,0:0:0:0:
448,192,241602,1,0,0:0:0:0:
192,192,241644,1,0,0:0:0:0:
64,192,241644,1,0,0:0:0:0:
64,192,241810,1,0,0:0:0:0:
448,192,241810,1,0,0:0:0:0:
448,192,241977,1,0,0:0:0:0:
64,192,241977,1,0,0:0:0:0:
320,192,242144,1,0,0:0:0:0:
448,192,242144,1,0,0:0:0:0:
320,192,242310,128,0,242644:0:0:0:0:
192,192,242310,128,0,242644:0:0:0:0:
448,192,242644,1,0,0:0:0:0:
64,192,242644,1,0,0:0:0:0:
