osu file format v14

[General]
AudioFilename: audio.mp3
AudioLeadIn: 0
PreviewTime: 42750
Countdown: 0
SampleSet: Normal
StackLeniency: 0.4
Mode: 0
LetterboxInBreaks: 0
EpilepsyWarning: 1
WidescreenStoryboard: 1

[Editor]
Bookmarks: 59014
DistanceSpacing: 1.5
BeatDivisor: 16
GridSize: 8
TimelineZoom: 2.999999

[Metadata]
Title:Spacecraft
TitleUnicode:Spacecraft
Artist:Blaster & Extra Terra
ArtistUnicode:Blaster & Extra Terra
Creator:Pandize
Version:Oblivion
Source:
Tags:Exclusive Tunes Network Dubstep Wub Mun Garden Hobbes2 Bandi
BeatmapID:1506794
BeatmapSetID:712901

[Difficulty]
HPDrainRate:4.8
CircleSize:4
OverallDifficulty:8.5
ApproachRate:9.5
SliderMultiplier:2.1
SliderTickRate:1

[Events]
//Background and Video events
0,0,"spacecraft.jpg",0,0
//Break Periods
2,22378,32625
//Storyboard Layer 0 (Background)
//Storyboard Layer 1 (Fail)
//Storyboard Layer 2 (Pass)
//Storyboard Layer 3 (Foreground)
//Storyboard Sound Samples

[TimingPoints]
236,342.857142857143,4,1,1,30,1,0
236,-500,4,1,1,30,0,0
921,-500,4,1,1,15,0,0
1264,-500,4,1,1,5,0,0
1607,-500,4,1,1,30,0,0
2293,-500,4,1,1,15,0,0
2636,-500,4,1,1,5,0,0
2978,-500,4,1,1,30,0,0
3664,-500,4,1,1,15,0,0
4007,-500,4,1,1,5,0,0
4350,-500,4,1,1,30,0,0
5036,-500,4,1,1,15,0,0
5378,-500,4,1,1,5,0,0
5721,-285.714285714286,4,1,1,40,0,0
8464,-250,4,1,1,45,0,0
9836,-200,4,1,1,45,0,0
11207,-100,4,1,1,85,0,0
20807,-133.333333333333,4,1,1,85,0,0
35893,-500,4,1,1,85,0,0
37264,-200,4,1,1,85,0,0
37521,-200,4,1,1,5,0,0
37607,-200,4,1,1,85,0,0
37864,-200,4,1,1,5,0,0
37950,-200,4,1,1,85,0,0
38207,-200,4,1,1,5,0,0
38293,-200,4,1,1,85,0,0
38550,-200,4,1,1,5,0,0
38636,-133.333333333333,4,1,1,85,0,0
38893,-133.333333333333,4,1,1,5,0,0
38978,-133.333333333333,4,1,1,85,0,0
39236,-133.333333333333,4,1,1,5,0,0
39321,-133.333333333333,4,1,1,85,0,0
39578,-133.333333333333,4,1,1,5,0,0
39664,-133.333333333333,4,1,1,85,0,0
39921,-133.333333333333,4,1,1,5,0,0
40007,-100,4,1,1,85,0,0
40264,-100,4,1,1,5,0,0
40350,-100,4,1,1,85,0,0
40607,-100,4,1,1,5,0,0
40693,-100,4,1,1,85,0,0
40950,-100,4,1,1,5,0,0
41036,-100,4,1,1,85,0,0
41293,-100,4,1,1,5,0,0
41378,-100,4,1,1,40,0,0
41721,-100,4,1,1,45,0,0
42064,-100,4,1,1,50,0,0
42407,-100,4,1,1,55,0,0
42750,-100,4,1,1,60,0,0
43436,-100,4,1,1,85,0,0
43521,-100,4,1,1,5,0,0
43607,-100,4,1,2,65,0,0
44036,-100,4,1,2,5,0,0
44121,-117.647058823529,4,1,1,85,0,1
44807,-66.6666666666667,4,1,1,85,0,1
45064,-66.6666666666667,4,1,1,5,0,1
45150,-66.6666666666667,4,1,1,85,0,1
45321,-66.6666666666667,4,1,1,5,0,1
45493,-66.6666666666667,4,1,1,85,0,1
45578,-66.6666666666667,4,1,1,5,0,1
45664,-66.6666666666667,4,1,1,85,0,1
45750,-66.6666666666667,4,1,1,5,0,1
45835,-500,4,1,1,85,0,1
46093,-500,4,1,1,5,0,1
46178,-66.6666666666667,4,1,1,85,0,1
46264,-66.6666666666667,4,1,1,5,0,1
46350,-66.6666666666667,4,1,1,85,0,1
46435,-66.6666666666667,4,1,1,5,0,1
46521,-66.6666666666667,4,1,1,85,0,1
46607,-66.6666666666667,4,1,1,5,0,1
46693,-66.6666666666667,4,1,1,85,0,1
46778,-66.6666666666667,4,1,1,5,0,1
46864,-66.6666666666667,4,1,1,85,0,1
47121,-66.6666666666667,4,1,1,5,0,1
47207,-50,4,1,1,85,0,1
47464,-50,4,1,1,5,0,1
47550,-66.6666666666667,4,1,1,85,0,1
47807,-66.6666666666667,4,1,1,5,0,1
47893,-66.6666666666667,4,1,1,85,0,1
47978,-66.6666666666667,4,1,1,5,0,1
48064,-66.6666666666667,4,1,1,85,0,1
48150,-66.6666666666667,4,1,1,5,0,1
48235,-66.6666666666667,4,1,1,85,0,1
48407,-66.6666666666667,4,1,1,5,0,1
48578,-66.6666666666667,4,1,1,85,0,1
48835,-66.6666666666667,4,1,1,5,0,1
48921,-66.6666666666667,4,1,1,85,0,1
49178,-66.6666666666667,4,1,1,5,0,1
49264,-66.6666666666667,4,1,1,85,0,1
49350,-66.6666666666667,4,1,1,5,0,1
49435,-66.6666666666667,4,1,1,85,0,1
49521,-66.6666666666667,4,1,1,5,0,1
49607,-117.647058823529,4,1,1,85,0,1
50207,-117.647058823529,4,1,1,5,0,1
50293,-133.333333333333,4,1,1,85,0,1
50550,-133.333333333333,4,1,1,5,0,1
50635,-66.6666666666667,4,1,1,85,0,1
50807,-66.6666666666667,4,1,1,5,0,1
50978,-66.6666666666667,4,1,1,85,0,1
51235,-66.6666666666667,4,1,1,5,0,1
51321,-500,4,1,1,85,0,1
51578,-500,4,1,1,5,0,1
51664,-66.6666666666667,4,1,1,85,0,1
51750,-66.6666666666667,4,1,1,5,0,1
51835,-66.6666666666667,4,1,1,85,0,1
51921,-66.6666666666667,4,1,1,5,0,1
52007,-66.6666666666667,4,1,1,85,0,1
52093,-66.6666666666667,4,1,1,5,0,1
52178,-66.6666666666667,4,1,1,85,0,1
52264,-66.6666666666667,4,1,1,5,0,1
52350,-66.6666666666667,4,1,1,85,0,1
52607,-66.6666666666667,4,1,1,5,0,1
52693,-50,4,1,1,85,0,1
52950,-50,4,1,1,5,0,1
53035,-50,4,1,1,85,0,1
53207,-66.6666666666667,4,1,1,85,0,1
53293,-66.6666666666667,4,1,1,5,0,1
53378,-66.6666666666667,4,1,1,85,0,1
53635,-66.6666666666667,4,1,1,5,0,1
53721,-200,4,1,1,85,0,0
54321,-200,4,1,1,5,0,0
54407,-133.333333333333,4,1,1,85,0,0
55007,-200,4,1,1,5,0,0
55093,-117.647058823529,4,1,1,85,0,1
55693,-117.647058823529,4,1,1,5,0,1
55778,-66.6666666666667,4,1,1,85,0,1
55950,-66.6666666666667,4,1,1,5,0,1
56121,-100,4,1,1,85,0,1
56378,-100,4,1,1,5,0,1
56464,-66.6666666666667,4,1,1,85,0,1
56550,-66.6666666666667,4,1,1,5,0,1
56635,-66.6666666666667,4,1,1,85,0,1
56721,-66.6666666666667,4,1,1,5,0,1
56807,-500,4,1,1,85,0,1
57064,-500,4,1,1,5,0,1
57150,-66.6666666666667,4,1,1,85,0,1
57235,-66.6666666666667,4,1,1,5,0,1
57321,-66.6666666666667,4,1,1,85,0,1
57407,-66.6666666666667,4,1,1,5,0,1
57493,-66.6666666666667,4,1,1,85,0,1
57578,-66.6666666666667,4,1,1,5,0,1
57664,-66.6666666666667,4,1,1,85,0,1
57750,-66.6666666666667,4,1,1,5,0,1
57835,-66.6666666666667,4,1,1,85,0,1
58093,-66.6666666666667,4,1,1,5,0,1
58178,-50,4,1,1,85,0,1
58435,-50,4,1,1,5,0,1
58521,-66.6666666666667,4,1,1,85,0,1
58778,-66.6666666666667,4,1,1,5,0,1
58864,-66.6666666666667,4,1,1,85,0,1
58950,-66.6666666666667,4,1,1,5,0,1
59035,-66.6666666666667,4,1,1,85,0,1
59121,-66.6666666666667,4,1,1,5,0,1
59207,-66.6666666666667,4,1,1,85,0,1
59378,-66.6666666666667,4,1,1,5,0,1
59550,-66.6666666666667,4,1,1,85,0,1
59807,-66.6666666666667,4,1,1,5,0,1
59893,-66.6666666666667,4,1,1,85,0,1
60150,-66.6666666666667,4,1,1,5,0,1
60235,-66.6666666666667,4,1,1,85,0,1
60321,-66.6666666666667,4,1,1,5,0,1
60407,-66.6666666666667,4,1,1,85,0,1
60493,-100,4,1,1,5,0,1
60578,-117.647058823529,4,1,1,85,0,1
61178,-117.647058823529,4,1,1,5,0,1
61264,-66.6666666666667,4,1,1,85,0,1
61521,-66.6666666666667,4,1,1,5,0,1
61607,-66.6666666666667,4,1,1,85,0,1
61778,-66.6666666666667,4,1,1,5,0,1
61950,-133.333333333333,4,1,1,85,0,1
62207,-133.333333333333,4,1,1,5,0,1
62293,-133.333333333333,4,1,2,65,0,1
62635,-66.6666666666667,4,1,1,85,0,1
62721,-66.6666666666667,4,1,1,5,0,1
62807,-66.6666666666667,4,1,1,85,0,1
62893,-66.6666666666667,4,1,1,5,0,1
62978,-66.6666666666667,4,1,1,85,0,1
63064,-66.6666666666667,4,1,1,5,0,1
63150,-66.6666666666667,4,1,1,85,0,1
63235,-66.6666666666667,4,1,1,5,0,1
63321,-66.6666666666667,4,1,1,85,0,1
63578,-66.6666666666667,4,1,1,5,0,1
63664,-66.6666666666667,4,1,1,85,0,1
64264,-66.6666666666667,4,1,1,5,0,1
64350,-66.6666666666667,4,1,1,85,0,1
64607,-66.6666666666667,4,1,1,5,0,1
64693,-200,4,1,1,50,0,0
65550,-200,4,1,1,55,0,0
65721,-200,4,1,1,60,0,0
65893,-200,4,1,1,65,0,0
66064,-55.2486187845304,4,1,1,85,0,1
66321,-55.2486187845304,4,1,1,5,0,1
66407,-66.6666666666667,4,1,1,85,0,1
67007,-66.6666666666667,4,1,1,5,0,1
67093,-66.6666666666667,4,1,1,85,0,1
67693,-66.6666666666667,4,1,1,5,0,1
67778,-500,4,1,1,85,0,1
68035,-500,4,1,1,5,0,1
68121,-66.6666666666667,4,1,1,85,0,1
68207,-66.6666666666667,4,1,1,5,0,1
68293,-66.6666666666667,4,1,1,85,0,1
68378,-66.6666666666667,4,1,1,5,0,1
68464,-66.6666666666667,4,1,1,85,0,1
68550,-66.6666666666667,4,1,1,5,0,1
68635,-66.6666666666667,4,1,1,85,0,1
68721,-66.6666666666667,4,1,1,5,0,1
68807,-66.6666666666667,4,1,1,85,0,1
69064,-66.6666666666667,4,1,1,5,0,1
69150,-66.6666666666667,4,1,1,85,0,1
69750,-66.6666666666667,4,1,1,5,0,1
69835,-66.6666666666667,4,1,1,85,0,1
70178,-54.054054054054,4,1,1,85,0,1
70435,-54.054054054054,4,1,1,5,0,1
70521,-80,4,1,1,85,0,1
70778,-80,4,1,1,5,0,1
70864,-80,4,1,1,85,0,0
71035,-80,4,1,1,85,0,0
71121,-80,4,1,1,5,0,0
71207,-80,4,1,1,85,0,0
71293,-80,4,1,1,5,0,0
71378,-80,4,1,1,85,0,0
71464,-80,4,1,1,5,0,0
71550,-66.6666666666667,4,1,1,85,0,1
71807,-66.6666666666667,4,1,1,5,0,1
71893,-66.6666666666667,4,1,1,85,0,1
72493,-66.6666666666667,4,1,1,5,0,1
72578,-66.6666666666667,4,1,1,85,0,1
72921,-60.6060606060606,4,1,1,85,0,1
73178,-60.6060606060606,4,1,1,5,0,1
73264,-60.6060606060606,4,1,1,85,0,1
73607,-66.6666666666667,4,1,1,85,0,1
73693,-66.6666666666667,4,1,1,5,0,1
73778,-66.6666666666667,4,1,1,85,0,1
73864,-66.6666666666667,4,1,1,5,0,1
73950,-66.6666666666667,4,1,1,85,0,1
74035,-66.6666666666667,4,1,1,5,0,1
74121,-66.6666666666667,4,1,1,85,0,1
74207,-66.6666666666667,4,1,1,5,0,1
74293,-66.6666666666667,4,1,1,85,0,1
74550,-66.6666666666667,4,1,1,5,0,1
74635,-66.6666666666667,4,1,1,85,0,1
75664,-133.333333333333,4,1,1,85,0,0
76693,-100,4,1,1,85,0,0
76950,-100,4,1,1,5,0,0
77036,-66.6666666666667,4,1,1,85,0,1
77293,-66.6666666666667,4,1,1,5,0,1
77378,-66.6666666666667,4,1,1,85,0,1
77893,-66.6666666666667,4,1,1,85,0,1
77978,-66.6666666666667,4,1,1,5,0,1
78064,-66.6666666666667,4,1,1,85,0,1
78407,-66.6666666666667,4,1,1,85,0,1
78664,-100,4,1,1,5,0,1
78750,-500,4,1,1,85,0,1
79007,-500,4,1,1,5,0,1
79093,-66.6666666666667,4,1,1,85,0,1
79178,-66.6666666666667,4,1,1,5,0,1
79264,-66.6666666666667,4,1,1,85,0,1
79350,-66.6666666666667,4,1,1,5,0,1
79435,-66.6666666666667,4,1,1,85,0,1
79521,-66.6666666666667,4,1,1,5,0,1
79607,-66.6666666666667,4,1,1,85,0,1
79693,-66.6666666666667,4,1,1,5,0,1
79778,-66.6666666666667,4,1,1,85,0,1
80035,-66.6666666666667,4,1,1,5,0,1
80121,-66.6666666666667,4,1,1,85,0,1
80721,-66.6666666666667,4,1,1,5,0,1
80807,-66.6666666666667,4,1,1,85,0,1
81150,-54.054054054054,4,1,1,85,0,1
81407,-54.054054054054,4,1,1,5,0,1
81493,-80,4,1,1,85,0,1
81836,-80,4,1,1,85,0,0
82007,-80,4,1,1,85,0,0
82093,-80,4,1,1,5,0,0
82178,-80,4,1,1,85,0,0
82264,-80,4,1,1,5,0,0
82350,-80,4,1,1,85,0,0
82435,-80,4,1,1,5,0,0
82521,-66.6666666666667,4,1,1,85,0,1
82778,-66.6666666666667,4,1,1,5,0,1
82864,-66.6666666666667,4,1,1,85,0,1
83378,-66.6666666666667,4,1,1,85,0,1
83464,-66.6666666666667,4,1,1,5,0,1
83550,-66.6666666666667,4,1,1,85,0,1
84150,-66.6666666666667,4,1,1,5,0,1
84235,-66.6666666666667,4,1,1,85,0,1
84664,-66.6666666666667,4,1,1,5,0,1
84750,-66.6666666666667,4,1,1,85,0,1
84835,-66.6666666666667,4,1,1,5,0,1
84921,-66.6666666666667,4,1,1,85,0,1
85007,-66.6666666666667,4,1,1,5,0,1
85093,-66.6666666666667,4,1,1,85,0,1
85178,-66.6666666666667,4,1,1,5,0,1
85264,-66.6666666666667,4,1,1,85,0,1
86636,-66.6666666666667,4,1,1,85,0,0
87321,-133.333333333333,4,1,1,85,0,0
87493,-133.333333333333,4,1,1,5,0,0
87664,-133.333333333333,4,1,1,85,0,0
88007,-80,4,1,1,85,0,1
88264,-80,4,1,1,5,0,1
88350,-57.1428571428571,4,1,1,85,0,1
88693,-66.6666666666667,4,1,1,85,0,1
88778,-66.6666666666667,4,1,1,5,0,1
88864,-66.6666666666667,4,1,1,85,0,1
88950,-66.6666666666667,4,1,1,5,0,1
89035,-100,4,1,1,85,0,1
89293,-100,4,1,1,5,0,1
89378,-66.6666666666667,4,1,1,85,0,1
89635,-66.6666666666667,4,1,1,5,0,1
89721,-66.6666666666667,4,1,1,85,0,1
89807,-66.6666666666667,4,1,1,5,0,1
89893,-66.6666666666667,4,1,1,85,0,1
89978,-66.6666666666667,4,1,1,5,0,1
90064,-133.333333333333,4,1,1,85,0,1
90750,-66.6666666666667,4,1,1,85,0,1
90835,-66.6666666666667,4,1,1,5,0,1
90921,-66.6666666666667,4,1,1,85,0,1
91007,-66.6666666666667,4,1,1,5,0,1
91093,-66.6666666666667,4,1,1,85,0,1
91178,-66.6666666666667,4,1,1,5,0,1
91264,-66.6666666666667,4,1,1,85,0,1
91350,-66.6666666666667,4,1,1,5,0,1
91435,-100,4,1,1,85,0,1
91693,-100,4,1,1,5,0,1
91778,-100,4,1,1,85,0,1
92035,-100,4,1,1,5,0,1
92121,-66.6666666666667,4,1,1,85,0,1
92207,-100,4,1,1,5,0,1
92293,-100,4,1,1,85,0,1
92378,-100,4,1,1,5,0,1
92464,-66.6666666666667,4,1,1,85,0,1
92550,-66.6666666666667,4,1,1,5,0,1
92635,-66.6666666666667,4,1,1,85,0,1
92721,-66.6666666666667,4,1,1,5,0,1
92807,-200,4,1,1,85,0,1
92978,-200,4,1,1,5,0,1
93150,-200,4,1,1,85,0,1
93321,-200,4,1,1,5,0,1
93493,-66.6666666666667,4,1,1,85,0,1
93750,-66.6666666666667,4,1,1,5,0,1
93835,-57.1428571428571,4,1,1,85,0,1
94178,-66.6666666666667,4,1,1,85,0,1
94264,-66.6666666666667,4,1,1,5,0,1
94350,-66.6666666666667,4,1,1,85,0,1
94435,-66.6666666666667,4,1,1,5,0,1
94521,-100,4,1,1,85,0,1
94778,-100,4,1,1,5,0,1
94864,-66.6666666666667,4,1,1,85,0,1
95121,-66.6666666666667,4,1,1,5,0,1
95207,-66.6666666666667,4,1,1,85,0,1
95293,-66.6666666666667,4,1,1,5,0,1
95378,-66.6666666666667,4,1,1,85,0,1
95464,-66.6666666666667,4,1,1,5,0,1
95550,-66.6666666666667,4,1,1,85,0,1
96235,-66.6666666666667,4,1,1,85,0,1
96321,-66.6666666666667,4,1,1,5,0,1
96407,-66.6666666666667,4,1,1,85,0,1
96493,-66.6666666666667,4,1,1,5,0,1
96578,-66.6666666666667,4,1,1,85,0,1
96664,-66.6666666666667,4,1,1,5,0,1
96750,-66.6666666666667,4,1,1,85,0,1
96835,-66.6666666666667,4,1,1,5,0,1
96921,-66.6666666666667,4,1,1,85,0,1
97607,-200,4,1,1,85,0,1
97778,-200,4,1,1,5,0,1
97950,-200,4,1,1,85,0,1
98121,-200,4,1,1,5,0,1
98293,-133.333333333333,4,1,1,85,0,1
98978,-66.6666666666667,4,1,1,85,0,0

[Colours]
Combo1 : 140,125,108
Combo2 : 214,255,47
Combo3 : 139,243,147
Combo4 : 220,220,220
Combo5 : 209,186,152
SliderTrackOverride : 35,25,15
SliderBorder : 220,220,220

[HitObjects]
201,9,236,54,0,B|190:31|197:66|197:66|203:99|183:135,1,126,0|0,2:3|2:3,2:3:0:0:
121,179,1607,6,0,P|171:209|239:189,1,126,0|0,2:0|2:0,2:0:0:0:
276,127,2978,54,0,L|283:255,1,126,0|0,2:0|2:0,2:0:0:0:
294,349,4350,6,0,P|263:325|282:372,1,126,0|0,2:0|2:0,2:0:0:0:
384,286,5721,54,0,L|431:279,3,36.749998878479,0|0|0|0,2:0|2:0|2:0|2:0,2:0:0:0:
477,234,6407,2,0,P|490:254|495:276,3,36.749998878479,0|0|0|0,2:0|2:0|2:0|2:0,2:0:0:0:
405,207,7093,6,0,P|392:187|387:165,3,36.749998878479,0|0|0|0,2:0|2:0|2:0|2:0,2:0:0:0:
396,101,7778,2,0,L|353:104,1,36.749998878479,0|0,2:0|2:0,2:0:0:0:
257,70,8121,2,0,L|294:68,1,36.749998878479,0|0,2:0|2:0,2:0:0:0:
197,23,8464,54,0,P|185:40|180:60,3,42,0|0|0|0,2:0|2:0|2:0|2:0,2:0:0:0:
192,169,9150,2,0,P|205:149|209:117,3,42,0|0|0|0,2:0|2:0|2:0|2:0,2:0:0:0:
166,253,9836,6,0,P|192:255|218:253,1,52.5,2|0,2:0|2:0,2:0:0:0:
308,191,10178,2,0,P|334:188|360:190,1,52.5
502,252,10521,2,0,P|475:254|449:252,1,52.5,2|0,2:0|2:0,2:0:0:0:
360,185,10864,2,0,P|333:182|307:184,1,52.5,8|0,0:0|0:0,0:0:0:0:
27,343,11207,54,0,P|49:287|20:202,1,105,6|0,0:2|0:0,0:0:0:0:
81,12,11550,2,0,P|59:68|88:153,1,105
168,294,11893,6,0,B|206:289|206:289|228:295|228:295|283:287,1,105,8|0,0:0|0:0,0:0:0:0:
352,192,12236,1,0,0:0:0:0:
400,305,12407,1,0,0:0:0:0:
209,149,12578,54,0,L|216:8,1,105,2|0,0:3|0:0,0:0:0:0:
58,216,12921,2,0,L|63:111,1,105
209,149,13264,5,8,0:0:0:0:
58,216,13436,1,0,0:0:0:0:
214,44,13607,1,0,0:0:0:0:
63,111,13778,1,0,0:0:0:0:
217,262,13950,54,0,P|266:273|328:258,1,105,2|0,0:3|0:0,0:0:0:0:
512,312,14293,2,0,P|460:301|410:312,1,105
217,363,14636,6,0,P|206:314|221:252,1,105,8|0,0:0|0:0,0:0:0:0:
272,136,14978,1,0,0:0:0:0:
318,262,15150,1,0,0:0:0:0:
135,146,15321,54,0,P|83:136|28:151,1,105,2|0,0:3|0:0,0:0:0:0:
272,136,15664,2,0,P|323:146|373:133,1,105
163,5,16007,5,8,0:0:0:0:
272,136,16178,1,0,0:0:0:0:
26,15,16350,1,0,0:0:0:0:
135,146,16521,1,0,0:0:0:0:
286,0,16693,54,0,L|401:9,1,105,2|0,0:3|0:0,0:0:0:0:
343,184,17036,2,0,L|447:192,1,105
271,135,17378,2,0,P|257:185|269:236,1,105,8|0,0:0|0:0,0:0:0:0:
424,98,17721,1,0,0:0:0:0:
416,279,17893,1,0,0:0:0:0:
330,53,18064,6,0,P|280:39|229:51,1,105,2|0,0:3|0:0,0:0:0:0:
268,235,18407,2,0,P|217:246|167:232,1,105
128,71,18750,53,8,0:0:0:0:
101,164,18921,1,0,0:0:0:0:
55,0,19093,1,0,0:0:0:0:
0,182,19264,1,0,0:0:0:0:
194,139,19436,5,2,0:3:0:0:
41,90,19607,1,0,0:0:0:0:
66,266,19778,1,0,0:0:0:0:
128,71,19950,1,0,0:0:0:0:
160,239,20121,53,8,0:0:0:0:
278,207,20292,1,0,0:0:0:0:
197,307,20464,1,0,0:0:0:0:
280,289,20636,1,0,0:0:0:0:
203,165,20807,6,0,P|163:153|117:168,1,78.7500030040742,2|0,0:3|2:0,0:0:0:0:
122,304,21150,2,0,P|162:316|208:301,1,78.7500030040742,0|0,0:0|2:0,0:0:0:0:
256,192,21407,12,4,22178,2:0:0:0:
275,180,33150,53,8,0:0:0:0:
356,222,33836,1,8,0:0:0:0:
283,271,34521,53,8,0:0:0:0:
349,132,35207,1,8,0:0:0:0:
0,180,35893,38,0,P|21:170|42:167,1,42,8|0,0:0|2:0,0:0:0:0:
186,266,36578,1,8,0:0:0:0:
0,180,37264,54,0,P|41:166|100:187,1,105,8|0,0:0|2:0,0:0:0:0:
89,272,37950,2,0,P|130:286|189:265,1,105,8|0,0:0|2:0,0:0:0:0:
388,333,38636,54,0,B|347:325|347:325|250:336,1,118.125004506111,8|0,0:0|2:0,0:0:0:0:
208,379,38978,2,0,B|184:341|200:303|200:303|186:281|185:242,1,118.125004506111,8|0,0:0|0:0,0:0:0:0:
111,248,39321,6,0,P|84:181|104:135,1,118.125004506111,8|0,0:0|0:0,0:0:0:0:
154,85,39664,2,0,P|181:152|161:198,1,118.125004506111,8|0,0:0|0:0,0:0:0:0:
111,248,40007,54,0,P|146:295|219:235,1,157.5,2|0,0:3|2:0,0:0:0:0:
166,192,40350,2,0,B|203:166|246:176|246:176|272:157|272:157|292:165|343:153,1,157.5,8|0,0:0|2:0,0:0:0:0:
295,87,40693,6,0,P|369:108|383:191,1,157.5,8|0,0:0|2:0,0:0:0:0:
331,237,41036,2,0,B|323:293|336:359|336:359|296:323,1,157.5,8|0,0:0|2:0,0:0:0:0:
218,250,41378,53,8,0:1:0:0:
387,179,41550,1,8,0:0:0:0:
211,246,41721,1,8,0:0:0:0:
418,265,41893,1,8,0:0:0:0:
204,241,42064,1,8,0:0:0:0:
487,195,42235,1,8,0:0:0:0:
197,235,42407,1,8,0:0:0:0:
512,285,42578,1,8,0:0:0:0:
360,5,42750,5,8,0:0:0:0:
400,73,42836,1,8,0:0:0:0:
410,150,42921,1,8,0:0:0:0:
400,227,43007,1,8,0:0:0:0:
366,297,43093,1,8,0:0:0:0:
406,363,43178,1,8,0:0:0:0:
484,357,43264,1,8,0:0:0:0:
512,285,43350,1,8,0:0:0:0:
453,227,43436,54,0,L|388:227,1,52.5
287,335,43607,5,8,3:0:0:0:
289,340,43693,1,8,3:0:0:0:
281,152,43864,1,4,3:0:0:0:
281,152,43950,2,0,B|215:155,1,52.5,0|0,0:0|2:0,0:0:0:0:
62,234,44121,6,0,B|96:244|96:244|115:232|133:235|133:235|151:255|176:260|176:260|209:252|209:252|220:263|220:263|234:253|234:253|261:263|261:263|284:258|314:263|314:263|270:250,1,312.37500595808,6|0,0:3|2:0,0:0:0:0:
23,163,44807,6,0,P|-10:196|90:316,1,236.250009012223,8|0,0:0|0:0,0:0:0:0:
168,131,45150,2,0,B|130:114|89:127|89:127|68:156|22:164,1,157.500006008148,2|0,0:3|2:0,0:0:0:0:
323,372,45493,54,0,P|358:378|422:364,1,78.7500030040742,2|0,3:3|2:0,0:0:0:0:
246,132,45664,2,0,P|211:126|147:140,1,78.7500030040742,0|0,3:0|2:0,0:0:0:0:
240,324,45835,22,0,P|257:322|277:316,1,31.5
275,324,46178,38,0,P|240:330|176:316,1,78.7500030040742,8|0,3:1|2:0,0:0:0:0:
424,107,46350,2,0,P|430:146|423:184,1,78.7500030040742,0|0,3:0|2:0,0:0:0:0:
278,329,46521,6,0,P|243:335|179:321,1,78.7500030040742,0|0,3:0|2:0,0:0:0:0:
429,102,46693,2,0,P|435:141|428:179,1,78.7500030040742,0|0,3:0|2:0,0:0:0:0:
155,236,46864,54,0,P|197:149|238:238,1,236.250009012223,2|0,0:3|2:0,0:0:0:0:
237,252,47207,2,0,P|232:147|171:260,1,315,0|0,0:0|2:0,0:0:0:0:
348,267,47550,1,8,0:0:0:0:
341,269,47721,6,0,P|361:232|367:191,1,78.7500030040742,0|0,3:0|2:0,0:0:0:0:
238,38,47893,2,0,P|258:73|292:98,1,78.7500030040742,0|0,3:0|2:0,0:0:0:0:
488,59,48064,2,0,P|448:59|408:75,1,78.7500030040742,0|0,3:0|2:0,0:0:0:0:
126,196,48235,54,0,B|161:196|185:180|185:180|197:196|197:196|229:176|285:184,1,157.500006008148,2|0,0:3|2:0,0:0:0:0:
450,187,48578,2,0,L|510:182,2,52.5000020027161,0|0|0,3:0|3:0|3:0,3:0:0:0:
369,230,48750,6,0,P|362:191|368:152,1,78.7500030040742,0|0,3:0|2:0,0:0:0:0:
238,38,48921,1,8,0:0:0:0:
233,33,49093,54,0,P|218:71|219:113,1,78.7500030040742,0|0,3:0|2:0,0:0:0:0:
369,230,49264,2,0,P|343:198|306:177,1,78.7500030040742,0|0,3:0|2:0,0:0:0:0:
134,239,49435,2,0,P|174:232|210:211,1,78.7500030040742,0|0,3:0|2:0,0:0:0:0:
380,42,49607,6,0,B|351:33|327:43|327:43|296:50|268:33|268:33|251:39|251:39|234:33|234:33|196:47|196:47|166:33|166:33|115:31|115:31|156:56,1,312.37500595808,6|0,0:3|2:0,0:0:0:0:
385,203,50293,6,0,B|390:167|390:167|369:130|369:130|391:132|410:121,1,118.125004506111,8|0,0:0|2:0,0:0:0:0:
512,275,50635,38,0,B|336:286,1,157.500006008148,2|0,0:3|2:0,0:0:0:0:
164,322,50978,1,2,0:3:0:0:
170,329,51150,6,0,P|179:283|172:247,1,78.7500030040742,0|0,3:0|2:0,0:0:0:0:
42,84,51321,6,0,L|73:85,1,31.5,0|0,0:0|2:0,0:0:0:0:
78,80,51664,38,0,L|-13:74,1,78.7500030040742,8|0,3:1|2:0,0:0:0:0:
174,253,51835,2,0,P|152:221|143:183,1,78.7500030040742,0|0,3:0|2:0,0:0:0:0:
46,10,52007,6,0,P|68:42|78:81,1,78.7500030040742,0|0,3:0|2:0,0:0:0:0:
143,182,52178,2,0,L|234:188,1,78.7500030040742,0|0,3:0|2:0,0:0:0:0:
466,203,52350,54,0,P|372:180|446:119,1,236.250009012223,2|0,0:3|2:0,0:0:0:0:
461,116,52693,2,0,P|362:186|483:196,1,315,0|0,0:0|2:0,0:0:0:0:
496,35,53035,1,8,0:0:0:0:
501,41,53207,6,0,P|460:27|414:23,1,78.7500030040742,0|0,3:0|2:0,0:0:0:0:
206,122,53378,1,2,0:3:0:0:
211,130,53550,54,0,P|252:144|298:143,1,78.7500030040742,0|0,3:0|2:0,0:0:0:0:
148,64,53721,38,0,P|123:107|198:219,1,183.75,0|0,0:0|2:0,0:0:0:0:
211,130,54407,2,0,B|93:125|1:166|1:166|13:135|34:116,1,275.62501051426,0|0,0:0|2:0,0:0:0:0:
380,235,55093,22,0,B|343:248|296:232|296:232|272:241|272:241|250:233|227:241|227:241|202:249|128:221|128:221|156:214|186:215,1,312.37500595808,6|0,0:3|2:0,0:0:0:0:
449,283,55778,6,0,B|477:220|437:178|437:178|445:164|445:164|481:184,1,157.500006008148,8|0,0:0|2:0,0:0:0:0:
275,344,56121,6,0,B|241:343|241:343|222:330|222:330|238:306|238:306|227:258|257:219,1,157.5
487,30,56464,38,0,P|493:69|487:108,1,78.7500030040742,2|0,3:0|2:0,0:0:0:0:
248,112,56636,2,0,P|241:73|249:35,1,78.7500030040742,0|0,3:0|2:0,0:0:0:0:
342,272,56807,22,0,P|322:275|304:274,1,31.5,0|0,0:0|2:0,0:0:0:0:
307,283,57150,54,0,P|346:280|382:264,1,78.7500030040742,8|0,3:1|2:0,0:0:0:0:
495,29,57321,2,0,P|501:68|495:107,1,78.7500030040742,0|0,3:0|2:0,0:0:0:0:
307,292,57493,54,0,P|346:289|382:273,1,78.7500030040742,0|0,3:1|2:0,0:0:0:0:
503,29,57664,2,0,P|509:68|503:107,1,78.7500030040742,0|0,3:0|2:0,0:0:0:0:
235,174,57836,6,0,P|285:91|322:180,1,236.250009012223,2|0,3:3|2:0,0:0:0:0:
321,197,58178,2,0,P|319:92|254:203,1,315,0|0,0:0|2:0,0:0:0:0:
307,292,58521,1,8,0:0:0:0:
300,299,58693,54,0,P|261:293|224:279,1,78.7500030040742,0|0,3:0|2:0,2:0:0:0:
130,110,58864,2,0,P|144:146|151:185,1,78.7500030040742,0|0,3:0|2:0,2:0:0:0:
55,347,59036,2,0,P|79:316|109:290,1,78.7500030040742,0|0,3:0|2:0,2:0:0:0:
474,207,59207,6,0,B|429:201|385:212|385:212|352:197|352:197|334:199|312:195,1,157.500006008148,2|0,0:3|2:0,0:0:0:0:
60,144,59550,2,0,L|0:139,2,52.5000020027161,0|0|0,3:0|3:0|3:0,3:0:0:0:
151,185,59721,54,0,P|158:146|152:107,1,78.7500030040742,0|0,3:0|2:0,0:0:0:0:
243,25,59893,1,8,0:0:0:0:
248,21,60065,6,0,P|263:59|262:101,1,78.7500030040742,0|0,3:0|2:0,0:0:0:0:
93,236,60236,2,0,P|119:204|156:183,1,78.7500030040742,0|0,3:0|2:0,0:0:0:0:
366,255,60407,2,0,P|326:248|290:227,1,78.7500030040742,0|0,3:0|2:0,0:0:0:0:
14,78,60578,54,0,B|61:71|61:71|87:82|87:82|109:72|109:72|144:70|144:70|159:63|186:67|186:67|211:54|211:54|235:64|235:64|261:47|261:47|268:76|260:113,1,312.37500595808,6|0,0:3|2:0,0:0:0:0:
111,325,61264,6,0,P|68:332|53:184,1,236.250009012223,8|0,0:0|0:0,0:0:0:0:
226,253,61607,2,0,B|189:273|152:260|152:260|111:234|72:258,1,157.500006008148,2|0,0:3|2:0,0:0:0:0:
355,329,61950,54,0,B|368:296|368:296|368:248|368:248|358:214,1,118.125004506111,2|0,0:3|0:0,0:0:0:0:
304,96,62293,1,8,3:0:0:0:
213,318,62464,1,8,3:0:0:0:
213,280,62550,1,4,3:0:0:0:
213,245,62635,6,0,P|173:237|127:247,1,78.7500030040742,8|0,3:1|2:0,0:0:0:0:
359,215,62807,2,0,P|399:223|445:213,1,78.7500030040742,0|0,3:0|2:0,0:0:0:0:
136,243,62978,54,0,P|128:203|138:157,1,78.7500030040742,2|0,3:3|2:0,0:0:0:0:
435,216,63150,2,0,P|443:256|433:302,1,78.7500030040742,0|0,3:0|2:0,0:0:0:0:
137,89,63321,6,0,P|62:170|149:242,1,236.250009012223,0|0,3:3|2:0,0:0:0:0:
252,98,63664,53,0,0:0:0:0:
306,145,63750,1,0,0:0:0:0:
328,213,63836,1,0,0:0:0:0:
322,283,63921,1,0,0:0:0:0:
283,343,64007,1,8,0:0:0:0:
289,350,64178,6,0,L|192:342,1,78.7500030040742,0|0,3:0|2:0,0:0:0:0:
61,166,64350,1,0,0:0:0:0:
55,159,64521,54,0,L|152:167,1,78.7500030040742,0|0,3:0|2:0,0:0:0:0:
166,239,64693,37,2,0:3:0:0:
211,174,64864,1,2,0:3:0:0:
372,252,65035,1,8,0:0:0:0:
297,194,65207,1,2,0:3:0:0:
291,208,65293,1,2,0:3:0:0:
286,221,65378,1,2,0:3:0:0:
279,235,65464,1,0,0:0:0:0:
272,249,65550,1,8,0:0:0:0:
349,108,65721,5,2,0:3:0:0:
283,112,65807,1,2,0:3:0:0:
226,166,65893,1,8,0:0:0:0:
153,203,65978,1,2,0:3:0:0:
63,196,66064,6,0,B|99:229|153:203|153:203|151:244|151:244|185:230|220:248|220:248|256:257|289:219,1,285.074998477535,6|0,0:3|0:0,0:0:0:0:
349,108,66407,1,8,0:0:0:0:
492,228,66578,1,2,0:3:0:0:
211,115,66750,1,0,0:0:0:0:
414,229,66921,6,0,P|455:234|504:223,1,78.7500030040742,2|0,0:3|2:0,0:0:0:0:
349,108,67093,1,8,0:0:0:0:
346,340,67264,1,0,0:0:0:0:
211,115,67435,54,0,P|151:134|237:152,1,236.250009012223,2|0,0:3|0:0,0:0:0:0:
70,166,67778,22,0,P|71:184|75:198,1,31.5,8|0,0:0|0:0,0:0:0:0:
67,208,68121,38,0,P|39:204|67:200,1,78.7500030040742,0|0,3:0|2:0,0:0:0:0:
265,243,68293,2,0,B|290:246|290:246|310:232|310:232|262:225,1,78.7500030040742,2|0,3:3|2:0,0:0:0:0:
34,292,68464,6,0,P|7:298|35:302,1,78.7500030040742,8|0,3:1|2:0,0:0:0:0:
251,315,68636,2,0,B|275:319|275:319|291:337|291:337|243:331,1,78.7500030040742,2|0,3:3|2:0,0:0:0:0:
66,199,68807,54,0,B|60:185|47:185|35:190|31:204|35:219|52:223|63:221|78:211|78:211|126:213|126:213|151:225|151:225|231:229,1,236.250009012223,6|0,0:3|0:0,0:0:0:0:
360,199,69150,1,8,0:0:0:0:
236,265,69321,1,2,0:3:0:0:
223,228,69407,1,2,0:3:0:0:
223,189,69493,1,2,0:3:0:0:
484,136,69664,6,0,P|498:173|498:213,1,78.7500030040742,2|0,0:3|2:0,0:0:0:0:
388,318,69835,1,8,0:0:0:0:
266,85,70007,2,0,P|266:125|253:161,1,78.7500030040742,2|0,0:3|2:0,0:0:0:0:
116,304,70178,54,0,P|216:267|400:328,1,291.374998888493,2|0,0:3|2:0,0:0:0:0:
233,192,70521,2,0,P|215:162|260:197,1,196.875,8|0,0:0|2:0,0:0:0:0:
145,203,70864,37,0,0:0:0:0:
145,203,70950,1,0,0:0:0:0:
145,203,71035,2,0,P|137:162|141:116,1,65.625,0|0,3:0|2:0,0:0:0:0:
343,236,71207,2,0,P|318:257|290:274,1,65.625,0|0,3:0|2:0,0:0:0:0:
274,46,71378,2,0,P|305:56|333:72,1,65.625,0|0,3:0|2:0,0:0:0:0:
74,227,71550,22,0,B|58:163|69:110|69:110|53:115|53:115|73:53|39:-1,1,236.250009012223,6|0,0:3|2:0,0:0:0:0:
260,158,71893,5,8,0:0:0:0:
145,203,72064,1,0,0:0:0:0:
274,46,72236,1,0,0:0:0:0:
418,227,72407,54,0,P|381:238|342:236,1,78.7500030040742,2|0,0:3|2:0,0:0:0:0:
174,89,72578,1,8,0:0:0:0:
362,110,72750,1,0,0:0:0:0:
145,203,72921,6,0,B|217:198|260:158|260:158|264:183|264:183|316:164|343:237,1,259.875002478361,2|0,0:3|2:0,0:0:0:0:
256,286,73264,1,8,0:0:0:0:
274,46,73435,1,0,0:0:0:0:
400,287,73607,54,0,P|366:268|343:237,1,78.7500030040742,0|0,3:0|2:0,0:0:0:0:
274,46,73778,2,0,P|308:65|332:97,1,78.7500030040742,2|0,3:3|2:0,0:0:0:0:
217,229,73950,2,0,P|236:195|267:171,1,78.7500030040742,8|0,0:0|2:0,0:0:0:0:
456,101,74121,2,0,P|437:135|406:159,1,78.7500030040742,0|0,3:0|2:0,0:0:0:0:
217,229,74293,6,0,B|202:220|180:226|180:226|165:216|165:216|138:219|106:207|106:207|96:225|96:225|51:203|0:230,1,236.250009012223,2|0,0:3|0:0,0:0:0:0:
151,131,74636,53,8,0:0:0:0:
54,312,74807,1,0,0:0:0:0:
35,70,74978,1,0,0:0:0:0:
182,342,75150,1,2,0:3:0:0:
132,19,75321,1,8,0:0:0:0:
47,197,75493,37,0,3:0:0:0:
47,197,75578,1,0,3:0:0:0:
47,197,75664,2,0,P|41:227|51:280,1,78.7500030040742,2|2,0:3|0:3,0:0:0:0:
153,243,76007,1,8,0:0:0:0:
239,358,76178,5,2,0:3:0:0:
261,358,76264,1,2,0:3:0:0:
282,357,76350,2,0,P|274:318|281:280,1,78.7500030040742,2|8,0:3|0:0,0:0:0:0:
484,291,76693,2,0,P|488:329|452:282,1,157.5,8|0,0:3|2:0,0:0:0:0:
446,285,77036,6,0,B|415:291|379:279|379:279|366:287|366:287|345:278|345:278|311:291|281:280|281:280|252:289|202:277,1,236.250009012223,6|0,0:3|2:0,0:0:0:0:
79,113,77378,1,8,0:0:0:0:
311,214,77550,1,2,0:3:0:0:
296,174,77635,1,2,0:3:0:0:
274,145,77721,1,2,0:3:0:0:
79,113,77893,6,0,P|118:121|159:115,1,78.7500030040742,2|0,3:3|2:0,0:0:0:0:
276,1,78064,1,8,0:0:0:0:
311,214,78236,1,0,0:0:0:0:
16,63,78407,54,0,P|-1:115|131:178,1,236.250009012223,2|0,0:3|2:0,0:0:0:0:
339,76,78750,22,0,P|357:77|371:81,1,31.5,8|0,0:0|2:0,0:0:0:0:
381,73,79093,38,0,P|377:45|373:73,1,78.7500030040742,0|0,3:0|2:0,0:0:0:0:
367,282,79264,2,0,B|366:308|366:308|378:327|378:327|385:279,1,78.7500030040742,2|0,3:3|2:0,0:0:0:0:
260,69,79435,6,0,P|266:42|270:70,1,78.7500030040742,8|0,3:1|2:0,0:0:0:0:
263,277,79607,2,0,B|264:303|264:303|252:322|252:322|245:274,1,78.7500030040742,0|0,3:0|2:0,0:0:0:0:
152,66,79778,54,0,B|140:25|140:25|134:103|134:103|145:140|145:140|139:227,1,236.250009012223,2|0,0:3|0:0,0:0:0:0:
177,364,80121,1,8,0:0:0:0:
226,205,80293,1,2,0:3:0:0:
266,197,80378,1,2,0:3:0:0:
306,201,80464,1,2,0:3:0:0:
159,142,80635,6,0,P|142:176|139:216,1,78.7500030040742,2|0,0:3|0:0,0:0:0:0:
177,364,80807,1,8,0:0:0:0:
226,205,80978,1,2,0:3:0:0:
266,197,81063,1,2,0:3:0:0:
306,201,81150,54,0,B|255:187|141:216|97:310|97:310|117:222,1,291.374998888493,2|0,0:3|2:0,0:0:0:0:
159,142,81493,2,0,B|176:39|176:39|192:72,1,131.25,8|0,0:0|2:0,0:0:0:0:
443,159,81835,37,0,3:0:0:0:
443,159,81922,1,0,2:0:0:0:
443,159,82007,2,0,P|451:200|447:246,1,65.625,0|0,3:0|2:0,0:0:0:0:
245,126,82179,2,0,P|270:105|298:88,1,65.625,0|0,3:0|2:0,0:0:0:0:
314,316,82350,2,0,P|283:306|255:290,1,65.625,0|0,3:0|2:0,0:0:0:0:
142,40,82521,22,0,B|143:60|134:84|134:84|119:120|130:158|130:158|121:233|121:233|96:162,1,236.250009012223,6|0,0:3|2:0,0:0:0:0:
63,35,82864,1,8,0:0:0:0:
225,205,83035,1,0,0:0:0:0:
0,82,83207,1,0,0:0:0:0:
302,207,83378,6,0,P|260:199|214:209,1,78.7500030040742,2|0,0:3|0:0,0:0:0:0:
11,319,83550,1,8,0:0:0:0:
384,267,83721,1,0,0:0:0:0:
168,218,83893,54,0,P|141:182|206:219,1,236.250009012223,2|0,0:3|0:0,0:0:0:0:
75,235,84235,1,8,0:0:0:0:
387,78,84407,1,0,0:0:0:0:
268,289,84578,6,0,P|228:297|182:287,1,78.7500030040742,0|0,3:0|2:0,0:0:0:0:
412,320,84750,2,0,P|452:312|498:322,1,78.7500030040742,2|0,3:3|2:0,0:0:0:0:
191,291,84921,54,0,P|183:331|193:377,1,78.7500030040742,8|0,3:1|2:0,0:0:0:0:
488,319,85093,2,0,P|496:279|486:233,1,78.7500030040742,0|0,3:0|2:0,0:0:0:0:
191,291,85264,5,2,0:3:0:0:
264,51,85435,1,0,0:0:0:0:
185,295,85607,1,8,0:0:0:0:
120,0,85778,1,0,0:0:0:0:
178,302,85950,53,0,0:0:0:0:
7,91,86121,2,0,L|103:81,1,78.7500030040742,0|0,0:0|2:0,0:0:0:0:
261,57,86293,1,8,0:0:0:0:
173,307,86464,1,0,0:0:0:0:
272,272,86635,37,2,2:0:0:0:
351,347,86806,1,2,2:0:0:0:
249,374,86978,1,8,3:0:0:0:
368,247,87149,1,0,3:0:0:0:
368,247,87236,1,0,3:2:0:0:
368,247,87321,2,0,L|414:246,2,39.3750015020371,8|0|0,0:0|0:0|0:0,0:0:0:0:
438,139,87664,5,0,0:0:0:0:
363,142,87749,1,0,0:0:0:0:
296,107,87835,1,0,0:0:0:0:
221,116,87921,1,0,0:0:0:0:
177,178,88007,6,0,B|166:221|166:221|150:147|150:147|133:132|133:132|111:44,1,196.875,6|0,0:3|2:0,0:0:0:0:
0,5,88350,2,0,P|33:84|119:79,1,183.750001752377
17,258,88693,6,0,L|2:350,1,78.7500030040742,8|0,0:0|2:0,0:0:0:0:
107,157,88864,2,0,L|122:65,1,78.7500030040742,0|0,0:0|2:0,0:0:0:0:
243,313,89036,6,0,B|291:324|360:297|360:297|342:295|320:299,1,157.5,2|0,0:3|0:0,0:0:0:0:
169,331,89378,38,0,P|126:329|197:258,1,236.250009012223,2|0,0:3|0:0,0:0:0:0:
25,322,89721,2,0,P|17:283|23:244,1,78.7500030040742
191,174,89893,2,0,P|198:212|192:251,1,78.7500030040742
114,73,90064,6,0,B|147:106|147:106|197:80|247:104|265:139|265:139|332:108,1,236.250009012223,8|0,0:0|0:0,0:0:0:0:
30,78,90750,54,0,P|39:36|74:5,1,78.7500030040742,2|0,3:3|2:0,0:0:0:0:
56,177,90921,2,0,P|47:219|12:250,1,78.7500030040742,0|0,3:0|2:0,0:0:0:0:
313,116,91093,6,0,P|304:74|269:43,1,78.7500030040742,0|0,3:0|2:0,0:0:0:0:
316,229,91264,2,0,P|325:271|360:302,1,78.7500030040742,0|0,3:0|2:0,0:0:0:0:
426,117,91435,54,0,B|456:79|456:79|446:216,1,157.5,8|0,0:0|2:0,0:0:0:0:
238,109,91778,2,0,B|208:71|208:71|218:208,1,157.5,0|0,0:0|2:0,0:0:0:0:
273,300,92121,6,0,P|311:306|349:296,1,78.7500030040742,0|0,3:0|2:0,0:0:0:0:
215,179,92293,2,0,L|150:187,1,52.5
309,221,92464,54,0,P|319:178|305:131,1,78.7500030040742,0|0,3:0|2:0,0:0:0:0:
208,70,92635,2,0,P|169:64|132:74,1,78.7500030040742,2|0,3:3|2:0,0:0:0:0:
162,185,92807,22,0,L|74:195,1,78.75,8|0,0:0|2:0,0:0:0:0:
79,202,93150,2,0,L|156:193,1,78.7500030040742,0|0,2:0|2:0,2:0:0:0:
312,271,93493,38,0,P|323:313|275:258,1,236.250009012223,6|0,0:3|2:0,0:0:0:0:
489,105,93836,2,0,P|456:184|370:179,1,183.750001752377
459,279,94178,6,0,L|474:371,1,78.7500030040742,8|0,0:0|2:0,0:0:0:0:
369,178,94350,2,0,L|354:86,1,78.7500030040742,0|0,0:0|2:0,0:0:0:0:
221,334,94521,6,0,B|173:345|104:318|104:318|122:316|141:319,1,157.5,2|0,0:3|0:0,0:0:0:0:
307,352,94864,38,0,P|350:350|279:279,1,236.250009012223,2|0,0:3|2:0,0:0:0:0:
451,343,95207,2,0,P|459:304|453:265,1,78.7500030040742
283,195,95378,2,0,P|275:233|282:272,1,78.7500030040742
393,149,95550,6,0,B|393:89|393:89|409:41|409:41|369:77,1,157.500006008148,8|0,0:0|2:0,0:0:0:0:
154,137,95893,2,0,B|154:77|154:77|138:29|138:29|178:65,1,157.500006008148,0|0,0:0|2:0,0:0:0:0:
375,73,96235,54,0,P|365:118|337:158,1,78.7500030040742,2|0,3:0|2:0,0:0:0:0:
127,210,96407,2,0,P|137:165|165:125,1,78.7500030040742,0|0,3:0|2:0,0:0:0:0:
447,99,96578,6,0,P|402:89|362:61,1,78.7500030040742,0|0,3:0|2:0,0:0:0:0:
81,111,96750,2,0,P|126:121|166:149,1,78.7500030040742,0|0,3:0|2:0,0:0:0:0:
447,99,96921,54,0,B|477:61|477:61|504:120|456:172,1,157.500006008148,8|0,0:0|2:0,0:0:0:0:
270,139,97264,2,0,B|240:101|240:101|213:160|254:203,1,157.500006008148,2|0,0:3|2:0,0:0:0:0:
168,40,97607,22,0,L|68:58,1,78.7500030040742,2|0,0:3|2:0,0:0:0:0:
86,62,97950,2,0,L|163:49,1,78.7500030040742,0|0,2:0|2:0,2:0:0:0:
143,191,98293,6,0,P|124:158|153:158,1,78.7500030040742,0|0,0:0|2:0,0:0:0:0:
268,235,98635,2,0,P|299:222|275:199,1,78.7500030040742,0|0,0:0|2:0,0:0:0:0:
161,328,98978,5,6,2:0:0:0:
