osu file format v14

[General]
AudioFilename: audio.mp3
AudioLeadIn: 0
PreviewTime: 42750
Countdown: 0
SampleSet: Normal
StackLeniency: 0.4
Mode: 0
LetterboxInBreaks: 0
EpilepsyWarning: 1
WidescreenStoryboard: 1

[Editor]
Bookmarks: 65978,88007,98978
DistanceSpacing: 1.3
BeatDivisor: 4
GridSize: 8
TimelineZoom: 1.399999

[Metadata]
Title:Spacecraft
TitleUnicode:Spacecraft
Artist:Blaster & Extra Terra
ArtistUnicode:Blaster & Extra Terra
Creator:Pandize
Version:Hobbes2's Extra
Source:
Tags:Exclusive Tunes Network Dubstep Wub Mun Garden Hobbes2 Bandi
BeatmapID:1543913
BeatmapSetID:712901

[Difficulty]
HPDrainRate:5
CircleSize:3.5
OverallDifficulty:8.3
ApproachRate:9.3
SliderMultiplier:1.6
SliderTickRate:1

[Events]
//Background and Video events
0,0,"spacecraft.jpg",0,0
//Break Periods
2,22378,32596
//Storyboard Layer 0 (Background)
//Storyboard Layer 1 (Fail)
//Storyboard Layer 2 (Pass)
//Storyboard Layer 3 (Foreground)
//Storyboard Sound Samples

[TimingPoints]
236,342.857142857143,4,1,1,85,1,0
236,-200,4,1,1,85,0,0
1521,-200,4,1,1,5,0,0
1607,-200,4,1,1,85,0,0
2893,-200,4,1,1,5,0,0
2978,-200,4,1,1,85,0,0
4264,-200,4,1,1,5,0,0
4350,-200,4,1,1,85,0,0
5636,-200,4,1,1,5,0,0
5722,-200,4,1,1,85,0,0
7007,-200,4,1,1,5,0,0
7093,-200,4,1,1,85,0,0
8378,-200,4,1,1,5,0,0
8464,-200,4,1,1,85,0,0
9750,-200,4,1,1,5,0,0
9836,-200,4,1,1,85,0,0
11121,-200,4,1,1,5,0,0
11207,-100,4,1,1,85,0,0
20807,-200,4,1,1,85,0,0
22093,-200,4,1,1,5,0,0
22179,-200,4,1,1,85,0,0
33150,-66.6666666666667,4,1,1,85,0,0
33750,-200,4,1,1,5,0,0
33836,-200,4,1,1,85,0,0
35893,-66.6666666666667,4,1,1,85,0,0
36493,-200,4,1,1,5,0,0
36579,-200,4,1,1,85,0,0
38207,-66.6666666666667,4,1,1,5,0,0
38293,-66.6666666666667,4,1,1,85,0,0
38550,-66.6666666666667,4,1,1,5,0,0
38636,-66.6666666666667,4,1,1,85,0,0
38893,-66.6666666666667,4,1,1,5,0,0
38978,-66.6666666666667,4,1,1,85,0,0
39236,-66.6666666666667,4,1,1,5,0,0
39321,-66.6666666666667,4,1,1,85,0,0
39578,-66.6666666666667,4,1,1,5,0,0
39664,-66.6666666666667,4,1,1,85,0,0
39921,-66.6666666666667,4,1,1,5,0,0
40007,-66.6666666666667,4,1,1,85,0,0
40264,-66.6666666666667,4,1,1,5,0,0
40350,-66.6666666666667,4,1,1,85,0,0
40607,-66.6666666666667,4,1,1,5,0,0
40693,-66.6666666666667,4,1,1,85,0,0
40950,-66.6666666666667,4,1,1,5,0,0
41036,-66.6666666666667,4,1,1,85,0,0
41293,-66.6666666666667,4,1,1,5,0,0
41378,-66.6666666666667,4,1,1,40,0,0
41721,-66.6666666666667,4,1,1,45,0,0
42064,-66.6666666666667,4,1,1,50,0,0
42407,-66.6666666666667,4,1,1,55,0,0
42750,-66.6666666666667,4,1,1,60,0,0
43350,-66.6666666666667,4,1,1,5,0,0
43436,-66.6666666666667,4,1,1,85,0,0
43607,-66.6666666666667,4,1,2,65,0,0
44036,-66.6666666666667,4,1,2,5,0,0
44121,-50,4,1,1,85,0,0
44721,-50,4,1,1,5,0,0
44807,-66.6666666666667,4,1,1,85,0,0
45064,-66.6666666666667,4,1,1,5,0,0
45150,-66.6666666666667,4,1,1,85,0,0
45321,-66.6666666666667,4,1,1,5,0,0
45493,-66.6666666666667,4,1,1,85,0,0
45578,-66.6666666666667,4,1,1,5,0,0
45664,-66.6666666666667,4,1,1,85,0,0
45750,-66.6666666666667,4,1,1,5,0,0
45835,-66.6666666666667,4,1,1,85,0,0
46093,-66.6666666666667,4,1,1,5,0,0
46178,-66.6666666666667,4,1,1,85,0,0
46264,-66.6666666666667,4,1,1,5,0,0
46350,-66.6666666666667,4,1,1,85,0,0
46435,-66.6666666666667,4,1,1,5,0,0
46521,-66.6666666666667,4,1,1,85,0,0
46607,-66.6666666666667,4,1,1,5,0,0
46693,-66.6666666666667,4,1,1,85,0,0
46778,-66.6666666666667,4,1,1,5,0,0
46864,-66.6666666666667,4,1,1,85,0,0
47121,-66.6666666666667,4,1,1,5,0,0
47207,-66.6666666666667,4,1,1,85,0,0
47464,-66.6666666666667,4,1,1,5,0,0
47550,-66.6666666666667,4,1,1,85,0,0
48064,-66.6666666666667,4,1,1,85,0,0
48150,-66.6666666666667,4,1,1,5,0,0
48235,-66.6666666666667,4,1,1,85,0,0
48407,-66.6666666666667,4,1,1,5,0,0
48578,-66.6666666666667,4,1,1,85,0,0
48835,-66.6666666666667,4,1,1,5,0,0
48921,-66.6666666666667,4,1,1,85,0,0
49178,-66.6666666666667,4,1,1,5,0,0
49264,-66.6666666666667,4,1,1,85,0,0
49350,-66.6666666666667,4,1,1,5,0,0
49435,-66.6666666666667,4,1,1,85,0,0
49521,-66.6666666666667,4,1,1,5,0,0
49607,-50,4,1,1,85,0,0
50207,-50,4,1,1,5,0,0
50293,-66.6666666666667,4,1,1,85,0,0
50550,-66.6666666666667,4,1,1,5,0,0
50635,-66.6666666666667,4,1,1,85,0,0
50807,-66.6666666666667,4,1,1,5,0,0
50978,-66.6666666666667,4,1,1,85,0,0
51235,-66.6666666666667,4,1,1,5,0,0
51321,-66.6666666666667,4,1,1,85,0,0
51578,-66.6666666666667,4,1,1,5,0,0
51664,-66.6666666666667,4,1,1,85,0,0
51750,-66.6666666666667,4,1,1,5,0,0
51835,-66.6666666666667,4,1,1,85,0,0
51921,-66.6666666666667,4,1,1,5,0,0
52007,-66.6666666666667,4,1,1,85,0,0
52093,-66.6666666666667,4,1,1,5,0,0
52178,-66.6666666666667,4,1,1,85,0,0
52264,-66.6666666666667,4,1,1,5,0,0
52350,-66.6666666666667,4,1,1,85,0,0
52607,-66.6666666666667,4,1,1,5,0,0
52693,-66.6666666666667,4,1,1,85,0,0
52950,-66.6666666666667,4,1,1,5,0,0
53035,-66.6666666666667,4,1,1,85,0,0
53293,-66.6666666666667,4,1,1,5,0,0
53378,-66.6666666666667,4,1,1,85,0,0
53635,-66.6666666666667,4,1,1,5,0,0
53721,-200,4,1,1,85,0,0
54321,-200,4,1,1,5,0,0
54407,-200,4,1,1,85,0,0
55007,-200,4,1,1,5,0,0
55093,-50,4,1,1,85,0,0
55693,-50,4,1,1,5,0,0
55778,-66.6666666666667,4,1,1,85,0,0
55950,-66.6666666666667,4,1,1,5,0,0
56121,-66.6666666666667,4,1,1,85,0,0
56378,-66.6666666666667,4,1,1,5,0,0
56464,-66.6666666666667,4,1,1,85,0,0
56550,-66.6666666666667,4,1,1,5,0,0
56635,-66.6666666666667,4,1,1,85,0,0
56721,-66.6666666666667,4,1,1,5,0,0
56807,-66.6666666666667,4,1,1,85,0,0
57064,-66.6666666666667,4,1,1,5,0,0
57150,-66.6666666666667,4,1,1,85,0,0
57235,-66.6666666666667,4,1,1,5,0,0
57321,-66.6666666666667,4,1,1,85,0,0
57407,-66.6666666666667,4,1,1,5,0,0
57493,-66.6666666666667,4,1,1,85,0,0
57578,-66.6666666666667,4,1,1,5,0,0
57664,-66.6666666666667,4,1,1,85,0,0
57750,-66.6666666666667,4,1,1,5,0,0
57835,-66.6666666666667,4,1,1,85,0,0
58093,-66.6666666666667,4,1,1,5,0,0
58178,-66.6666666666667,4,1,1,85,0,0
58435,-66.6666666666667,4,1,1,5,0,0
58521,-66.6666666666667,4,1,1,85,0,0
58778,-66.6666666666667,4,1,1,5,0,0
58864,-66.6666666666667,4,1,1,85,0,0
59035,-66.6666666666667,4,1,1,85,0,0
59121,-66.6666666666667,4,1,1,5,0,0
59207,-66.6666666666667,4,1,1,85,0,0
59378,-66.6666666666667,4,1,1,5,0,0
59550,-66.6666666666667,4,1,1,85,0,0
59807,-66.6666666666667,4,1,1,5,0,0
59893,-66.6666666666667,4,1,1,85,0,0
60150,-66.6666666666667,4,1,1,5,0,0
60235,-66.6666666666667,4,1,1,85,0,0
60321,-66.6666666666667,4,1,1,5,0,0
60407,-66.6666666666667,4,1,1,85,0,0
60493,-66.6666666666667,4,1,1,5,0,0
60578,-50,4,1,1,85,0,0
61178,-50,4,1,1,5,0,0
61264,-66.6666666666667,4,1,1,85,0,0
61521,-66.6666666666667,4,1,1,5,0,0
61607,-66.6666666666667,4,1,1,85,0,0
61778,-66.6666666666667,4,1,1,5,0,0
61950,-66.6666666666667,4,1,1,85,0,0
62207,-66.6666666666667,4,1,1,5,0,0
62293,-66.6666666666667,4,1,2,65,0,0
62635,-66.6666666666667,4,1,1,85,0,0
62721,-66.6666666666667,4,1,1,5,0,0
62807,-66.6666666666667,4,1,1,85,0,0
62893,-66.6666666666667,4,1,1,5,0,0
62978,-66.6666666666667,4,1,1,85,0,0
63064,-66.6666666666667,4,1,1,5,0,0
63150,-66.6666666666667,4,1,1,85,0,0
63235,-66.6666666666667,4,1,1,5,0,0
63321,-66.6666666666667,4,1,1,85,0,0
63578,-66.6666666666667,4,1,1,5,0,0
63664,-66.6666666666667,4,1,1,85,0,0
64264,-66.6666666666667,4,1,1,5,0,0
64350,-66.6666666666667,4,1,1,85,0,0
64607,-66.6666666666667,4,1,1,5,0,0
64693,-66.6666666666667,4,1,1,50,0,0
65550,-66.6666666666667,4,1,1,55,0,0
65721,-66.6666666666667,4,1,1,60,0,0
65893,-66.6666666666667,4,1,1,65,0,0
66064,-66.6666666666667,4,1,1,85,0,0
66321,-66.6666666666667,4,1,1,5,0,0
66407,-66.6666666666667,4,1,1,85,0,0
66450,-66.6666666666667,4,1,1,5,0,0
66493,-66.6666666666667,4,1,1,85,0,0
66621,-66.6666666666667,4,1,1,5,0,0
66664,-66.6666666666667,4,1,1,85,0,0
66793,-66.6666666666667,4,1,1,5,0,0
66836,-66.6666666666667,4,1,1,85,0,0
67007,-66.6666666666667,4,1,1,5,0,0
67093,-66.6666666666667,4,1,1,85,0,0
67136,-66.6666666666667,4,1,1,5,0,0
67179,-66.6666666666667,4,1,1,85,0,0
67307,-66.6666666666667,4,1,1,5,0,0
67350,-66.6666666666667,4,1,1,85,0,0
67693,-66.6666666666667,4,1,1,5,0,0
67778,-66.6666666666667,4,1,1,85,0,0
68035,-66.6666666666667,4,1,1,5,0,0
68121,-66.6666666666667,4,1,1,85,0,0
68207,-66.6666666666667,4,1,1,5,0,0
68293,-66.6666666666667,4,1,1,85,0,0
68378,-66.6666666666667,4,1,1,5,0,0
68464,-66.6666666666667,4,1,1,85,0,0
68550,-66.6666666666667,4,1,1,5,0,0
68635,-66.6666666666667,4,1,1,85,0,0
68721,-66.6666666666667,4,1,1,5,0,0
68807,-66.6666666666667,4,1,1,85,0,0
69064,-66.6666666666667,4,1,1,5,0,0
69150,-66.6666666666667,4,1,1,85,0,0
69193,-66.6666666666667,4,1,1,5,0,0
69236,-66.6666666666667,4,1,1,85,0,0
69364,-66.6666666666667,4,1,1,5,0,0
69407,-66.6666666666667,4,1,1,85,0,0
69450,-66.6666666666667,4,1,1,5,0,0
69493,-66.6666666666667,4,1,1,85,0,0
69750,-66.6666666666667,4,1,1,5,0,0
69835,-66.6666666666667,4,1,1,85,0,0
69878,-66.6666666666667,4,1,1,5,0,0
69921,-66.6666666666667,4,1,1,85,0,0
70435,-66.6666666666667,4,1,1,5,0,0
70521,-66.6666666666667,4,1,1,85,0,0
70778,-66.6666666666667,4,1,1,5,0,0
70864,-66.6666666666667,4,1,1,85,0,0
71121,-66.6666666666667,4,1,1,5,0,0
71207,-66.6666666666667,4,1,1,85,0,0
71293,-66.6666666666667,4,1,1,5,0,0
71378,-66.6666666666667,4,1,1,85,0,0
71464,-66.6666666666667,4,1,1,5,0,0
71550,-66.6666666666667,4,1,1,85,0,0
71807,-66.6666666666667,4,1,1,5,0,0
71893,-66.6666666666667,4,1,1,85,0,0
71978,-66.6666666666667,4,1,1,5,0,0
72021,-66.6666666666667,4,1,1,85,0,0
72150,-66.6666666666667,4,1,1,5,0,0
72193,-66.6666666666667,4,1,1,85,0,0
72321,-66.6666666666667,4,1,1,5,0,0
72364,-66.6666666666667,4,1,1,85,0,0
72493,-66.6666666666667,4,1,1,5,0,0
72536,-66.6666666666667,4,1,1,85,0,0
72664,-66.6666666666667,4,1,1,5,0,0
72707,-66.6666666666667,4,1,1,85,0,0
72836,-66.6666666666667,4,1,1,5,0,0
72879,-66.6666666666667,4,1,1,85,0,0
73178,-66.6666666666667,4,1,1,5,0,0
73264,-66.6666666666667,4,1,1,85,0,0
73350,-66.6666666666667,4,1,1,5,0,0
73393,-66.6666666666667,4,1,1,85,0,0
73521,-66.6666666666667,4,1,1,5,0,0
73564,-66.6666666666667,4,1,1,85,0,0
73693,-66.6666666666667,4,1,1,5,0,0
73778,-66.6666666666667,4,1,1,85,0,0
73864,-66.6666666666667,4,1,1,5,0,0
73950,-66.6666666666667,4,1,1,85,0,0
74035,-66.6666666666667,4,1,1,5,0,0
74121,-66.6666666666667,4,1,1,85,0,0
74207,-66.6666666666667,4,1,1,5,0,0
74293,-66.6666666666667,4,1,1,85,0,0
74550,-66.6666666666667,4,1,1,5,0,0
74635,-66.6666666666667,4,1,1,85,0,0
74721,-66.6666666666667,4,1,1,5,0,0
74764,-66.6666666666667,4,1,1,85,0,0
74893,-66.6666666666667,4,1,1,5,0,0
74936,-66.6666666666667,4,1,1,85,0,0
75064,-66.6666666666667,4,1,1,5,0,0
75107,-66.6666666666667,4,1,1,85,0,0
75236,-66.6666666666667,4,1,1,5,0,0
75279,-66.6666666666667,4,1,1,85,0,0
75407,-66.6666666666667,4,1,1,5,0,0
75450,-66.6666666666667,4,1,1,85,0,0
76950,-66.6666666666667,4,1,1,5,0,0
77036,-66.6666666666667,4,1,1,85,0,0
77293,-66.6666666666667,4,1,1,5,0,0
77378,-66.6666666666667,4,1,1,85,0,0
77421,-66.6666666666667,4,1,1,5,0,0
77464,-66.6666666666667,4,1,1,85,0,0
77636,-66.6666666666667,4,1,1,5,0,0
77679,-66.6666666666667,4,1,1,85,0,0
77764,-66.6666666666667,4,1,1,5,0,0
77807,-66.6666666666667,4,1,1,85,0,0
77978,-66.6666666666667,4,1,1,5,0,0
78064,-66.6666666666667,4,1,1,85,0,0
78107,-66.6666666666667,4,1,1,5,0,0
78150,-66.6666666666667,4,1,1,85,0,0
78278,-66.6666666666667,4,1,1,5,0,0
78321,-66.6666666666667,4,1,1,85,0,0
78407,-66.6666666666667,4,1,1,85,0,0
78664,-66.6666666666667,4,1,1,5,0,0
78750,-66.6666666666667,4,1,1,85,0,0
79007,-66.6666666666667,4,1,1,5,0,0
79093,-66.6666666666667,4,1,1,85,0,0
79178,-66.6666666666667,4,1,1,5,0,0
79264,-66.6666666666667,4,1,1,85,0,0
79350,-66.6666666666667,4,1,1,5,0,0
79435,-66.6666666666667,4,1,1,85,0,0
79521,-66.6666666666667,4,1,1,5,0,0
79607,-66.6666666666667,4,1,1,85,0,0
79693,-66.6666666666667,4,1,1,5,0,0
79778,-66.6666666666667,4,1,1,85,0,0
80035,-66.6666666666667,4,1,1,5,0,0
80121,-66.6666666666667,4,1,1,85,0,0
80164,-66.6666666666667,4,1,1,5,0,0
80207,-66.6666666666667,4,1,1,85,0,0
80336,-66.6666666666667,4,1,1,5,0,0
80379,-66.6666666666667,4,1,1,85,0,0
80421,-66.6666666666667,4,1,1,5,0,0
80464,-66.6666666666667,4,1,1,85,0,0
80507,-66.6666666666667,4,1,1,5,0,0
80550,-66.6666666666667,4,1,1,85,0,0
80721,-66.6666666666667,4,1,1,5,0,0
80807,-66.6666666666667,4,1,1,85,0,0
81021,-66.6666666666667,4,1,1,5,0,0
81064,-66.6666666666667,4,1,1,85,0,0
81107,-66.6666666666667,4,1,1,5,0,0
81150,-66.6666666666667,4,1,1,85,0,0
81407,-66.6666666666667,4,1,1,5,0,0
81493,-66.6666666666667,4,1,1,85,0,0
82093,-66.6666666666667,4,1,1,5,0,0
82178,-66.6666666666667,4,1,1,85,0,0
82264,-66.6666666666667,4,1,1,5,0,0
82350,-66.6666666666667,4,1,1,85,0,0
82435,-66.6666666666667,4,1,1,5,0,0
82521,-66.6666666666667,4,1,1,85,0,0
82778,-66.6666666666667,4,1,1,5,0,0
82864,-66.6666666666667,4,1,1,85,0,0
82950,-66.6666666666667,4,1,1,5,0,0
82993,-66.6666666666667,4,1,1,85,0,0
83121,-66.6666666666667,4,1,1,5,0,0
83164,-66.6666666666667,4,1,1,85,0,0
83293,-66.6666666666667,4,1,1,5,0,0
83336,-66.6666666666667,4,1,1,85,0,0
83464,-66.6666666666667,4,1,1,5,0,0
83550,-66.6666666666667,4,1,1,85,0,0
83636,-66.6666666666667,4,1,1,5,0,0
83679,-66.6666666666667,4,1,1,85,0,0
83807,-66.6666666666667,4,1,1,5,0,0
83850,-66.6666666666667,4,1,1,85,0,0
84150,-66.6666666666667,4,1,1,5,0,0
84235,-66.6666666666667,4,1,1,85,0,0
84321,-66.6666666666667,4,1,1,5,0,0
84364,-66.6666666666667,4,1,1,85,0,0
84493,-66.6666666666667,4,1,1,5,0,0
84536,-66.6666666666667,4,1,1,85,0,0
84664,-66.6666666666667,4,1,1,5,0,0
84750,-66.6666666666667,4,1,1,85,0,0
84835,-66.6666666666667,4,1,1,5,0,0
84921,-66.6666666666667,4,1,1,85,0,0
85007,-66.6666666666667,4,1,1,5,0,0
85093,-66.6666666666667,4,1,1,85,0,0
85178,-66.6666666666667,4,1,1,5,0,0
85264,-66.6666666666667,4,1,1,85,0,0
85693,-66.6666666666667,4,1,1,5,0,0
85736,-66.6666666666667,4,1,1,85,0,0
85864,-66.6666666666667,4,1,1,5,0,0
85907,-66.6666666666667,4,1,1,85,0,0
86036,-66.6666666666667,4,1,1,5,0,0
86079,-66.6666666666667,4,1,1,85,0,0
86207,-66.6666666666667,4,1,1,5,0,0
86250,-66.6666666666667,4,1,1,85,0,0
86378,-66.6666666666667,4,1,1,5,0,0
86421,-66.6666666666667,4,1,1,85,0,0
87578,-66.6666666666667,4,1,1,5,0,0
87664,-66.6666666666667,4,1,1,85,0,0
88007,-66.6666666666667,4,1,1,85,0,1
88264,-66.6666666666667,4,1,1,5,0,1
88350,-66.6666666666667,4,1,1,85,0,1
88393,-66.6666666666667,4,1,1,5,0,0
88436,-66.6666666666667,4,1,1,85,0,0
88778,-66.6666666666667,4,1,1,5,0,1
88864,-66.6666666666667,4,1,1,85,0,1
88950,-66.6666666666667,4,1,1,5,0,1
89035,-66.6666666666667,4,1,1,85,0,1
89293,-66.6666666666667,4,1,1,5,0,1
89378,-66.6666666666667,4,1,1,85,0,1
89635,-66.6666666666667,4,1,1,5,0,1
89721,-66.6666666666667,4,1,1,85,0,1
89807,-66.6666666666667,4,1,1,5,0,1
89893,-66.6666666666667,4,1,1,85,0,1
89978,-66.6666666666667,4,1,1,5,0,1
90064,-66.6666666666667,4,1,1,85,0,1
90835,-66.6666666666667,4,1,1,5,0,1
90921,-66.6666666666667,4,1,1,85,0,1
91007,-66.6666666666667,4,1,1,5,0,1
91093,-66.6666666666667,4,1,1,85,0,1
91178,-66.6666666666667,4,1,1,5,0,1
91264,-66.6666666666667,4,1,1,85,0,1
91350,-66.6666666666667,4,1,1,5,0,1
91435,-66.6666666666667,4,1,1,85,0,1
91693,-66.6666666666667,4,1,1,5,0,1
91778,-66.6666666666667,4,1,1,85,0,1
92035,-66.6666666666667,4,1,1,5,0,1
92121,-66.6666666666667,4,1,1,85,0,1
92164,-66.6666666666667,4,1,1,5,0,1
92464,-66.6666666666667,4,1,1,85,0,1
92550,-66.6666666666667,4,1,1,5,0,1
92635,-66.6666666666667,4,1,1,85,0,1
92721,-66.6666666666667,4,1,1,5,0,1
92807,-66.6666666666667,4,1,1,85,0,1
93493,-66.6666666666667,4,1,1,85,0,1
93750,-66.6666666666667,4,1,1,5,0,1
93835,-66.6666666666667,4,1,1,85,0,1
93878,-66.6666666666667,4,1,1,5,0,0
93921,-66.6666666666667,4,1,1,85,0,0
94264,-66.6666666666667,4,1,1,5,0,1
94350,-66.6666666666667,4,1,1,85,0,1
94435,-66.6666666666667,4,1,1,5,0,1
94521,-66.6666666666667,4,1,1,85,0,1
94778,-66.6666666666667,4,1,1,5,0,1
94864,-66.6666666666667,4,1,1,85,0,1
95121,-66.6666666666667,4,1,1,5,0,1
95207,-66.6666666666667,4,1,1,85,0,1
95293,-66.6666666666667,4,1,1,5,0,1
95378,-66.6666666666667,4,1,1,85,0,1
95464,-66.6666666666667,4,1,1,5,0,1
95550,-66.6666666666667,4,1,1,85,0,1
96321,-66.6666666666667,4,1,1,5,0,1
96407,-66.6666666666667,4,1,1,85,0,1
96493,-66.6666666666667,4,1,1,5,0,1
96578,-66.6666666666667,4,1,1,85,0,1
96664,-66.6666666666667,4,1,1,5,0,1
96750,-66.6666666666667,4,1,1,85,0,1
96835,-66.6666666666667,4,1,1,5,0,1
96921,-66.6666666666667,4,1,1,85,0,1
97778,-66.6666666666667,4,1,1,5,0,1
97950,-66.6666666666667,4,1,1,85,0,1
98121,-66.6666666666667,4,1,1,5,0,1
98293,-66.6666666666667,4,1,1,85,0,1
98378,-66.6666666666667,4,1,1,5,0,0
98421,-66.6666666666667,4,1,1,85,0,0
98721,-66.6666666666667,4,1,1,5,0,0
98764,-66.6666666666667,4,1,1,85,0,0
98978,-100,4,1,1,85,0,0

[Colours]
Combo1 : 172,172,0
Combo2 : 214,255,49
Combo3 : 16,152,27
Combo4 : 255,255,136
Combo5 : 90,84,61
SliderTrackOverride : 35,25,15
SliderBorder : 220,220,220

[HitObjects]
68,250,236,54,0,P|119:189|85:284,1,300,0|0,2:3|0:0,0:0:0:0:
68,250,1607,6,0,B|48:160|94:50|94:50|155:64|202:56,1,300,0|0,2:0|0:0,0:0:0:0:
188,57,2978,2,0,B|295:57|448:27|448:27|402:55,1,300,0|0,2:0|0:0,0:0:0:0:
414,46,4350,2,0,P|330:199|342:320,1,300,0|0,2:0|0:0,0:0:0:0:
341,318,5721,6,0,L|330:0,1,300,0|0,2:0|0:0,0:0:0:0:
330,18,7093,2,0,B|147:-26|217:89|32:37,1,300,0|0,2:0|0:0,0:0:0:0:
40,39,8464,2,0,B|130:45|161:113|161:113|201:31|295:37,1,300,0|0,2:0|0:0,0:0:0:0:
280,37,9836,2,0,B|301:114|301:114|287:172|287:172|380:129|439:172,1,300,0|0,2:0|0:0,0:0:0:0:
439,172,11207,22,0,L|448:271,1,80,6|0,0:2|0:0,0:0:0:0:
345,353,11550,2,0,L|352:274,1,80,0|0,0:0|0:0,0:0:0:0:
439,172,11893,1,8,0:0:0:0:
449,267,12064,1,0,0:0:0:0:
342,179,12236,2,0,L|262:172,1,80,0|0,0:0|0:0,0:0:0:0:
116,29,12578,22,0,P|191:17|236:79,1,160,2|0,0:3|0:0,0:0:0:0:
148,120,13093,1,0,0:0:0:0:
322,34,13264,2,0,L|401:27,1,80,8|0,0:0|0:0,0:0:0:0:
497,160,13607,2,0,P|495:120|479:84,1,80,0|0,0:0|0:0,0:0:0:0:
342,179,13950,5,2,0:3:0:0:
303,266,14121,1,0,0:0:0:0:
370,334,14293,2,0,P|429:336|461:321,1,80,0|0,0:0|0:0,0:0:0:0:
342,179,14636,1,8,0:0:0:0:
303,266,14807,1,0,0:0:0:0:
342,179,14978,2,0,L|335:99,1,80,0|0,0:0|0:0,0:0:0:0:
103,52,15321,22,0,B|181:79|179:21|259:39,1,160,2|0,0:3|0:0,0:0:0:0:
335,99,15836,1,0,0:0:0:0:
231,236,16007,1,8,0:0:0:0:
248,141,16178,1,0,0:0:0:0:
317,278,16350,2,0,P|293:309|258:328,1,80,0|0,0:0|0:0,0:0:0:0:
88,357,16693,22,0,L|168:364,1,80,2|0,0:3|0:0,0:0:0:0:
397,271,17036,2,0,L|317:278,1,80,0|0,0:0|0:0,0:0:0:0:
233,108,17378,1,8,0:0:0:0:
286,187,17550,1,0,0:0:0:0:
180,29,17721,2,0,L|100:22,1,80,0|0,0:0|0:0,0:0:0:0:
3,214,18064,6,0,B|-11:173|-11:173|12:60,1,160,2|0,0:3|0:0,0:0:0:0:
100,22,18578,1,0,0:0:0:0:
259,86,18750,2,0,P|316:75|356:48,1,80,8|0,0:0|0:0,0:0:0:0:
478,153,19093,2,0,P|442:136|403:132,1,80,0|0,0:0|0:0,0:0:0:0:
291,277,19436,21,2,0:3:0:0:
324,187,19607,1,0,0:0:0:0:
324,367,19778,1,0,0:0:0:0:
234,154,19950,1,0,0:0:0:0:
414,334,20121,2,0,P|471:323|511:296,1,80,8|0,0:0|0:0,0:0:0:0:
478,110,20464,2,0,P|421:121|381:148,1,80,0|0,0:0|0:0,0:0:0:0:
234,154,20807,22,0,B|250:131|254:100|254:100|336:205|251:328,1,300,2|0,0:3|0:0,0:0:0:0:
122,247,22178,21,4,2:0:0:0:
122,247,33150,22,0,B|166:217|184:132|184:132|223:245|218:324|218:324|255:262|332:254,1,420.000016021729,8|0,0:1|2:0,0:0:0:0:
373,278,33836,5,8,0:0:0:0:
373,278,34521,1,8,0:0:0:0:
373,278,35207,1,8,0:0:0:0:
373,278,35893,6,0,B|441:208|482:97|450:44|394:13|331:7|279:73|294:156,1,420.000016021729,8|0,0:0|2:0,0:0:0:0:
304,208,36578,1,8,0:0:0:0:
304,208,37264,1,8,0:0:0:0:
304,208,37950,1,8,0:0:0:0:
304,208,38636,22,0,B|320:157|291:118|291:118|239:133|193:80,1,180.000006866455,8|0,0:0|2:0,0:0:0:0:
168,16,38978,1,8,0:0:0:0:
304,208,39321,1,8,0:0:0:0:
168,16,39664,1,8,0:0:0:0:
431,32,40007,21,10,0:3:0:0:
292,119,40350,1,8,0:0:0:0:
431,32,40693,1,10,0:3:0:0:
292,119,41036,1,8,0:0:0:0:
431,32,41378,6,0,P|423:84|430:131,1,60.0000022888184,10|0,0:3|2:0,0:0:0:0:
376,224,41550,2,0,P|375:194|369:165,1,60.0000022888184,8|0,0:0|2:0,0:0:0:0:
292,119,41721,1,8,0:0:0:0:
463,173,41893,1,8,0:0:0:0:
283,292,42064,21,8,0:0:0:0:
423,91,42236,1,8,0:0:0:0:
416,341,42407,1,8,0:0:0:0:
292,119,42578,1,8,0:0:0:0:
283,292,42750,21,8,0:0:0:0:
263,314,42835,1,8,0:0:0:0:
239,332,42921,1,8,0:0:0:0:
212,345,43007,1,8,0:0:0:0:
184,356,43093,1,8,0:0:0:0:
155,365,43178,1,8,0:0:0:0:
125,368,43264,1,8,0:0:0:0:
96,366,43350,1,8,0:0:0:0:
66,359,43436,1,8,0:0:0:0:
232,225,43607,21,8,3:0:0:0:
232,225,43693,1,8,3:0:0:0:
104,149,43864,1,4,3:0:0:0:
104,149,43950,1,4,3:0:0:0:
122,247,44121,22,0,B|147:196|151:145|151:145|216:184|294:164|294:164|302:121|267:47|267:47|336:125|458:65,1,560,6|0,0:3|2:0,0:0:0:0:
434,75,44807,6,0,B|470:210|470:210|459:248,1,180.000006866455,8|0,0:0|2:0,0:0:0:0:
373,274,45150,2,0,B|337:139|337:139|347:100,1,180.000006866455,2|0,0:3|0:0,0:0:0:0:
434,75,45493,6,0,L|449:132,1,60.0000022888184,2|0,3:3|2:0,0:0:0:0:
471,220,45664,2,0,L|486:277,1,60.0000022888184,0|0,3:0|2:0,0:0:0:0:
316,344,45836,2,0,B|241:371|174:361|174:361|203:341,1,180.000006866455,0|0,0:0|0:0,0:0:0:0:
316,344,46178,1,8,3:1:0:0:
313,92,46350,22,0,P|332:135|324:172,1,60.0000022888184,0|0,3:0|2:0,0:0:0:0:
261,204,46521,2,0,P|214:198|186:173,1,60.0000022888184,0|0,3:0|2:0,0:0:0:0:
190,102,46693,2,0,P|217:64|253:52,1,60.0000022888184,0|0,3:0|2:0,0:0:0:0:
343,237,46864,22,0,B|337:334|306:363|306:363|260:341|238:303,1,180.000006866455,2|0,0:3|2:0,0:0:0:0:
236,253,47207,2,0,B|242:158|273:129|273:129|319:151|312:154,1,180.000006866455,0|0,0:0|2:0,0:0:0:0:
236,253,47550,1,8,0:0:0:0:
79,103,47721,6,0,L|19:97,1,60.0000022888184,0|0,3:0|2:0,0:0:0:0:
167,23,47893,1,0,3:0:0:0:
167,23,47978,1,0,2:0:0:0:
167,23,48064,2,0,L|226:17,1,60.0000022888184,0|0,3:0|2:0,0:0:0:0:
322,219,48236,22,0,B|296:95|296:95|313:45,1,180.000006866455,2|0,0:3|0:0,0:0:0:0:
402,38,48578,2,0,L|468:34,2,40.000001525879,0|0|0,3:0|3:0|3:0,0:0:0:0:
399,42,48750,2,0,P|406:81|402:114,1,60.0000022888184,0|0,3:0|2:0,0:0:0:0:
322,219,48921,1,8,0:0:0:0:
83,164,49093,54,0,P|59:181|42:206,1,60.0000022888184,0|0,3:0|2:0,0:0:0:0:
70,320,49265,2,0,P|97:333|127:336,1,60.0000022888184,0|0,3:0|2:0,0:0:0:0:
211,253,49436,2,0,P|209:224|197:197,1,60.0000022888184,0|0,3:0|2:0,0:0:0:0:
122,247,49607,22,0,B|7:364|7:364|241:322|429:380,1,560,6|0,0:3|2:0,0:0:0:0:
399,371,50293,6,0,P|446:309|493:371,1,180.000006866455,8|0,0:0|2:0,0:0:0:0:
399,371,50636,2,0,B|372:326|372:326|398:202,1,180.000006866455,0|0,3:0|0:0,0:0:0:0:
422,116,50978,5,2,0:3:0:0:
239,95,51150,2,0,P|269:100|299:100,1,60.0000022888184,0|0,3:0|2:0,0:0:0:0:
487,40,51321,2,0,B|412:13|345:23|345:23|374:43,1,180.000006866455,0|0,0:0|0:0,0:0:0:0:
487,40,51663,1,8,3:1:0:0:
395,260,51836,22,0,P|391:230|398:201,1,60.0000022888184,0|0,3:0|2:0,0:0:0:0:
275,284,52007,2,0,P|302:296|325:316,1,60.0000022888184,0|0,3:0|2:0,0:0:0:0:
313,166,52178,2,0,P|289:184|261:193,1,60.0000022888184,0|0,3:0|2:0,0:0:0:0:
60,21,52350,22,0,B|23:-8|23:-8|155:2,1,180.000006866455,2|0,0:3|2:0,0:0:0:0:
208,83,52693,2,0,B|245:112|245:112|112:101,1,180.000006866455,0|0,0:0|2:0,0:0:0:0:
208,83,53036,1,8,0:0:0:0:
372,159,53207,6,0,L|313:166,1,60.0000022888184,0|0,3:0|2:0,0:0:0:0:
208,83,53378,1,2,0:3:0:0:
372,159,53550,2,0,L|313:166,1,60.0000022888184,0|0,3:0|2:0,0:0:0:0:
48,190,53721,6,0,P|31:256|62:317,1,140,0|0,0:0|2:0,0:0:0:0:
196,304,54407,2,0,P|213:237|182:176,1,140,0|0,0:0|2:0,0:0:0:0:
122,246,55093,22,0,B|442:201|442:201|452:106|398:43|398:43|333:174,1,560,6|0,0:3|2:0,0:0:0:0:
367,103,55778,6,0,B|309:120|309:120|176:77,1,180.000006866455,8|0,0:0|0:0,0:0:0:0:
122,30,56121,2,0,P|108:58|108:84,6,30.0000011444092,2|0|0|0|0|0|0,0:3|0:0|0:0|0:0|0:0|0:0|2:0,0:0:0:0:
195,83,56464,6,0,P|235:75|275:51,1,60.0000022888184,2|0,3:0|2:0,0:0:0:0:
394,113,56636,2,0,P|366:102|337:98,1,60.0000022888184,0|0,3:0|2:0,0:0:0:0:
242,256,56807,2,0,B|285:288|285:288|273:162,1,180.000006866455,0|0,0:0|2:0,0:0:0:0:
242,256,57150,1,8,3:1:0:0:
394,113,57321,22,0,L|400:172,1,60.0000022888184,0|0,3:0|2:0,0:0:0:0:
490,185,57493,2,0,L|483:244,1,60.0000022888184,0|0,3:1|2:0,0:0:0:0:
394,257,57664,2,0,L|400:316,1,60.0000022888184,0|0,3:0|2:0,0:0:0:0:
242,256,57836,22,0,B|231:193|231:193|149:99,1,180.000006866455,2|0,0:3|2:0,0:0:0:0:
155,16,58178,2,0,B|166:79|166:79|248:173,1,180.000006866455,0|0,0:0|2:0,0:0:0:0:
242,256,58521,1,8,0:0:0:0:
433,281,58693,6,0,L|493:287,1,60.0000022888184,0|0,3:0|2:0,0:0:0:0:
345,361,58865,1,0,3:0:0:0:
345,361,58950,1,0,2:0:0:0:
345,361,59036,2,0,L|286:367,1,60.0000022888184,0|0,3:0|2:0,0:0:0:0:
155,105,59207,22,0,B|279:79|279:79|329:96,1,180.000006866455,2|0,0:3|0:0,0:0:0:0:
336,185,59549,2,0,L|340:251,2,40.000001525879,0|0|0,3:0|3:0|3:0,0:0:0:0:
332,182,59721,2,0,P|293:189|260:185,1,60.0000022888184,0|0,3:0|2:0,0:0:0:0:
7,48,59892,1,8,0:0:0:0:
236,48,60064,54,0,P|221:74|212:102,1,60.0000022888184,0|0,3:0|2:0,0:0:0:0:
121,95,60236,2,0,L|121:155,1,60.0000022888184,0|0,3:0|2:0,0:0:0:0:
7,48,60407,2,0,P|21:74|30:102,1,60.0000022888184,0|0,3:0|2:0,0:0:0:0:
121,245,60578,22,0,B|154:268|158:319|158:319|196:283|239:282|239:282|248:340|311:344|311:344|285:265|336:218|336:218|273:157|330:70,1,560,6|0,0:3|2:0,0:0:0:0:
319,88,61264,6,0,B|278:55|278:55|146:66,1,180.000006866455,8|0,0:0|2:0,0:0:0:0:
84,125,61607,2,0,B|125:158|125:158|257:147,1,180.000006866455,2|0,0:3|0:0,0:0:0:0:
150,64,61950,2,0,P|69:37|1:91,1,180.000006866455,2|0,0:3|0:0,0:0:0:0:
84,125,62293,5,8,3:0:0:0:
10,219,62464,1,8,3:0:0:0:
9,237,62550,1,4,3:0:0:0:
8,255,62636,1,8,3:1:0:0:
171,352,62807,22,0,P|200:353|230:348,1,60.0000022888184,0|0,3:0|2:0,0:0:0:0:
270,173,62978,2,0,P|254:198|244:227,1,60.0000022888184,2|0,3:3|2:0,0:0:0:0:
374,348,63150,2,0,P|360:321|341:298,1,60.0000022888184,0|0,3:0|2:0,0:0:0:0:
230,348,63321,21,2,0:3:0:0:
386,166,63493,1,0,0:0:0:0:
211,57,63664,1,0,0:0:0:0:
199,71,63750,1,0,0:0:0:0:
187,85,63835,1,0,0:0:0:0:
175,99,63921,1,0,0:0:0:0:
164,113,64007,1,8,0:0:0:0:
13,40,64178,6,0,P|42:31|72:33,1,60.0000022888184,0|0,3:0|2:0,0:0:0:0:
164,113,64350,1,0,0:0:0:0:
13,40,64521,2,0,P|42:31|72:33,1,60.0000022888184,0|0,3:0|2:0,0:0:0:0:
252,191,64693,21,2,0:3:0:0:
164,113,64864,1,2,0:3:0:0:
363,153,65036,1,8,0:0:0:0:
164,113,65207,1,2,0:3:0:0:
176,111,65293,1,2,0:3:0:0:
188,109,65378,1,2,0:3:0:0:
200,107,65465,1,0,0:0:0:0:
212,105,65550,1,8,0:0:0:0:
73,237,65721,53,2,0:3:0:0:
85,239,65807,1,2,0:3:0:0:
97,241,65892,1,8,0:0:0:0:
109,243,65979,1,2,0:3:0:0:
121,245,66064,22,0,B|158:280|154:376|154:376|202:336,1,180.000006866455,6|0,0:3|0:0,0:0:0:0:
194,345,66407,6,0,P|226:344|245:331,1,30.0000011444092,8|0,0:0|0:0,0:0:0:0:
304,142,66578,2,0,P|290:148|280:159,1,30.0000011444092,2|0,0:3|0:0,0:0:0:0:
334,370,66750,2,0,P|340:356|343:341,1,30.0000011444092,0|0,0:0|0:0,0:0:0:0:
208,57,66921,54,0,L|200:117,1,60.0000022888184,2|0,0:3|2:0,0:0:0:0:
175,203,67093,6,0,P|177:217|184:231,1,30.0000011444092,8|0,0:0|0:0,0:0:0:0:
401,244,67264,2,0,P|390:233|376:226,1,30.0000011444092,0|0,0:0|0:0,0:0:0:0:
208,57,67436,6,0,B|190:194|190:194|230:267,1,180.000006866455,2|0,0:3|0:0,0:0:0:0:
290,191,67778,2,0,B|308:54|308:54|268:-19,1,180.000006866455,8|0,0:0|0:0,0:0:0:0:
290,191,68121,6,0,P|303:176|289:186,1,60.0000022888184,0|0,3:0|2:0,0:0:0:0:
334,370,68293,1,2,3:3:0:0:
290,191,68464,2,0,P|303:176|289:186,1,60.0000022888184,8|0,3:1|2:0,0:0:0:0:
334,370,68636,1,2,3:3:0:0:
121,245,68807,22,0,B|84:210|88:114|88:114|40:154,1,180.000006866455,6|0,0:3|0:0,0:0:0:0:
44,136,69150,6,0,L|36:94,1,30.0000011444092,8|0,0:0|0:0,0:0:0:0:
176,65,69321,2,0,L|184:23,1,30.0000011444092,2|0,0:3|2:0,0:0:0:0:
192,61,69407,2,0,L|200:19,1,30.0000011444092,2|0,0:3|2:0,0:0:0:0:
208,57,69493,2,0,L|216:15,1,30.0000011444092,2|0,0:3|2:0,0:0:0:0:
290,191,69664,54,0,P|286:161|277:132,1,60.0000022888184,2|0,0:3|2:0,0:0:0:0:
44,136,69836,6,0,L|36:94,1,30.0000011444092,8|0,0:0|0:0,0:0:0:0:
176,65,70007,2,0,L|184:23,1,30.0000011444092,2|0,0:3|2:0,0:0:0:0:
192,61,70093,2,0,L|200:19,1,30.0000011444092,2|0,0:3|2:0,0:0:0:0:
212,53,70178,6,0,B|298:17|352:33|352:33|317:74,1,180.000006866455,2|0,0:3|2:0,0:0:0:0:
278,133,70521,2,0,B|192:169|138:153|138:153|161:125,1,180.000006866455,8|0,0:0|2:0,0:0:0:0:
288,143,70864,1,0,0:0:0:0:
298,153,70950,1,0,0:0:0:0:
308,163,71036,6,0,P|287:221|266:234,1,60.0000022888184,0|0,3:0|2:0,0:0:0:0:
249,317,71207,2,0,P|279:317|307:306,1,60.0000022888184,0|0,3:0|2:0,0:0:0:0:
182,376,71378,2,0,P|157:358|143:332,1,60.0000022888184,0|0,3:0|2:0,0:0:0:0:
122,246,71550,22,0,B|101:208|101:208|145:135|106:38,1,180.000006866455,6|0,0:3|2:0,0:0:0:0:
118,76,71893,6,0,P|158:95|174:112,1,60.0000022888184,8|0,0:0|0:0,0:0:0:0:
229,39,72064,2,0,P|254:75|259:99,1,60.0000022888184,0|0,0:0|0:0,0:0:0:0:
344,63,72236,2,0,P|347:108|340:130,1,60.0000022888184,0|0,0:0|0:0,0:0:0:0:
196,237,72407,54,0,B|230:223|230:223|254:223,1,60.0000022888184,2|0,0:3|0:0,0:0:0:0:
431,141,72578,6,0,P|411:181|394:197,1,60.0000022888184,8|0,0:0|0:0,0:0:0:0:
468,253,72750,2,0,P|431:278|407:283,1,60.0000022888184,0|0,0:0|0:0,0:0:0:0:
196,237,72921,6,0,B|232:223|232:223|266:225|266:225|293:289|221:365,1,180.000006866455,2|0,0:3|2:0,0:0:0:0:
196,237,73264,2,0,L|191:177,1,60.0000022888184,8|0,0:0|0:0,0:0:0:0:
254,47,73436,2,0,L|250:107,1,60.0000022888184,0|0,0:0|0:0,0:0:0:0:
196,237,73607,1,0,3:0:0:0:
18,143,73778,6,0,P|41:141|90:162,1,60.0000022888184,2|0,3:3|2:0,0:0:0:0:
19,350,73950,2,0,P|17:327|38:278,1,60.0000022888184,8|0,0:0|2:0,0:0:0:0:
226,349,74121,2,0,P|203:351|154:330,1,60.0000022888184,0|0,3:0|2:0,0:0:0:0:
130,242,74293,22,0,B|188:240|221:214|221:214|274:212|279:258,1,180.000006866455,2|0,0:3|0:0,0:0:0:0:
280,259,74636,6,0,P|305:239|328:216,1,60.0000022888184,8|0,0:0|0:0,0:0:0:0:
403,32,74807,2,0,P|394:62|388:94,1,60.0000022888184,0|0,0:0|0:0,0:0:0:0:
434,286,74978,2,0,P|422:256|408:227,1,60.0000022888184,0|0,0:0|0:0,0:0:0:0:
259,98,75150,2,0,P|285:115|313:130,1,60.0000022888184,2|0,0:3|0:0,0:0:0:0:
510,146,75321,2,0,P|478:147|446:151,1,60.0000022888184,8|0,0:0|0:0,0:0:0:0:
325,219,75493,5,0,3:0:0:0:
280,259,75578,1,0,3:0:0:0:
256,314,75664,21,2,0:3:0:0:
162,292,75836,1,2,0:3:0:0:
91,357,76007,1,8,0:0:0:0:
26,291,76178,1,2,0:3:0:0:
25,272,76264,1,2,0:3:0:0:
24,253,76350,1,2,0:3:0:0:
24,234,76436,1,0,0:0:0:0:
24,216,76521,1,8,0:0:0:0:
124,171,76693,53,8,0:3:0:0:
124,189,76778,1,0,0:0:0:0:
124,208,76864,1,0,0:0:0:0:
123,227,76950,1,0,2:0:0:0:
123,246,77036,38,0,B|163:211|163:211|202:244|250:235|250:235|266:252|304:252,1,180.000006866455,6|0,0:3|2:0,0:0:0:0:
287,258,77378,2,0,P|298:308|298:312,1,30.0000011444092,8|0,0:0|2:0,0:0:0:0:
373,143,77550,2,0,P|371:113|376:83,1,60.0000022888184,2|2,0:3|0:3,0:0:0:0:
287,258,77721,2,0,P|298:308|298:312,1,30.0000011444092,2|0,0:3|2:0,0:0:0:0:
480,241,77807,54,0,L|405:236,1,60.0000022888184,0|2,0:0|3:3,0:0:0:0:
287,258,78064,6,0,P|298:308|298:312,1,30.0000011444092,8|0,3:1|2:0,0:0:0:0:
204,336,78236,2,0,P|193:386|193:390,1,30.0000011444092,0|0,3:0|2:0,0:0:0:0:
230,131,78407,6,0,B|243:46|280:0|280:0|306:45|308:63,1,180.000006866455,2|0,0:3|2:0,0:0:0:0:
230,131,78750,2,0,P|130:122|79:45,1,180.000006866455,8|0,0:0|2:0,0:0:0:0:
230,131,79093,6,0,P|239:139|221:133,1,60.0000022888184,0|0,3:0|2:0,0:0:0:0:
21,139,79264,1,2,3:3:0:0:
230,131,79436,2,0,P|239:139|221:133,1,60.0000022888184,8|0,3:1|2:0,0:0:0:0:
21,139,79607,1,0,3:0:0:0:
123,246,79778,22,0,B|131:290|150:316|150:316|132:340|134:373|134:373|119:335|96:329,1,180.000006866455,2|0,0:3|0:0,0:0:0:0:
98,336,80121,6,0,P|63:338|54:342,1,30.0000011444092,8|0,0:0|0:0,0:0:0:0:
244,227,80293,2,0,P|245:212|243:197,1,30.0000011444092,2|0,0:3|2:0,0:0:0:0:
264,221,80378,2,0,P|265:206|263:191,1,30.0000011444092,2|0,0:3|2:0,0:0:0:0:
284,215,80464,2,0,P|285:200|283:185,1,30.0000011444092,2|0,0:3|2:0,0:0:0:0:
122,87,80636,54,0,L|112:181,1,60.0000022888184,2|0,0:3|0:0,0:0:0:0:
98,336,80807,6,0,P|63:338|54:342,1,30.0000011444092,8|0,0:0|0:0,0:0:0:0:
244,227,80978,2,0,P|245:212|243:197,1,30.0000011444092,2|0,0:3|2:0,0:0:0:0:
264,221,81064,2,0,P|265:206|263:191,1,30.0000011444092,2|0,0:3|2:0,0:0:0:0:
284,215,81150,6,0,B|293:135|258:69|258:69|316:98,1,180.000006866455,2|0,0:3|2:0,0:0:0:0:
176,108,81493,2,0,B|96:99|30:134|30:134|59:76,1,180.000006866455,8|0,0:0|2:0,0:0:0:0:
179,127,81836,1,0,3:0:0:0:
182,146,81921,1,0,2:0:0:0:
185,165,82007,6,0,P|211:218|217:249,1,60.0000022888184,0|0,3:0|2:0,0:0:0:0:
14,336,82178,2,0,P|24:308|40:282,1,60.0000022888184,0|0,3:0|2:0,0:0:0:0:
277,343,82350,2,0,P|251:359|224:370,1,60.0000022888184,0|0,3:0|2:0,0:0:0:0:
123,246,82521,22,0,B|131:290|150:316|150:316|132:340|134:373|134:373|119:335|96:329,1,180.000006866455,6|0,0:3|2:0,0:0:0:0:
110,336,82864,6,0,P|47:340|25:351,1,60.0000022888184,8|0,0:0|0:0,0:0:0:0:
123,246,83036,2,0,P|69:212|44:208,1,60.0000022888184,0|0,0:0|0:0,0:0:0:0:
181,168,83207,2,0,P|151:111|131:96,1,60.0000022888184,0|0,0:0|0:0,0:0:0:0:
0,52,83378,54,0,L|59:48,1,60.0000022888184,2|0,0:3|0:0,0:0:0:0:
270,129,83550,6,0,P|272:65|263:42,1,60.0000022888184,8|0,0:0|0:0,0:0:0:0:
366,139,83722,2,0,P|399:85|403:60,1,60.0000022888184,0|0,0:0|0:0,0:0:0:0:
0,52,83893,6,0,B|149:43|149:43|109:16,1,180.000006866455,2|0,0:3|0:0,0:0:0:0:
0,52,84236,2,0,P|0:116|13:143,1,60.0000022888184,8|0,0:0|0:0,0:0:0:0:
25,197,84407,2,0,P|25:261|12:288,1,60.0000022888184,0|0,0:0|0:0,0:0:0:0:
2,343,84578,1,0,3:0:0:0:
278,321,84750,6,0,L|337:317,1,60.0000022888184,2|0,3:3|2:0,0:0:0:0:
307,147,84921,2,0,L|248:151,1,60.0000022888184,8|0,3:1|2:0,0:0:0:0:
278,321,85093,2,0,L|337:317,1,60.0000022888184,0|0,3:0|2:0,0:0:0:0:
123,246,85264,22,0,B|167:238|193:219|193:219|217:237|250:235|250:235|212:250|206:273,1,180.000006866455,2|0,0:3|0:0,0:0:0:0:
213,258,85607,6,0,P|233:233|256:210,1,60.0000022888184,8|0,0:0|0:0,0:0:0:0:
440,135,85778,2,0,P|410:144|378:150,1,60.0000022888184,0|0,0:0|0:0,0:0:0:0:
186,104,85950,2,0,P|216:116|245:130,1,60.0000022888184
374,279,86121,2,0,P|357:253|342:225,1,60.0000022888184,2|0,0:3|0:0,0:0:0:0:
326,28,86292,2,0,P|325:60|321:92,1,60.0000022888184,8|0,0:0|0:0,0:0:0:0:
253,213,86464,5,0,0:0:0:0:
213,258,86549,1,0,0:0:0:0:
207,317,86636,21,0,2:0:0:0:
300,340,86807,1,0,2:0:0:0:
374,279,86978,1,8,0:0:0:0:
253,213,87150,1,8,3:0:0:0:
250,201,87236,1,2,2:2:0:0:
248,189,87321,1,8,0:0:0:0:
245,177,87407,1,0,0:0:0:0:
243,165,87493,1,0,0:0:0:0:
80,136,87664,53,8,3:0:0:0:
97,160,87749,1,0,0:0:0:0:
111,186,87835,1,8,3:0:0:0:
119,215,87921,1,0,0:0:0:0:
122,245,88007,22,0,B|101:284|109:322|109:322|162:298|236:363,1,180.000006866455,6|0,0:3|2:0,0:0:0:0:
212,346,88350,6,0,L|260:351,1,30.0000011444092,0|0,0:0|0:0,0:0:0:0:
212,346,88693,6,0,L|279:354,1,60.0000022888184,8|0,0:0|2:0,0:0:0:0:
476,210,88864,2,0,L|416:217,1,60.0000022888184,0|0,0:0|2:0,0:0:0:0:
223,97,89036,2,0,B|239:69|264:60|264:60|296:120|262:189,1,180.000006866455,2|0,0:3|0:0,0:0:0:0:
223,97,89378,22,0,P|284:53|382:98,1,180.000006866455,2|0,0:3|0:0,0:0:0:0:
415,167,89721,2,0,P|418:221|413:258,1,60.0000022888184,0|0,0:0|0:0,0:0:0:0:
272,284,89893,2,0,P|269:254|270:224,1,60.0000022888184,0|0,0:0|0:0,0:0:0:0:
122,32,90064,22,0,B|98:1|57:-53|-77:14|-15:215|190:190|233:75,1,420.000016021729,8|0,0:0|0:0,0:0:0:0:
291,36,90750,6,0,P|341:34|393:50,1,60.0000022888184,2|0,3:3|2:0,0:0:0:0:
479,134,90921,2,0,P|429:132|377:148,1,60.0000022888184,0|0,3:0|2:0,0:0:0:0:
291,232,91093,2,0,P|341:230|393:246,1,60.0000022888184,0|0,3:0|2:0,0:0:0:0:
479,330,91264,2,0,P|429:328|377:344,1,60.0000022888184,0|0,3:0|2:0,0:0:0:0:
202,243,91436,22,0,B|186:198|186:198|197:54,1,180.000006866455,8|0,0:0|2:0,0:0:0:0:
285,55,91778,2,0,B|301:100|301:100|290:244,1,180.000006866455,0|0,0:0|2:0,0:0:0:0:
290,243,92121,22,0,P|290:280|292:290,1,30.0000011444092,2|0,0:3|2:0,0:0:0:0:
290,243,92464,2,0,P|290:280|292:290,1,30.0000011444092,0|0,3:0|2:0,0:0:0:0:
409,311,92636,2,0,P|409:348|407:358,1,30.0000011444092,2|0,3:3|2:0,0:0:0:0:
190,323,92807,22,0,P|158:346|157:349,6,30.0000011444092,8|0|0|0|0|0|0,0:0|0:0|0:0|0:0|0:0|0:0|2:0,0:0:0:0:
45,310,93150,2,0,P|77:333|78:336,6,30.0000011444092,0|0|0|0|0|0|0,2:0|0:0|0:0|0:0|0:0|0:0|2:0,0:0:0:0:
122,245,93493,22,0,B|100:201|125:162|125:162|71:146|71:77,1,180.000006866455,6|0,0:3|2:0,0:0:0:0:
72,81,93836,6,0,P|105:67|112:68,1,30.0000011444092,0|0,0:0|0:0,0:0:0:0:
72,81,94178,6,0,P|120:61|153:65,1,60.0000022888184,8|0,0:0|2:0,0:0:0:0:
295,27,94350,2,0,P|265:21|239:6,1,60.0000022888184,0|0,0:0|2:0,0:0:0:0:
253,198,94521,2,0,B|228:231|228:231|209:94,1,180.000006866455,2|0,0:3|0:0,0:0:0:0:
253,198,94864,22,0,P|224:285|131:237,1,180.000006866455,2|0,0:3|2:0,0:0:0:0:
253,198,95207,2,0,P|316:189|341:190,1,60.0000022888184,0|0,0:0|0:0,0:0:0:0:
479,302,95378,2,0,P|449:299|419:292,1,60.0000022888184,0|0,0:0|0:0,0:0:0:0:
482,65,95550,22,0,P|472:17|470:15,6,30.0000011444092,8|0|0|0|0|0|0,0:0|0:0|0:0|0:0|2:0|0:0|0:0,0:0:0:0:
425,136,95893,2,0,P|422:150|425:165,6,30.0000011444092,0|0|0|0|0|0|0,0:0|0:0|0:0|0:0|2:0|0:0|0:0,0:0:0:0:
344,101,96236,6,0,L|276:119,1,60.0000022888184,2|0,3:0|2:0,0:0:0:0:
120,141,96407,2,0,L|178:156,1,60.0000022888184,0|0,3:0|2:0,0:0:0:0:
346,6,96578,2,0,L|278:24,1,60.0000022888184,0|0,3:0|2:0,0:0:0:0:
122,46,96750,2,0,L|180:61,1,60.0000022888184,0|0,3:0|2:0,0:0:0:0:
482,65,96921,22,0,P|472:17|470:15,6,30.0000011444092,8|0|0|0|0|0|0,0:0|0:0|0:0|0:0|2:0|0:0|0:0,0:0:0:0:
425,136,97264,2,0,P|422:150|425:165,6,30.0000011444092,2|0|0|0|0|0|0,0:3|0:0|0:0|0:0|2:0|0:0|0:0,0:0:0:0:
385,248,97607,22,0,B|250:212|250:212|212:223,1,180.000006866455,2|0,0:3|2:0,0:0:0:0:
186,309,97950,2,0,B|321:345|321:345|360:335,1,180.000006866455,0|0,2:0|2:0,0:0:0:0:
186,309,98293,6,0,P|201:326|197:309,1,60.0000022888184,0|0,0:0|0:0,0:0:0:0:
385,248,98464,1,0,0:0:0:0:
186,309,98636,2,0,P|201:326|197:309,1,60.0000022888184,0|0,0:0|0:0,0:0:0:0:
385,248,98807,1,0,0:0:0:0:
122,245,98978,5,6,2:0:0:0:
