osu file format v14

[General]
AudioFilename: audio.mp3
AudioLeadIn: 0
PreviewTime: 42750
Countdown: 0
SampleSet: Normal
StackLeniency: 0.9
Mode: 0
LetterboxInBreaks: 0
EpilepsyWarning: 1
WidescreenStoryboard: 1

[Editor]
DistanceSpacing: 0.88
BeatDivisor: 2
GridSize: 8
TimelineZoom: 2.999999

[Metadata]
Title:Spacecraft
TitleUnicode:Spacecraft
Artist:Blaster & Extra Terra
ArtistUnicode:Blaster & Extra Terra
Creator:Pandize
Version:Easy
Source:
Tags:Exclusive Tunes Network Dubstep Wub Mun Garden Hobbes2 Bandi
BeatmapID:1513308
BeatmapSetID:712901

[Difficulty]
HPDrainRate:3
CircleSize:2
OverallDifficulty:2
ApproachRate:4
SliderMultiplier:1.05
SliderTickRate:1

[Events]
//Background and Video events
0,0,"spacecraft.jpg",0,0
//Break Periods
2,22178,31830
//Storyboard Layer 0 (Background)
//Storyboard Layer 1 (Fail)
//Storyboard Layer 2 (Pass)
//Storyboard Layer 3 (Foreground)
//Storyboard Sound Samples

[TimingPoints]
236,342.857142857143,4,1,1,35,1,0
11207,-100,4,1,1,85,0,0
20807,-100,4,1,1,55,0,0
21493,-100,4,1,1,45,0,0
44121,-100,4,1,1,85,0,1
53721,-100,4,1,1,85,0,0
55093,-100,4,1,1,85,0,1
64693,-100,4,1,1,50,0,0
66064,-100,4,1,1,85,0,1
70864,-100,4,1,1,85,0,0
71550,-100,4,1,1,85,0,1
75664,-100,4,1,1,85,0,0
77036,-100,4,1,1,85,0,1
81836,-100,4,1,1,85,0,0
82521,-100,4,1,1,85,0,1
86636,-100,4,1,1,85,0,0
88007,-100,4,1,1,85,0,1
98978,-100,4,1,1,85,0,0

[Colours]
Combo1 : 140,125,108
Combo2 : 214,255,47
Combo3 : 139,243,147
Combo4 : 220,220,220
Combo5 : 209,186,152
SliderTrackOverride : 35,25,15
SliderBorder : 220,220,220

[HitObjects]
47,189,236,54,0,B|100:169|150:189|150:189|214:213|259:180,1,210,0|0,2:0|2:0,2:0:0:0:
406,78,1607,2,0,P|389:135|440:283,1,210,0|0,2:0|2:0,2:0:0:0:
295,113,2978,6,0,P|216:100|255:185,1,210,0|0,2:0|2:0,2:0:0:0:
431,274,4350,2,0,L|187:280,1,210,0|0,2:0|2:0,2:0:0:0:
83,149,5721,54,0,B|136:129|186:149|186:149|250:173|295:140,1,210,0|0,2:0|2:0,2:0:0:0:
450,51,7092,2,0,P|485:108|440:259,1,210,0|0,2:0|2:0,2:0:0:0:
305,129,8464,6,0,P|384:116|345:201,1,210,0|0,2:0|2:0,2:0:0:0:
188,300,9835,2,0,L|432:306,1,210,0|0,2:0|2:0,2:0:0:0:
507,150,11207,54,0,P|450:156|381:137,2,105,2|0|8,0:3|0:0|0:0,0:0:0:0:
329,84,12578,2,0,B|278:93|278:93|216:81,1,105,2|0,0:3|0:0,0:0:0:0:
136,52,13264,1,8,0:0:0:0:
73,230,13950,6,0,P|178:226|311:241,1,210,2|8,0:3|0:0,0:0:0:0:
443,136,15321,2,0,P|338:140|205:125,1,210,2|8,0:3|0:0,0:0:0:0:
66,218,16693,54,0,P|123:224|192:205,2,105,2|0|8,0:3|0:0|0:0,0:0:0:0:
76,29,18064,2,0,B|127:20|127:20|189:32,1,105,2|0,0:3|0:0,0:0:0:0:
264,71,18750,1,8,0:0:0:0:
113,186,19436,6,0,P|218:182|351:197,1,210,2|8,0:3|0:0,0:0:0:0:
480,88,20807,2,0,P|375:92|242:77,1,210,2|0,0:3|2:0,0:0:0:0:
250,127,33150,54,8,P|214:165|268:300,1,210,8|8,0:1|0:0,0:0:0:0:
449,297,34521,2,8,P|505:214|459:126,1,210
287,207,35893,6,8,L|56:207,1,210
80,17,37264,2,8,L|290:17,2,210
256,192,38978,12,8,42750,0:0:0:0:
85,215,44121,6,0,B|128:225|170:215|170:215|206:225|206:225|248:217|294:225,1,210,6|8,0:3|0:0,0:0:0:0:
358,293,45150,2,0,P|384:249|374:176,2,105,2|2|0,0:3|0:3|0:0,0:0:0:0:
292,224,46178,1,8,0:0:0:0:
118,152,46864,6,0,P|94:198|98:250,1,105,2|0,0:3|0:0,0:0:0:0:
187,219,47550,2,0,L|314:224,1,105,8|0,0:0|0:0,0:0:0:0:
344,144,48236,2,0,P|397:141|454:156,2,105,2|0|8,0:3|0:0|0:0,0:0:0:0:
291,223,49264,1,0,0:0:0:0:
209,174,49607,54,0,B|182:223|209:277|209:277|187:321|207:381,2,210,2|8|2,0:3|0:0|0:3,0:0:0:0:
389,118,51664,2,0,P|408:166|396:231,2,105,0|0|2,0:0|0:0|0:3,0:0:0:0:
209,174,53036,5,8,0:0:0:0:
38,92,53721,2,0,B|9:142|32:193|32:193|56:240|30:298,2,210,2|0|6,0:3|0:0|0:3,0:0:0:0:
209,174,55778,54,0,L|334:180,1,105,8|2,0:0|0:3,0:0:0:0:
397,133,56464,1,2,0:3:0:0:
510,284,57150,2,0,P|458:295|398:271,1,105,8|0,0:0|0:0,0:0:0:0:
324,217,57836,6,0,L|315:332,2,105,2|0|8,0:3|0:0|0:0,0:0:0:0:
218,60,59207,1,2,0:3:0:0:
140,114,59550,2,0,L|32:117,2,105,0|8|0,0:0|0:0|0:0,0:0:0:0:
228,147,60578,54,0,B|284:144|284:144|308:135|308:135|329:134|351:133|351:133|375:141|375:141|435:139,1,210,2|8,0:3|0:0,0:0:0:0:
340,303,61950,1,2,0:3:0:0:
228,147,62636,6,0,B|186:147|186:147|164:155|164:155|121:156,2,105,8|2|2,0:0|0:3|0:3,0:0:0:0:
322,142,63664,1,0,0:0:0:0:
277,225,64007,1,8,0:0:0:0:
256,192,64693,12,6,66064,0:3:0:0:
357,94,67436,53,2,0:3:0:0:
305,172,67778,2,0,P|357:187|417:169,2,105,8|0|8,0:0|0:0|0:0,0:0:0:0:
262,87,68807,6,0,B|225:93|225:93|145:86,2,105,2|8|2,0:3|0:0|0:3,0:0:0:0:
344,40,69836,1,8,0:0:0:0:
345,134,70178,1,2,0:3:0:0:
396,210,70521,2,0,P|347:226|279:198,1,105,8|0,0:0|0:0,0:0:0:0:
147,322,71550,54,0,B|146:279|146:279|152:258|152:258|150:200,1,105,2|8,0:3|0:0,0:0:0:0:
135,126,72236,1,0,0:0:0:0:
223,153,72578,1,8,0:0:0:0:
307,112,72921,2,0,P|315:161|284:227,1,105,2|8,0:3|0:0,0:0:0:0:
255,295,73607,2,0,P|304:303|370:272,2,105,0|8|2,0:0|0:0|0:3,0:0:0:0:
202,218,74636,5,8,0:0:0:0:
274,161,74978,1,2,0:3:0:0:
197,108,75321,1,8,0:0:0:0:
265,45,75664,1,0,2:3:0:0:
265,45,77036,54,0,P|242:7|276:24,1,105,6|8,0:3|0:0,0:0:0:0:
314,98,77721,2,0,P|358:115|429:101,1,105,0|8,0:0|0:0,0:0:0:0:
490,51,78407,2,0,P|507:95|493:166,1,105,2|8,0:3|0:0,0:0:0:0:
422,197,79093,2,0,P|413:245|446:308,2,105,0|8|2,0:0|0:0|0:3,0:0:0:0:
504,238,80121,5,8,0:0:0:0:
500,151,80464,2,0,P|458:114|396:110,1,105,0|8,0:0|0:0,0:0:0:0:
336,161,81150,2,0,B|292:166|248:148|248:148|211:158|211:158|176:138|116:157,1,210,2|0,0:3|0:0,0:0:0:0:
71,327,82521,54,0,L|59:206,1,105,2|8,0:3|0:0,0:0:0:0:
42,129,83207,1,0,0:0:0:0:
131,152,83550,1,8,0:0:0:0:
220,175,83893,2,0,L|232:54,2,105,2|8|0,0:3|0:0|0:0,0:0:0:0:
158,349,85264,6,0,P|208:363|259:353,1,105,2|8,0:3|0:0,0:0:0:0:
311,273,85950,2,0,P|260:260|209:270,2,105,0|8|0,0:0|0:0|2:3,0:0:0:0:
490,318,87321,2,0,P|503:269|486:215,1,105,0|0,0:3|0:0,0:0:0:0:
405,269,88007,54,0,P|392:220|409:166,1,105,6|0,0:3|0:0,0:0:0:0:
489,125,88693,1,8,0:0:0:0:
331,28,89378,2,0,B|283:13|242:34|242:34|213:26|213:26|167:49|121:23,2,210,2|8|2,0:3|0:0|0:3,0:0:0:0:
489,125,91436,5,8,0:0:0:0:
442,204,91778,1,0,0:0:0:0:
399,122,92121,2,0,L|283:126,2,105,2|0|8,0:3|0:0|0:0,0:0:0:0:
471,287,93493,54,0,B|427:257|427:257|398:214,2,105,2|0|8,3:3|0:0|0:0,0:0:0:0:
399,122,94864,1,2,0:3:0:0:
317,164,95207,2,0,P|307:113|325:65,2,105,0|8|0,0:0|0:0|0:0,0:0:0:0:
379,233,96236,5,2,0:3:0:0:
460,189,96578,2,0,P|470:238|443:299,2,105,0|8|0,0:0|0:0|0:0,0:0:0:0:
379,233,97607,2,0,B|300:237|300:237|266:227,1,105,2|0,0:3|0:0,0:0:0:0:
193,184,98293,1,0,0:0:0:0:
190,276,98636,2,0,P|141:261|109:221,1,105,0|4,0:0|2:0,0:0:0:0:
