osu file format v14

[General]
AudioFilename: audio.mp3
AudioLeadIn: 0
PreviewTime: 42750
Countdown: 0
SampleSet: Normal
StackLeniency: 0.9
Mode: 0
LetterboxInBreaks: 0
EpilepsyWarning: 1
WidescreenStoryboard: 1

[Editor]
DistanceSpacing: 1.2
BeatDivisor: 2
GridSize: 4
TimelineZoom: 2.999999

[Metadata]
Title:Spacecraft
TitleUnicode:Spacecraft
Artist:Blaster & Extra Terra
ArtistUnicode:Blaster & Extra Terra
Creator:Pandize
Version:Normal
Source:
Tags:Exclusive Tunes Network Dubstep Wub Mun Garden Hobbes2 Bandi
BeatmapID:1513309
BeatmapSetID:712901

[Difficulty]
HPDrainRate:4
CircleSize:3
OverallDifficulty:4
ApproachRate:5
SliderMultiplier:1.3
SliderTickRate:1

[Events]
//Background and Video events
0,0,"spacecraft.jpg",0,0
//Break Periods
2,22178,31950
//Storyboard Layer 0 (Background)
//Storyboard Layer 1 (Fail)
//Storyboard Layer 2 (Pass)
//Storyboard Layer 3 (Foreground)
//Storyboard Sound Samples

[TimingPoints]
236,342.857142857143,4,1,1,45,1,0
236,-133.333333333333,4,1,1,45,0,0
11207,-100,4,1,1,85,0,0
19436,-100,4,1,1,75,0,0
20121,-100,4,1,1,65,0,0
20807,-100,4,1,1,55,0,0
21321,-100,4,1,1,35,0,0
33150,-100,4,1,1,75,0,0
44121,-100,4,1,1,85,0,1
53721,-100,4,1,1,85,0,0
55093,-100,4,1,1,85,0,1
64693,-100,4,1,1,50,0,0
66064,-100,4,1,1,85,0,1
70864,-100,4,1,1,85,0,0
71550,-100,4,1,1,85,0,1
75664,-100,4,1,1,85,0,0
77036,-100,4,1,1,85,0,1
81836,-100,4,1,1,85,0,0
82521,-100,4,1,1,85,0,1
86636,-100,4,1,1,85,0,0
88007,-100,4,1,1,85,0,1
98978,-100,4,1,1,85,0,0

[Colours]
Combo1 : 140,125,108
Combo2 : 214,255,47
Combo3 : 139,243,147
Combo4 : 220,220,220
Combo5 : 209,186,152
SliderTrackOverride : 35,25,15
SliderBorder : 220,220,220

[HitObjects]
0,216,236,54,0,P|77:312|139:190,1,292.50001115799,0|0,2:0|2:0,2:0:0:0:
66,120,1607,2,0,P|131:13|213:108,1,292.50001115799,0|0,2:0|2:0,2:0:0:0:
147,204,2978,6,0,L|454:192,1,292.50001115799,0|0,2:0|2:0,2:0:0:0:
505,97,4350,2,0,L|198:109,1,292.50001115799,0|0,2:0|2:0,2:0:0:0:
146,204,5721,54,0,P|223:300|285:178,1,292.50001115799,0|0,2:0|2:0,2:0:0:0:
212,108,7092,2,0,P|277:1|359:96,1,292.50001115799,0|0,2:0|2:0,2:0:0:0:
297,196,8464,6,0,L|4:207,1,292.50001115799,0|0,2:0|2:0,2:0:0:0:
91,286,9835,2,0,L|383:274,1,292.50001115799,0|0,2:0|2:0,2:0:0:0:
454,367,11207,54,0,B|472:307|472:307|462:234,1,130,6|0,0:3|0:0,0:0:0:0:
392,147,11893,2,0,B|374:207|374:207|384:280,1,130,8|0,0:0|0:0,0:0:0:0:
280,217,12578,6,0,P|215:198|155:217,1,130,2|0,0:3|0:0,0:0:0:0:
155,333,13264,2,0,P|220:352|280:333,1,130,8|0,0:0|0:0,0:0:0:0:
364,254,13950,54,0,L|370:391,1,130,2|0,0:3|0:0,0:0:0:0:
486,377,14636,2,0,L|480:247,1,130,8|0,0:0|0:0,0:0:0:0:
424,144,15321,6,0,P|359:163|290:120,1,130,2|0,0:3|0:0,0:0:0:0:
250,33,16007,2,0,P|315:14|384:57,1,130,8|0,0:0|0:0,0:0:0:0:
304,138,16693,54,0,B|286:198|286:198|296:271,1,130,2|0,0:3|0:0,0:0:0:0:
412,271,17379,2,0,B|430:211|430:211|420:138,1,130,8|0,0:0|0:0,0:0:0:0:
304,138,18064,6,0,P|239:157|179:138,1,130,2|0,0:3|0:0,0:0:0:0:
122,37,18750,2,0,P|187:18|247:37,1,130,8|0,0:0|0:0,0:0:0:0:
181,139,19436,54,0,L|187:276,1,130,2|0,0:3|0:0,0:0:0:0:
96,344,20122,2,0,L|90:213,1,130,8|0,0:0|0:0,0:0:0:0:
186,268,20807,6,0,P|272:304|377:267,1,195,2|0,0:3|0:0,0:0:0:0:
402,343,33150,53,8,0:0:0:0:
402,106,33836,1,8,0:0:0:0:
262,297,34521,5,8,0:0:0:0:
487,224,35207,1,8,0:0:0:0:
262,151,35893,54,0,B|196:132|196:132|116:154,1,130,8|0,0:0|2:0,0:0:0:0:
25,183,36578,1,8,0:0:0:0:
128,0,37264,6,0,P|244:38|232:158,1,260,8|8,0:0|0:0,0:0:0:0:
140,243,38293,1,0,0:0:0:0:
25,183,38635,54,8,P|9:246|30:314,1,130
137,361,39321,1,8,0:0:0:0:
140,243,39664,1,8,0:0:0:0:
249,183,40007,6,8,P|265:246|244:314,1,130
137,361,40693,1,8,0:0:0:0:
140,243,41036,1,8,0:0:0:0:
256,192,41378,12,0,43436,0:0:0:0:
320,188,44121,6,0,B|369:190|369:190|332:218|332:218|214:214|214:214|165:224,1,260,6|8,0:3|0:0,0:0:0:0:
45,265,45150,1,2,0:3:0:0:
78,139,45493,6,0,P|81:107|77:61,1,65,2|0,0:3|0:0,0:0:0:0:
37,9,45836,1,0,0:0:0:0:
156,60,46178,2,0,L|234:61,1,65,8|0,0:0|0:0,0:0:0:0:
292,92,46521,2,0,L|370:93,1,65
413,37,46864,54,0,L|404:176,1,130,2|0,0:3|0:0,0:0:0:0:
450,298,47550,1,8,0:0:0:0:
314,260,47893,1,0,0:0:0:0:
343,383,48236,6,0,B|290:382|290:382|266:371|266:371|182:368,2,130,2|0|8,0:3|0:0|0:0,0:0:0:0:
450,298,49264,1,0,0:0:0:0:
314,260,49607,54,0,B|279:246|235:260|235:260|206:251|206:251|165:267|127:251|127:251|78:257|78:257|32:218,1,260,2|8,0:3|0:0,0:0:0:0:
4,143,50636,1,0,0:1:0:0:
117,171,50978,6,0,P|120:138|112:107,1,65,2|0,0:3|0:0,0:0:0:0:
75,38,51321,1,0,0:0:0:0:
186,73,51664,2,0,L|258:69,1,65.5,8|0,0:0|0:0,0:0:0:0:
318,108,52007,2,0,L|393:105,1,65.5
455,77,52350,54,0,P|459:122|393:183,2,130,2|0|8,0:3|0:0|0:0,0:0:0:0:
353,31,53378,1,2,0:3:0:0:
321,183,53721,6,0,B|318:223|324:287|324:287|302:245,1,130
246,151,54407,2,0,P|293:109|374:123,1,130
457,237,55093,54,0,B|492:203|492:203|502:42|502:42|482:66|434:85,1,260,6|8,0:3|0:0,0:0:0:0:
349,61,56121,1,2,0:3:0:0:
388,161,56464,6,0,L|377:225,1,65,2|0,0:3|0:0,0:0:0:0:
406,301,56807,1,0,0:0:0:0:
296,236,57150,2,0,L|291:169,1,65,8|0,0:0|0:0,0:0:0:0:
213,162,57493,2,0,B|212:176|218:95,1,65
279,53,57836,54,0,B|214:69|214:69|136:54,1,130,2|0,0:3|0:0,0:0:0:0:
28,15,58521,1,8,0:0:0:0:
66,139,58864,1,0,0:0:0:0:
44,267,59207,6,0,P|111:261|164:222,2,130,2|0|0,0:3|0:0|0:0,0:0:0:0:
66,139,60236,1,0,0:0:0:0:
192,109,60578,54,0,B|248:110|248:110|276:126|276:126|313:105|356:122|356:122|386:107|386:107|464:103,1,260,2|8,0:3|0:0,0:0:0:0:
511,198,61607,2,0,B|417:201|417:201|370:223,2,130,2|2|0,0:3|0:3|0:0,0:0:0:0:
439,105,62636,6,0,L|333:112,1,65,8|0,0:0|0:0,0:0:0:0:
312,156,62978,2,0,L|206:163,1,65
198,220,63321,54,0,L|220:62,1,130,2|0,0:3|0:0,0:0:0:0:
129,13,64007,1,8,0:0:0:0:
102,126,64350,1,2,0:3:0:0:
256,192,64693,12,6,66064,0:3:0:0:
240,186,66750,6,0,B|287:187|287:187|324:177|324:177|384:179,1,130,2|8,0:3|0:0,0:0:0:0:
462,271,67436,54,0,B|450:209|450:209|472:145,1,130,2|8,0:3|0:0,0:0:0:0:
378,259,68121,2,0,L|271:256,1,65.5,2|0,0:3|0:0,0:0:0:0:
240,221,68464,2,0,L|133:218,1,65.5,8|0,0:0|0:0,0:0:0:0:
121,276,68807,6,0,P|147:211|121:142,1,130,2|8,0:3|0:0,0:0:0:0:
43,59,69493,1,2,0:3:0:0:
170,31,69836,1,8,0:0:0:0:
131,155,70178,54,0,B|103:218|103:218|132:311,2,130,2|8|0,0:3|0:0|0:0,0:0:0:0:
216,282,71207,2,0,L|298:280,1,65
327,215,71550,6,0,L|483:214,1,130,2|8,0:3|0:0,0:0:0:0:
510,110,72236,2,0,P|462:102|406:107,1,65.5,0|2,0:3|0:3,0:0:0:0:
380,59,72578,2,0,P|332:67|276:62,1,65.5,8|0,0:0|0:0,0:0:0:0:
263,13,72921,54,0,P|286:79|253:150,1,130,2|8,0:3|0:0,0:0:0:0:
221,255,73607,2,0,P|253:262|303:253,1,65.5,0|2,0:0|0:3,0:0:0:0:
339,202,73950,2,0,P|371:195|421:204,1,65.5,8|0,0:0|0:0,0:0:0:0:
450,259,74293,6,0,B|430:193|430:193|445:123,1,130,2|8,0:3|0:0,0:0:0:0:
483,10,74978,2,0,P|451:3|401:12,1,65.5,0|2,0:0|0:3,0:0:0:0:
353,47,75321,1,8,0:0:0:0:
226,16,75664,5,0,2:0:0:0:
357,177,76350,6,0,P|360:244|358:319,1,130
249,235,77036,22,0,B|184:215|184:215|99:243,1,130,6|8,0:3|0:0,0:0:0:0:
185,349,77721,1,2,0:3:0:0:
67,293,78064,2,0,P|42:230|83:162,2,130,8|2|8,0:0|0:3|0:0,0:0:0:0:
185,349,79093,6,0,L|188:242,1,65.5,0|2,0:3|0:3,0:0:0:0:
242,229,79436,2,0,L|245:122,1,65.5,8|0,0:0|0:0,0:0:0:0:
308,118,79778,54,0,P|245:133|186:108,1,130,2|8,0:3|0:0,0:0:0:0:
119,14,80464,1,2,0:3:0:0:
71,120,80807,1,8,0:0:0:0:
186,108,81150,6,0,B|194:161|194:161|189:180|189:180|199:241,2,130,2|8|0,0:3|0:0|0:0,0:0:0:0:
271,297,82521,54,0,B|309:314|309:314|410:312,1,130,6|8,0:3|0:0,0:0:0:0:
511,341,83207,2,0,P|514:297|502:261,1,65,0|2,0:0|0:3,0:0:0:0:
437,244,83550,2,0,P|434:200|446:164,1,65,8|0,0:0|0:0,0:0:0:0:
497,128,83893,6,0,P|435:154|379:127,1,130,2|8,0:3|0:0,0:0:0:0:
268,99,84578,2,0,P|265:143|277:179,1,65,0|2,0:0|0:3,0:0:0:0:
340,199,84921,2,0,P|343:243|331:279,1,65,8|0,0:0|0:0,0:0:0:0:
280,313,85264,54,0,P|343:290|405:312,2,130,2|8|2,0:3|0:0|0:3,0:0:0:0:
169,377,86293,1,8,0:0:0:0:
171,246,86636,1,0,2:3:0:0:
215,26,87321,38,0,P|156:53|81:21,1,130
161,116,88007,22,0,L|171:257,1,130,6|0,0:3|0:0,0:0:0:0:
69,317,88693,2,0,P|98:311|139:318,1,65,8|0,0:0|0:0,0:0:0:0:
202,351,89036,2,0,P|270:325|351:340,1,130,2|2,0:3|0:3,0:0:0:0:
478,362,89721,6,0,L|469:275,1,65
497,223,90064,2,0,P|426:232|393:309,1,130,8|0,0:0|0:0,0:0:0:0:
255,298,90750,54,0,P|246:257|254:221,1,65,2|0,0:3|0:0,0:0:0:0:
313,189,91093,2,0,P|322:148|314:112,1,65
258,75,91436,2,0,P|316:96|382:68,2,130,8|0|2,0:0|0:0|0:3,0:0:0:0:
148,34,92464,6,0,L|142:100,1,65
80,145,92807,2,0,P|124:176|203:147,2,130,8|0|2,0:0|0:0|0:3,0:0:0:0:
296,129,94178,54,0,P|302:161|294:198,1,65,8|0,0:0|0:0,0:0:0:0:
228,231,94521,1,2,0:3:0:0:
374,209,94864,5,2,0:3:0:0:
344,324,95207,2,0,P|375:329|407:322,1,65
462,376,95550,2,0,P|436:318|441:254,1,130,8|0,0:0|0:0,0:0:0:0:
470,135,96236,54,0,P|438:129|406:136,1,65,2|0,0:3|0:0,0:0:0:0:
374,209,96578,2,0,P|342:214|310:207,1,65
253,155,96921,2,0,P|280:213|275:278,1,130,8|0,0:0|0:0,0:0:0:0:
168,229,97607,6,0,L|26:236,1,130,2|0,0:3|0:0,0:0:0:0:
102,137,98293,2,0,P|107:104|96:67,1,65,0|0,0:0|2:0,2:0:0:0:
29,107,98636,2,0,P|21:75|26:43,1,65,0|0,0:0|2:0,2:0:0:0:
