osu file format v14

[General]
AudioFilename: audio.mp3
AudioLeadIn: 0
PreviewTime: 42750
Countdown: 0
SampleSet: Normal
StackLeniency: 0.7
Mode: 0
LetterboxInBreaks: 0
EpilepsyWarning: 1
WidescreenStoryboard: 1

[Editor]
Bookmarks: 56807
DistanceSpacing: 1.5
BeatDivisor: 4
GridSize: 4
TimelineZoom: 3.299999

[Metadata]
Title:Spacecraft
TitleUnicode:Spacecraft
Artist:Blaster & Extra Terra
ArtistUnicode:Blaster & Extra Terra
Creator:Pandize
Version:Hard
Source:
Tags:Exclusive Tunes Network Dubstep Wub Mun Garden Hobbes2 Bandi
BeatmapID:1515151
BeatmapSetID:712901

[Difficulty]
HPDrainRate:5
CircleSize:2.8
OverallDifficulty:6
ApproachRate:7.5
SliderMultiplier:1.5
SliderTickRate:1

[Events]
//Background and Video events
0,0,"spacecraft.jpg",0,0
//Break Periods
2,22178,32250
//Storyboard Layer 0 (Background)
//Storyboard Layer 1 (Fail)
//Storyboard Layer 2 (Pass)
//Storyboard Layer 3 (Foreground)
//Storyboard Sound Samples

[TimingPoints]
236,342.857142857143,4,1,1,45,1,0
236,-200,4,1,1,45,0,0
11207,-117.647058823529,4,1,1,85,0,0
19778,-117.647058823529,4,1,1,60,0,0
20121,-117.647058823529,4,1,1,45,0,0
20464,-117.647058823529,4,1,1,30,0,0
20807,-117.647058823529,4,1,1,25,0,0
21150,-117.647058823529,4,1,1,20,0,0
33150,-117.647058823529,4,1,1,75,0,0
41721,-117.647058823529,4,1,1,80,0,0
44121,-100,4,1,1,85,0,1
53721,-133.333333333333,4,1,1,85,0,0
55093,-100,4,1,1,85,0,1
64693,-100,4,1,1,50,0,0
66064,-100,4,1,1,85,0,1
70864,-100,4,1,1,85,0,0
71550,-100,4,1,1,85,0,1
75664,-100,4,1,1,85,0,0
77036,-100,4,1,1,85,0,1
81836,-100,4,1,1,85,0,0
82521,-100,4,1,1,85,0,1
86636,-100,4,1,1,85,0,0
88007,-100,4,1,1,85,0,1
98978,-100,4,1,1,85,0,0

[Colours]
Combo1 : 140,125,108
Combo2 : 214,255,47
Combo3 : 139,243,147
Combo4 : 220,220,220
Combo5 : 209,186,152
SliderTrackOverride : 35,25,15
SliderBorder : 220,220,220

[HitObjects]
87,119,236,54,0,B|142:90|196:124|196:124|250:154|313:117,1,225,0|0,2:0|2:0,2:0:0:0:
387,50,1607,2,0,L|398:288,1,225,0|0,2:0|2:0,2:0:0:0:
305,209,2978,6,0,P|281:198|307:284,1,225,0|0,2:0|2:0,2:0:0:0:
409,252,4350,2,0,P|411:176|287:98,1,225,0|0,2:0|2:0,2:0:0:0:
305,209,5721,54,0,B|250:238|196:204|196:204|142:174|79:211,1,225,0|0,2:0|2:0,2:0:0:0:
4,277,7092,2,0,L|11:37,1,225,0|0,2:0|2:0,2:0:0:0:
97,123,8464,6,0,P|119:137|106:48,1,225,0|0,2:0|2:0,2:0:0:0:
210,94,9836,2,0,L|438:86,1,225
512,265,11207,54,0,B|440:268,1,63.7500012159348,6|0,0:3|0:0,0:0:0:0:
377,213,11550,2,0,B|305:216,1,63.7500012159348
197,161,11893,1,8,0:0:0:0:
230,243,12064,2,0,P|228:274|213:306,2,63.7500012159348
133,158,12578,6,0,B|205:161,1,63.7500012159348,2|0,0:3|0:0,0:0:0:0:
277,122,12921,2,0,B|349:125,1,63.7500012159348
453,185,13264,1,8,0:0:0:0:
426,99,13436,2,0,P|427:67|442:35,2,63.7500012159348
331,12,13950,54,0,P|264:2|195:29,1,127.50000243187,2|0,0:3|0:0,0:0:0:0:
11,154,14636,1,8,0:0:0:0:
72,76,14807,2,0,L|69:10,2,63.7500012159348
186,116,15321,5,2,0:3:0:0:
125,194,15493,2,0,L|129:278,1,63.7500012159348
78,332,15836,1,0,0:0:0:0:
202,304,16007,2,0,L|290:307,1,63.7500012159348,8|0,0:1|0:0,0:0:0:0:
334,248,16350,1,0,0:0:0:0:
353,334,16521,1,0,0:0:0:0:
416,223,16693,54,0,B|419:151,1,63.7500012159348,2|0,0:3|0:0,0:0:0:0:
329,159,17036,2,0,B|332:87,1,63.7500012159348
236,9,17379,1,8,0:0:0:0:
242,97,17550,2,0,P|210:95|178:80,2,63.7500012159348
177,186,18064,6,0,B|174:258,1,63.7500012159348,2|0,0:3|0:0,0:0:0:0:
87,272,18407,2,0,B|90:344,1,63.7500012159348
214,363,18750,1,8,0:0:0:0:
258,285,18922,2,0,P|289:286|321:301,2,63.7500012159348
177,186,19436,54,0,P|178:154|193:122,2,63.7500012159348,2|0|0,0:3|0:0|0:0,0:0:0:0:
266,176,19950,1,0,0:0:0:0:
339,124,20121,2,0,P|352:153|355:185,2,63.7500012159348,8|0|0,0:0|0:0|0:0,0:0:0:0:
267,76,20636,1,0,0:0:0:0:
376,50,20807,5,2,0:3:0:0:
449,101,20979,2,0,B|481:104|481:104|533:95,2,63.7500012159348
207,139,33150,53,8,0:0:0:0:
443,43,33836,1,8,0:0:0:0:
431,299,34521,1,8,0:0:0:0:
320,69,35207,1,8,0:0:0:0:
156,264,35893,6,0,B|106:269|106:269|80:261|80:261|2:266,1,127.50000243187,8|0,0:0|0:0,0:0:0:0:
281,306,36578,1,8,0:0:0:0:
30,264,37264,2,0,B|79:260|79:260|105:268|105:268|155:263,1,127.50000243187,8|0,0:0|0:0,0:0:0:0:
281,306,37949,1,8,0:0:0:0:
257,180,38293,1,0,2:0:0:0:
193,346,38636,53,8,0:0:0:0:
328,230,38978,1,8,0:0:0:0:
150,249,39321,1,8,0:0:0:0:
306,334,39664,1,8,0:0:0:0:
230,172,40007,6,0,L|234:95,1,63.7500012159348,8|0,0:0|2:0,0:0:0:0:
206,22,40350,2,0,P|237:18|285:33,1,63.7500012159348,8|0,0:0|2:0,0:0:0:0:
324,94,40693,2,0,P|355:98|403:83,1,63.7500012159348,8|0,0:0|2:0,0:0:0:0:
470,60,41036,2,0,L|466:123,1,63.7500012159348,8|0,0:0|2:0,0:0:0:0:
480,211,41378,53,8,0:0:0:0:
396,178,41550,1,8,0:0:0:0:
314,214,41721,2,8,P|306:175|314:136,1,63.7500012159348
315,62,42064,5,8,0:0:0:0:
231,95,42236,1,8,0:0:0:0:
149,59,42407,2,8,P|141:98|149:137,1,63.7500012159348
210,181,42750,53,8,0:0:0:0:
216,195,42836,1,8,0:0:0:0:
217,210,42921,1,8,0:0:0:0:
165,283,43093,1,8,0:0:0:0:
159,297,43179,1,8,0:0:0:0:
158,312,43264,1,8,0:0:0:0:
247,317,43436,5,8,0:0:0:0:
483,129,44121,6,0,B|476:164|486:193|486:193|441:176|403:195|403:195|365:214|312:188,1,225,6|0,0:3|0:0,0:0:0:0:
256,64,44807,6,0,P|292:55|333:63,1,75,8|0,0:0|0:0,0:0:0:0:
331,196,45150,2,0,P|294:205|258:198,1,75,2|0,0:3|0:0,0:0:0:0:
132,113,45493,53,2,0:3:0:0:
152,223,45664,1,0,0:0:0:0:
41,198,45836,2,0,P|36:234|48:273,1,75
183,330,46178,5,8,3:1:0:0:
273,292,46350,1,0,3:0:0:0:
356,342,46521,1,0,3:0:0:0:
446,304,46693,1,0,3:0:0:0:
380,169,46864,54,0,P|378:131|393:93,1,75,2|0,0:3|0:0,0:0:0:0:
503,99,47207,2,0,P|515:134|513:171,1,75,0|0,0:3|0:0,0:0:0:0:
446,304,47550,5,8,0:0:0:0:
338,273,47721,2,0,L|247:281,1,75
170,343,48064,1,0,0:0:0:0:
193,194,48236,54,0,P|192:153|171:104,1,75,2|0,0:3|0:0,0:0:0:0:
112,32,48578,2,0,L|78:40,3,25
252,36,48921,5,8,0:0:0:0:
348,102,49093,2,0,L|433:105,1,75
510,46,49436,1,0,0:0:0:0:
481,192,49607,54,0,B|458:341|458:341|465:298|429:252,1,225,2|0,0:3|0:0,0:0:0:0:
300,323,50293,6,0,P|336:330|392:315,1,75,8|0,0:0|0:0,0:0:0:0:
377,173,50636,2,0,P|341:166|285:181,1,75,2|0,0:3|0:0,0:0:0:0:
175,249,50978,53,0,0:3:0:0:
198,138,51150,1,0,0:0:0:0:
89,167,51321,2,0,P|52:171|3:157,1,75
29,12,51664,5,8,3:1:0:0:
116,55,51836,1,0,3:0:0:0:
202,11,52007,1,0,3:0:0:0:
289,54,52179,1,0,3:0:0:0:
436,31,52350,54,0,B|435:88|435:88|423:122,1,75,2|0,0:3|0:0,0:0:0:0:
492,180,52693,2,0,B|493:237|493:237|498:253,1,75
368,180,53036,6,0,P|329:178|274:209,1,75,8|0,0:0|0:0,0:0:0:0:
390,306,53378,2,0,P|354:318|317:316,1,75,2|0,0:3|0:0,0:0:0:0:
182,355,53721,22,0,P|202:301|168:198,1,168.750006437302,2|0,0:3|0:0,0:0:0:0:
228,272,54407,6,0,L|421:277,1,168.750006437302
486,155,55093,6,0,B|508:136|508:136|466:159|419:137|419:137|393:147|393:147|352:125|305:149,1,225,6|0,0:3|0:0,0:0:0:0:
210,243,55778,6,0,P|173:249|117:232,1,75,8|0,0:0|0:0,0:0:0:0:
28,138,56121,2,0,P|65:132|121:149,1,75,2|0,0:3|0:0,0:0:0:0:
208,242,56464,53,2,0:3:0:0:
206,129,56636,1,0,0:0:0:0:
301,187,56807,2,0,P|338:193|394:176,1,75
504,110,57150,5,8,3:1:0:0:
512,207,57321,1,0,3:0:0:0:
432,264,57493,1,0,3:0:0:0:
440,361,57664,1,0,3:0:0:0:
310,284,57836,54,0,P|267:278|222:292,1,75,2|0,0:3|0:0,0:0:0:0:
151,357,58178,2,0,P|114:364|77:357,1,75
144,222,58521,5,8,0:0:0:0:
237,285,58693,2,0,L|311:286,1,75
407,344,59036,1,0,0:0:0:0:
353,204,59207,54,0,P|351:167|358:130,1,75,2|0,0:3|0:0,0:0:0:0:
448,62,59550,2,0,L|478:66,3,25
298,43,59893,5,8,0:0:0:0:
358,129,60064,2,0,P|353:178|338:208,1,75
256,144,60407,1,0,0:0:0:0:
300,286,60578,54,0,B|303:327|303:327|260:304|226:316|226:316|200:308|200:308|168:329|106:328,1,225,2|0,0:3|0:0,0:0:0:0:
236,225,61264,6,0,P|240:187|233:151,1,75,8|0,0:0|0:0,0:0:0:0:
128,194,61607,2,0,P|121:157|132:102,1,75
260,52,61950,54,0,B|306:36|306:36|245:45|201:37,1,150,2|0,0:3|0:0,0:0:0:0:
97,16,62464,1,0,0:0:0:0:
97,16,62550,1,0,0:0:0:0:
97,16,62636,5,8,3:1:0:0:
36,92,62807,1,0,3:0:0:0:
92,171,62978,1,0,3:0:0:0:
31,247,63149,1,0,3:0:0:0:
148,341,63321,54,0,P|198:345|244:331,1,75,2|0,0:3|0:0,0:0:0:0:
321,286,63664,1,0,0:0:0:0:
321,286,63750,1,0,0:0:0:0:
321,286,63836,2,0,L|379:291,2,37.5,0|0|8,0:0|2:0|0:0,0:0:0:0:
398,211,64178,6,0,L|403:110,1,75,0|2,0:0|0:3,0:0:0:0:
451,34,64521,1,0,0:0:0:0:
338,44,64693,1,4,2:0:0:0:
177,184,65378,38,8,L|131:178,2,37.5,2|2|8,0:2|0:2|0:0,0:0:0:0:
261,259,65721,2,0,L|307:265,2,37.5,2|8|8,0:2|0:1|0:0,0:0:0:0:
400,315,66064,6,0,P|410:267|398:214,1,75,6|0,0:3|0:0,0:0:0:0:
334,155,66407,1,8,0:0:0:0:
383,54,66578,2,0,P|346:44|309:46,1,75,2|0,0:3|0:0,0:0:0:0:
222,120,66921,5,2,0:3:0:0:
119,74,67093,2,0,P|109:110|111:147,1,75,8|0,0:0|0:0,0:0:0:0:
240,227,67436,54,0,P|246:277|232:329,1,75,2|0,0:3|0:0,0:0:0:0:
134,332,67778,2,0,P|128:282|142:230,1,75,8|0,0:0|0:0,0:0:0:0:
240,227,68121,5,0,3:0:0:0:
332,260,68293,1,2,3:3:0:0:
420,219,68464,1,8,3:1:0:0:
512,252,68636,1,0,3:0:0:0:
431,125,68807,54,0,L|429:36,1,75,2|0,0:3|0:0,0:0:0:0:
322,85,69150,1,8,0:0:0:0:
212,58,69321,2,0,L|215:11,2,37.5,2|2|2,0:3|0:3|0:3,0:3:0:0:
246,165,69664,5,2,0:3:0:0:
228,276,69836,1,8,0:0:0:0:
144,200,70007,1,0,0:0:0:0:
144,200,70093,1,0,0:0:0:0:
144,200,70178,54,0,P|100:196|58:208,1,75,2|0,0:3|0:0,0:0:0:0:
36,310,70521,2,0,P|80:314|122:302,1,75,8|0,0:0|0:0,0:0:0:0:
364,146,71036,6,0,L|368:230,1,75
407,325,71378,1,0,0:0:0:0:
269,263,71550,54,0,P|232:258|177:271,1,75,6|0,0:3|0:0,0:0:0:0:
118,335,71893,1,8,0:0:0:0:
101,231,72064,1,0,0:0:0:0:
178,159,72236,5,0,0:0:0:0:
161,55,72407,1,2,0:3:0:0:
259,91,72578,2,0,L|355:88,1,75,8|0,0:0|0:0,0:0:0:0:
473,32,72921,54,0,P|487:87|482:133,1,75,2|0,0:3|0:0,0:0:0:0:
406,173,73264,1,8,0:0:0:0:
507,200,73436,1,0,0:0:0:0:
431,272,73607,6,0,L|435:352,1,75,0|2,0:0|0:3,0:0:0:0:
329,346,73950,2,0,L|333:266,1,75,8|0,0:0|0:0,0:0:0:0:
308,122,74293,54,0,P|253:136|207:131,1,75,2|0,0:3|0:0,0:0:0:0:
135,100,74636,1,8,0:0:0:0:
157,202,74807,1,0,0:0:0:0:
85,278,74978,5,0,0:0:0:0:
107,380,75149,1,2,0:3:0:0:
182,306,75321,2,0,P|230:298|278:312,2,75,8|0|0,0:0|0:0|0:0,0:0:0:0:
396,97,76350,22,0,P|386:158|407:238,1,112.5,0|0,2:0|2:0,2:0:0:0:
425,249,76693,2,0,L|291:239,1,112.5,0|0,2:0|2:0,2:0:0:0:
250,198,77036,22,0,P|252:236|231:292,1,75,6|0,0:3|0:0,0:0:0:0:
152,217,77378,1,8,0:0:0:0:
152,322,77550,2,0,L|145:360,2,37.5,2|2|2,0:3|0:3|0:3,0:3:0:0:
60,270,77893,5,2,0:3:0:0:
157,222,78064,2,0,P|158:182|148:143,1,75,8|0,0:0|0:0,0:0:0:0:
42,42,78407,54,0,P|82:43|121:33,1,75,2|0,0:3|0:0,0:0:0:0:
216,67,78750,2,0,P|256:66|295:76,1,75,8|0,0:3|0:3,0:3:0:0:
394,61,79093,5,0,3:0:0:0:
361,153,79265,1,2,3:3:0:0:
389,253,79436,1,8,3:1:0:0:
356,345,79608,1,0,3:0:0:0:
491,284,79778,54,0,P|493:236|479:201,1,75,2|0,0:3|0:0,0:0:0:0:
389,253,80121,2,0,P|347:250|312:231,1,75,0|2,0:0|0:3,0:0:0:0:
282,196,80378,1,2,0:3:0:0:
282,196,80464,6,0,L|186:198,1,75,2|2,0:3|0:3,0:0:0:0:
116,252,80807,1,8,0:0:0:0:
119,147,80978,1,0,0:0:0:0:
119,147,81064,1,0,0:0:0:0:
119,147,81150,54,0,B|116:35|116:35|98:93,2,150,2|8|0,0:3|0:0|0:0,0:0:0:0:
116,252,82007,38,0,P|157:246|202:205,1,75
219,128,82350,1,0,0:0:0:0:
285,261,82521,22,0,B|322:266|322:266|362:264,1,75,6|0,0:3|0:0,0:0:0:0:
452,214,82864,1,8,0:0:0:0:
395,124,83036,1,0,0:0:0:0:
499,114,83207,6,0,P|488:74|451:37,1,75,0|2,0:0|0:3,0:0:0:0:
364,20,83550,1,8,0:0:0:0:
402,129,83721,1,0,0:0:0:0:
265,65,83893,54,0,L|167:67,1,75,2|0,0:3|0:0,0:0:0:0:
101,123,84236,1,8,0:0:0:0:
101,18,84407,1,0,0:0:0:0:
11,75,84578,6,0,P|-1:112|5:169,1,75,0|2,0:0|0:3,0:0:0:0:
89,195,84921,2,0,P|101:158|95:101,1,75,8|0,0:0|0:0,0:0:0:0:
235,188,85264,54,0,L|325:191,2,75,2|0|8,0:3|0:0|0:0,0:0:0:0:
194,90,85778,1,0,0:0:0:0:
299,89,85950,6,0,L|302:-1,2,75,0|2|8,0:0|0:3|0:0,0:0:0:0:
396,128,86464,1,0,0:0:0:0:
396,128,86550,1,0,2:0:0:0:
396,128,86636,1,0,2:0:0:0:
213,236,87321,6,8,L|223:195,2,37.5,2|2|8,0:3|0:3|0:1,0:1:0:0:
312,200,87664,2,8,L|322:241,2,37.5,8|8|8,0:1|0:1|0:1,0:1:0:0:
378,334,88007,38,0,B|336:338|336:338|269:329|269:329|221:333,1,150,6|0,0:3|0:0,0:0:0:0:
20,364,88693,5,8,0:0:0:0:
122,330,88864,1,0,0:0:0:0:
46,256,89036,2,0,L|48:174,1,75,2|0,0:3|0:0,0:0:0:0:
33,32,89378,54,0,B|71:48|71:48|158:50,1,112.5,2|0,0:3|2:0,0:0:0:0:
177,88,89721,2,0,L|259:90,1,75
388,26,90064,6,0,P|368:76|472:38,1,262.5,8|0,0:0|2:0,0:0:0:0:
423,68,90750,54,0,L|416:157,1,75,2|0,0:3|0:0,0:0:0:0:
336,211,91093,2,0,L|343:300,1,75
459,379,91436,5,8,0:0:0:0:
249,381,91778,1,0,0:0:0:0:
336,211,92121,54,0,L|327:106,1,75,2|0,0:3|0:0,0:0:0:0:
281,42,92464,1,0,0:0:0:0:
224,131,92636,1,2,0:3:0:0:
126,93,92807,6,0,P|119:137|135:191,1,75,8|0,0:0|0:0,0:0:0:0:
208,229,93150,2,0,P|215:273|199:327,1,75
313,193,93493,54,0,B|341:187|341:187|472:197,1,150,2|0,0:3|0:0,0:0:0:0:
281,42,94178,5,8,0:0:0:0:
225,131,94350,1,0,0:0:0:0:
180,36,94521,2,0,L|85:42,1,75,2|0,0:3|0:0,0:0:0:0:
225,131,94864,54,0,B|229:174|229:174|221:213,1,75,2|0,0:3|0:0,0:0:0:0:
192,306,95207,1,0,0:0:0:0:
293,279,95378,1,0,0:0:0:0:
437,320,95550,6,0,B|441:277|441:277|433:238,1,75,8|0,0:0|0:0,0:0:0:0:
498,161,95893,2,0,B|494:118|494:118|502:79,1,75
366,156,96236,53,2,0:3:0:0:
265,129,96407,1,0,0:0:0:0:
181,192,96578,1,0,0:0:0:0:
88,165,96749,1,0,0:0:0:0:
158,25,96921,6,0,B|162:68|162:68|154:107,1,75,8|0,0:0|0:0,0:0:0:0:
186,198,97264,2,0,B|182:241|182:241|190:280,1,75,2|0,0:3|0:0,0:0:0:0:
325,229,97607,54,0,L|456:231,1,112.5,2|0,0:3|0:0,0:0:0:0:
477,264,97950,2,0,P|457:221|461:147,1,112.5
480,109,98293,6,0,L|401:112,1,75,0|0,2:0|2:0,2:0:0:0:
312,61,98636,2,0,L|233:64,1,75,0|0,2:0|2:0,2:0:0:0:
148,119,98978,5,4,0:2:0:0:
