osu file format v14

[General]
AudioFilename: audio.mp3
AudioLeadIn: 0
PreviewTime: 42750
Countdown: 0
SampleSet: Normal
StackLeniency: 0.9
Mode: 0
LetterboxInBreaks: 0
EpilepsyWarning: 1
WidescreenStoryboard: 1

[Editor]
DistanceSpacing: 1
BeatDivisor: 4
GridSize: 8
TimelineZoom: 2.999999

[Metadata]
Title:Spacecraft
TitleUnicode:Spacecraft
Artist:Blaster & Extra Terra
ArtistUnicode:Blaster & Extra Terra
Creator:Pandize
Version:Beginner
Source:
Tags:Exclusive Tunes Network Dubstep Wub Mun Garden Hobbes2 Bandi
BeatmapID:1512334
BeatmapSetID:712901

[Difficulty]
HPDrainRate:2
CircleSize:2
OverallDifficulty:1
ApproachRate:3
SliderMultiplier:0.849999999999999
SliderTickRate:1

[Events]
//Background and Video events
0,0,"spacecraft.jpg",0,0
//Break Periods
2,22178,31710
//Storyboard Layer 0 (Background)
//Storyboard Layer 1 (Fail)
//Storyboard Layer 2 (Pass)
//Storyboard Layer 3 (Foreground)
//Storyboard Sound Samples

[TimingPoints]
236,342.857142857143,4,1,1,45,1,0
11207,-100,4,1,1,85,0,0
19436,-100,4,1,1,65,0,0
20121,-100,4,1,1,55,0,0
20807,-100,4,1,1,45,0,0
33150,-100,4,1,1,75,0,0
44121,-100,4,1,1,85,0,1
53721,-100,4,1,1,85,0,0
55093,-100,4,1,1,85,0,1
64693,-100,4,1,1,50,0,0
66064,-100,4,1,1,85,0,1
70864,-100,4,1,1,85,0,0
71550,-100,4,1,1,85,0,1
75664,-100,4,1,1,85,0,0
77036,-100,4,1,1,85,0,1
81836,-100,4,1,1,85,0,0
82521,-100,4,1,1,85,0,1
86636,-100,4,1,1,85,0,0
88007,-100,4,1,1,85,0,1
98978,-100,4,1,1,85,0,0

[Colours]
Combo1 : 140,125,108
Combo2 : 214,255,47
Combo3 : 139,243,147
Combo4 : 220,220,220
Combo5 : 209,186,152
SliderTrackOverride : 35,25,15
SliderBorder : 220,220,220

[HitObjects]
226,30,236,54,0,B|207:111|234:198|234:198|261:281|231:378,1,340,0|0,2:0|2:0,2:0:0:0:
110,85,2978,6,0,P|73:54|105:161,1,340,0|0,2:0|2:0,2:0:0:0:
361,19,5721,54,0,L|389:359,1,340,0|0,2:0|2:0,2:0:0:0:
271,75,8464,6,0,P|234:44|266:151,1,340,0|0,2:0|2:0,2:0:0:0:
256,161,11207,54,0,B|262:232|262:232|255:258|255:258|267:341,1,170,6|8,0:3|0:0,0:0:0:0:
160,217,12578,2,0,B|154:146|154:146|161:120|161:120|149:37,1,170,2|8,0:3|0:0,0:0:0:0:
249,166,13950,6,0,B|332:183|332:183|417:163,1,170,2|8,0:3|0:0,0:0:0:0:
500,36,15321,2,0,L|512:209,1,170,2|8,0:3|0:0,0:0:0:0:
406,93,16693,54,0,P|328:75|228:109,1,170,2|8,0:3|0:0,0:0:0:0:
250,251,18064,2,0,P|328:269|428:235,1,170,2|8,0:3|0:0,0:0:0:0:
286,158,19436,6,0,P|206:163|148:234,2,170,2|8|2,0:3|0:0|0:3,0:0:0:0:
99,96,33150,53,8,0:0:0:0:
314,312,34521,1,8,0:0:0:0:
372,11,35893,1,8,0:0:0:0:
169,253,37264,2,8,B|84:267|84:267|-3:250,2,170
256,192,38978,12,8,42750,0:0:0:0:
121,319,44121,22,0,B|160:307|160:307|203:321|250:307|250:307|300:321,1,170,6|8,0:3|0:0,0:0:0:0:
434,355,45493,1,2,0:3:0:0:
391,208,46178,1,8,0:0:0:0:
286,317,46864,6,0,P|204:337|111:308,2,170,2|8|2,0:3|0:0|0:3,0:0:0:0:
293,164,48921,2,0,P|242:149|197:159,1,84.9999999999999,8|0,0:0|0:0,0:0:0:0:
240,238,49607,54,0,B|197:254|157:227|157:227|126:250|76:244,1,170,2|8,0:3|0:0,0:0:0:0:
13,105,50978,1,2,0:3:0:0:
166,108,51664,1,8,0:0:0:0:
161,260,52350,6,0,B|205:273|205:273|341:253,1,170,2|8,0:3|0:0,0:0:0:0:
438,149,53721,2,0,B|394:136|394:136|257:155,1,170,2|0,0:3|2:0,0:0:0:0:
214,295,55093,54,0,P|164:205|93:175,1,170,6|8,0:3|0:0,0:0:0:0:
69,321,56464,1,2,0:3:0:0:
106,177,57150,1,8,0:0:0:0:
214,295,57836,6,0,B|249:293|279:279|279:279|316:293|316:293|354:296|397:280,1,170,2|8,0:3|0:0,0:0:0:0:
498,191,59207,1,2,0:3:0:0:
356,132,59893,1,8,0:0:0:0:
378,286,60578,54,0,B|332:297|301:272|301:272|285:281|285:281|247:274|202:289,1,170,2|8,0:3|0:0,0:0:0:0:
57,314,61950,2,0,P|97:327|139:332,1,84.9999999999999,2|0,0:3|0:0,0:0:0:0:
215,285,62636,1,8,0:0:0:0:
359,335,63321,1,2,0:3:0:0:
323,186,64007,1,8,0:0:0:0:
256,192,64693,12,6,66064,0:3:0:0:
243,193,67436,6,0,B|279:189|306:202|306:202|346:190|346:190|381:209|421:199,1,170,2|2,0:3|0:3,0:0:0:0:
259,286,68807,54,0,P|176:263|151:174,2,170,2|2|0,0:3|0:3|0:0,0:0:0:0:
342,269,70521,1,0,0:0:0:0:
511,112,71550,6,0,B|467:121|467:121|387:113|387:113|331:122,1,170,6|2,0:3|0:3,0:0:0:0:
174,141,72921,2,0,P|230:183|241:113,1,170,2|2,0:3|0:3,0:0:0:0:
276,261,74293,2,0,P|331:207|342:112,2,170,2|2|0,0:3|0:3|2:0,0:0:0:0:
259,114,76350,2,0,L|350:118,1,84.9999999999999
392,192,77036,54,0,B|359:204|359:204|215:197,1,170,6|2,0:3|0:3,0:0:0:0:
102,105,78407,2,0,P|137:180|113:259,1,170,2|2,0:3|0:3,0:0:0:0:
0,364,79778,5,2,0:3:0:0:
150,338,80464,1,2,0:3:0:0:
116,188,81150,2,0,B|156:172|198:188|198:188|238:205|281:185,1,170,2|0,0:3|2:0,0:0:0:0:
425,259,82521,54,0,P|381:268|337:292,1,84.9999999999999,6|8,0:3|0:0,0:0:0:0:
300,360,83207,1,0,0:0:0:0:
151,328,83893,2,0,P|195:319|239:295,1,84.9999999999999,2|8,0:3|0:0,0:0:0:0:
276,227,84579,1,0,0:0:0:0:
266,74,85264,6,0,P|222:83|178:107,2,84.9999999999999,2|8|0,0:3|0:0|0:0,0:0:0:0:
405,137,86636,1,2,0:3:0:0:
195,262,88007,54,0,B|188:305|188:305|194:358,2,84.9999999999999,6|0|8,0:3|0:0|0:0,0:0:0:0:
340,310,89378,2,0,B|346:268|346:268|338:226,1,84.9999999999999,2|0,0:3|0:0,0:0:0:0:
256,199,90064,2,0,P|342:140|405:172,2,170,8|2|8,0:0|0:3|0:0,0:0:0:0:
355,315,92121,5,2,0:3:0:0:
204,341,92807,2,0,L|108:336,2,84.9999999999999,8|0|2,0:0|0:0|0:3,0:0:0:0:
355,315,94178,53,8,0:0:0:0:
202,240,94864,2,0,P|177:197|198:75,1,170,2|8,0:3|0:0,0:0:0:0:
348,14,96236,6,0,P|370:94|338:171,1,170,2|8,0:3|0:0,0:0:0:0:
192,82,97607,2,0,B|147:92|147:92|22:84,2,170,2|0|4,0:3|2:0|2:0,0:0:0:0:
