osu file format v14

[General]
AudioFilename: audio.mp3
AudioLeadIn: 0
PreviewTime: 42750
Countdown: 0
SampleSet: Normal
StackLeniency: 0.7
Mode: 0
LetterboxInBreaks: 0
EpilepsyWarning: 1
WidescreenStoryboard: 1

[Editor]
Bookmarks: 84578
DistanceSpacing: 1.3
BeatDivisor: 6
GridSize: 4
TimelineZoom: 3.299999

[Metadata]
Title:Spacecraft
TitleUnicode:Spacecraft
Artist:Blaster & Extra Terra
ArtistUnicode:Blaster & Extra Terra
Creator:Pandize
Version:Advanced
Source:
Tags:Exclusive Tunes Network Dubstep Wub Mun Garden Hobbes2 Bandi
BeatmapID:1521313
BeatmapSetID:712901

[Difficulty]
HPDrainRate:4
CircleSize:2.4
OverallDifficulty:5
ApproachRate:7
SliderMultiplier:1.3
SliderTickRate:1

[Events]
//Background and Video events
0,0,"spacecraft.jpg",0,0
//Break Periods
2,22378,32250
//Storyboard Layer 0 (Background)
//Storyboard Layer 1 (Fail)
//Storyboard Layer 2 (Pass)
//Storyboard Layer 3 (Foreground)
//Storyboard Sound Samples

[TimingPoints]
236,342.857142857143,4,1,1,45,1,0
236,-200,4,1,1,45,0,0
11207,-117.647058823529,4,1,1,85,0,0
19436,-117.647058823529,4,1,1,75,0,0
19778,-117.647058823529,4,1,1,65,0,0
20121,-117.647058823529,4,1,1,55,0,0
20464,-117.647058823529,4,1,1,45,0,0
33150,-117.647058823529,4,1,1,75,0,0
44121,-100,4,1,1,85,0,1
53721,-133.333333333333,4,1,1,85,0,0
55093,-100,4,1,1,85,0,1
64693,-100,4,1,1,50,0,0
66064,-100,4,1,1,85,0,1
70864,-100,4,1,1,85,0,0
71550,-100,4,1,1,85,0,1
75664,-100,4,1,1,85,0,0
77036,-100,4,1,1,85,0,1
81836,-100,4,1,1,85,0,0
82521,-100,4,1,1,85,0,1
86636,-100,4,1,1,85,0,0
88007,-100,4,1,1,85,0,1
98978,-100,4,1,1,85,0,0

[Colours]
Combo1 : 140,125,108
Combo2 : 214,255,47
Combo3 : 139,243,147
Combo4 : 220,220,220
Combo5 : 209,186,152
SliderTrackOverride : 35,25,15
SliderBorder : 220,220,220

[HitObjects]
26,154,236,54,0,L|21:295,1,130,0|0,2:0|2:0,2:0:0:0:
161,189,1607,2,0,B|189:175|224:188|224:188|257:201|296:189,1,130,0|0,2:0|2:0,2:0:0:0:
419,85,2978,2,0,L|417:223,1,130,0|0,2:0|2:0,2:0:0:0:
312,82,4350,2,0,P|266:78|305:114,1,130,0|0,2:0|2:0,2:0:0:0:
153,35,5721,6,0,L|158:176,1,130,0|0,2:0|2:0,2:0:0:0:
132,332,7092,2,0,B|160:346|195:333|195:333|228:320|267:332,1,130,0|0,2:0|2:0,2:0:0:0:
420,378,8464,2,0,L|422:240,1,130,0|0,2:0|2:0,2:0:0:0:
273,329,9835,2,0,P|227:333|266:297,1,130,0|0,2:0|2:0,2:0:0:0:
24,361,11207,54,0,P|17:300|37:234,1,110.50000210762,4|0,0:3|0:0,0:0:0:0:
90,122,11893,1,8,0:0:0:0:
176,236,12236,2,0,L|247:240,1,55.2500010538101
279,265,12578,6,0,L|276:134,1,110.50000210762,2|0,0:3|0:0,0:0:0:0:
311,14,13264,1,8,0:0:0:0:
172,50,13607,2,0,L|101:46,1,55.2500010538101
69,21,13950,54,0,P|82:79|58:147,1,110.50000210762,2|0,0:3|0:0,0:0:0:0:
187,211,14636,2,0,P|174:269|198:337,1,110.50000210762,8|0,0:0|0:0,0:0:0:0:
329,317,15321,6,0,P|341:263|328:210,1,110.50000210762,2|0,0:3|0:0,0:0:0:0:
445,127,16007,2,0,P|432:73|445:20,1,110.50000210762,8|0,0:0|0:0,0:0:0:0:
316,83,16693,54,0,B|259:89|259:89|171:74,1,110.50000210762,2|0,0:3|0:0,0:0:0:0:
67,45,17378,1,8,0:0:0:0:
107,182,17721,2,0,L|103:250,1,55.2500010538101
47,282,18064,6,0,B|104:276|104:276|192:291,1,110.50000210762,2|0,0:3|0:0,0:0:0:0:
296,320,18749,1,8,0:0:0:0:
256,183,19092,2,0,L|260:115,1,55.2500010538101
236,47,19436,54,0,P|267:51|316:42,1,55.2500010538101,2|0,0:3|0:0,0:0:0:0:
361,91,19778,2,0,P|392:86|441:96,1,55.2500010538101
495,64,20121,6,0,P|498:100|485:138,1,55.2500010538101,8|0,0:0|0:0,0:0:0:0:
429,170,20464,2,0,P|426:206|439:244,1,55.2500010538101
256,192,20807,12,4,22178,2:0:0:0:
183,214,33150,53,8,0:0:0:0:
386,300,33836,1,8,0:0:0:0:
479,100,34521,1,8,0:0:0:0:
279,15,35207,1,8,0:0:0:0:
188,216,35893,6,0,B|120:226|120:226|45:215,1,110.50000210762,8|0,0:0|0:0,0:0:0:0:
4,138,36578,1,8,0:0:0:0:
213,66,37264,54,0,L|359:71,2,110.50000210762,8|0|8,0:0|0:0|0:0,0:0:0:0:
81,7,38293,2,0,P|67:42|70:74,1,55.2500010538101
79,113,38636,5,8,0:0:0:0:
213,66,38978,1,8,0:0:0:0:
334,142,39321,1,8,0:0:0:0:
468,95,39663,1,8,0:0:0:0:
393,218,40007,54,0,P|386:245|394:289,1,55.2500010538101,8|0,0:0|0:0,0:0:0:0:
422,353,40350,2,0,P|395:360|351:352,1,55.2500010538101,8|0,0:0|0:0,0:0:0:0:
304,295,40693,2,0,P|277:288|233:296,1,55.2500010538101,8|0,0:0|0:0,0:0:0:0:
167,321,41036,2,0,P|160:294|168:250,1,55.2500010538101,8|0,0:0|0:0,0:0:0:0:
256,192,41378,12,8,43436,0:0:0:0:
94,190,44121,22,0,B|126:186|158:202|158:202|198:186|238:190,1,130,6|0,0:3|0:0,0:0:0:0:
39,264,44807,2,0,P|15:239|5:190,1,65,8|0,0:0|0:0,0:0:0:0:
38,118,45150,2,0,P|68:101|118:105,1,65,2|0,0:3|0:0,0:0:0:0:
196,102,45493,6,0,P|193:69|178:41,2,65,2|0|0,0:3|0:0|0:0,0:0:0:0:
140,288,46178,1,8,3:1:0:0:
236,266,46350,1,0,3:0:0:0:
317,318,46521,1,0,3:0:0:0:
411,296,46693,1,0,3:0:0:0:
501,332,46864,54,0,P|504:278|441:207,1,130,2|0,0:3|0:0,0:0:0:0:
270,179,47550,1,8,0:0:0:0:
343,115,47721,2,0,L|348:46,2,65
367,210,48236,5,2,0:3:0:0:
202,115,48578,2,0,L|190:82,3,21.6666666666667
111,146,48921,1,0,0:0:0:0:
107,48,49093,2,0,P|74:52|47:69,2,65
111,146,49607,54,0,B|116:186|116:186|101:241|101:241|106:279,1,130,2|0,0:3|0:0,0:0:0:0:
202,115,50293,2,0,P|255:104|285:111,1,65,8|0,0:0|0:0,0:0:0:0:
309,185,50636,2,0,P|362:196|392:189,1,65,2|0,0:3|0:0,0:0:0:0:
452,152,50978,6,0,P|463:205|456:235,1,65,2|0,0:3|0:0,0:0:0:0:
400,283,51321,1,0,0:0:0:0:
192,289,51664,1,8,3:1:0:0:
213,193,51836,1,0,3:0:0:0:
145,122,52007,1,0,3:0:0:0:
166,35,52179,1,0,3:0:0:0:
237,90,52350,54,0,B|270:98|270:98|378:91,1,130,2|0,0:3|0:0,0:0:0:0:
511,3,53036,2,0,L|507:87,1,65,8|0,0:0|0:0,0:0:0:0:
450,140,53378,2,0,L|454:224,1,65
501,292,53721,6,0,B|463:304|463:304|349:299,1,146.250005578995,2|0,2:3|2:0,2:0:0:0:
326,221,54407,2,0,P|333:291|288:347,1,146.250005578995,0|0,2:0|2:0,2:0:0:0:
239,262,55093,54,0,B|205:278|205:278|92:282,1,130,6|0,0:3|0:0,0:0:0:0:
243,146,55778,2,0,B|243:111|243:111|228:54,1,65,8|0,0:0|0:0,0:0:0:0:
137,82,56121,2,0,B|128:115|128:115|127:145,1,65,2|0,0:3|0:0,0:0:0:0:
185,220,56464,6,0,L|182:306,1,65,2|0,0:3|0:0,0:0:0:0:
128,366,56807,1,0,0:0:0:0:
275,255,57150,2,0,P|306:249|350:258,1,65,8|0,3:1|3:0,3:0:0:0:
403,333,57493,2,0,P|434:339|478:330,1,65,0|0,3:0|3:0,3:0:0:0:
437,237,57836,54,0,B|429:204|429:204|432:154,1,65,2|0,0:3|0:0,0:0:0:0:
465,81,58178,2,0,P|414:119|350:119,1,130,0|8,0:0|0:0,0:0:0:0:
250,125,58693,2,0,P|252:92|265:63,2,65
310,204,59207,5,2,0:3:0:0:
190,318,59550,2,0,L|195:348,3,21.6666666666667
102,342,59893,1,0,0:0:0:0:
24,294,60064,2,0,P|11:324|10:357,2,65
105,252,60578,54,0,B|111:215|111:215|106:160|106:160|115:116,1,130,2|0,0:3|0:0,0:0:0:0:
247,247,61264,2,0,P|292:262|396:231,1,130,8|0,0:0|0:0,0:0:0:0:
455,100,61950,1,2,0:3:0:0:
128,179,62636,5,8,3:1:0:0:
216,221,62807,1,0,3:0:0:0:
312,200,62978,1,0,3:0:0:0:
400,242,63149,1,0,3:0:0:0:
497,225,63321,54,0,P|489:289|436:336,2,130,2|0|8,0:3|0:0|0:0,0:0:0:0:
435,149,64178,2,0,L|440:70,2,65,0|2|0,0:0|0:3|0:0,0:0:0:0:
256,192,64693,12,6,66064,0:3:0:0:
198,142,66407,6,0,L|193:208,2,65,8|2|0,0:0|0:3|0:0,0:0:0:0:
266,71,66921,1,2,0:3:0:0:
293,165,67093,2,0,L|366:169,1,65,8|0,0:0|0:0,0:0:0:0:
440,220,67436,54,0,P|451:186|447:140,2,65,2|0|8,0:3|0:0|0:0,0:0:0:0:
315,334,68121,1,0,3:0:0:0:
217,338,68293,1,2,3:3:0:0:
133,288,68464,1,8,3:1:0:0:
35,292,68636,1,0,3:0:0:0:
80,205,68807,6,0,B|88:161|88:161|82:118|82:118|90:68,1,130,2|8,0:3|0:0,0:0:0:0:
153,3,69321,1,2,0:3:0:0:
153,3,69407,1,2,0:3:0:0:
153,3,69493,2,0,P|196:12|231:6,1,65,2|2,0:3|0:3,0:0:0:0:
314,0,69836,2,0,L|310:74,1,65,8|0,0:0|0:0,0:0:0:0:
369,148,70178,54,0,B|327:161|327:161|238:152,1,130,2|8,0:3|0:0,0:0:0:0:
241,152,71035,2,0,L|237:76,2,65,0|0|0,2:0|2:0|2:0,2:0:0:0:
193,237,71550,6,0,P|243:249|319:210,1,130,6|8,0:3|0:0,0:0:0:0:
338,123,72064,2,0,P|378:141|403:170,1,65
409,251,72407,2,0,P|385:288|353:308,2,65,2|8|0,0:3|0:0|0:0,0:0:0:0:
498,211,72921,54,0,P|455:165|392:155,1,130,2|8,0:3|0:0,0:0:0:0:
275,278,73607,2,0,L|210:276,1,65,0|2,0:0|0:3,0:0:0:0:
115,300,73950,2,0,P|112:266|120:236,1,65,8|0,0:0|0:0,0:0:0:0:
30,196,74293,6,0,P|65:157|147:145,1,130,2|8,0:3|0:0,0:0:0:0:
229,108,74807,2,0,P|234:140|231:173,2,65,0|0|2,0:0|0:0|0:3,0:0:0:0:
157,42,75321,2,0,P|231:12|292:34,1,130,8|0,0:0|2:0,0:0:0:0:
276,24,76350,6,0,L|281:162,1,130,0|0,2:0|2:0,2:0:0:0:
370,297,77036,38,0,B|323:283|323:283|220:292,1,130,6|8,0:3|0:0,0:0:0:0:
145,305,77550,2,0,P|153:251|176:222,1,65,2|0,0:3|0:0,0:0:0:0:
244,196,77893,1,2,0:3:0:0:
158,149,78064,2,0,P|145:119|145:86,1,65,8|0,0:0|0:0,0:0:0:0:
107,0,78407,6,0,P|171:-2|225:32,1,130,2|8,0:3|0:0,0:0:0:0:
244,196,79093,1,0,3:0:0:0:
340,212,79264,1,2,3:3:0:0:
389,295,79436,1,8,3:1:0:0:
485,311,79608,1,0,3:0:0:0:
453,219,79778,54,0,L|448:80,1,130,2|8,0:3|0:0,0:0:0:0:
389,9,80293,1,2,0:3:0:0:
389,9,80378,1,2,0:3:0:0:
389,9,80464,2,0,P|329:18|304:11,1,65,2|2,0:3|0:3,0:0:0:0:
237,60,80807,2,0,P|177:51|152:58,1,65,8|0,0:0|0:0,0:0:0:0:
193,147,81150,6,0,L|189:292,1,130,2|8,0:3|0:0,0:0:0:0:
189,276,82007,2,0,B|156:270|156:270|108:279,2,65,0|0|0,2:0|2:0|2:0,2:0:0:0:
270,223,82521,54,0,P|284:286|258:344,1,130,6|8,0:3|0:0,0:0:0:0:
186,190,83207,2,0,L|183:115,1,65,0|2,0:0|0:3,0:0:0:0:
280,118,83550,2,0,L|283:43,1,65,8|0,0:0|0:0,0:0:0:0:
378,33,83893,6,0,P|421:57|503:42,1,130,2|8,0:3|0:0,0:0:0:0:
363,147,84578,2,0,L|366:222,1,65,0|2,0:0|0:3,0:0:0:0:
269,219,84921,2,0,L|266:294,1,65,8|0,0:0|0:0,0:0:0:0:
313,369,85264,54,0,B|281:379|281:379|171:374,1,130,2|8,0:3|0:0,0:0:0:0:
87,365,85778,1,0,0:0:0:0:
149,289,85950,2,0,L|156:210,1,65,0|2,0:0|0:3,0:0:0:0:
56,221,86293,2,0,L|49:142,1,65,8|0,0:0|0:0,0:0:0:0:
142,124,86636,5,2,2:0:0:0:
142,124,87321,2,0,P|184:131|230:120,1,65,0|0,2:0|2:0,2:0:0:0:
300,102,87664,2,0,P|293:144|304:190,1,65,0|0,2:0|2:0,2:0:0:0:
357,241,88007,54,0,P|290:224|224:245,1,130,6|0,0:3|0:0,0:0:0:0:
132,376,88693,2,0,L|46:367,1,65,8|0,0:0|0:0,0:0:0:0:
3,294,89036,1,2,0:3:0:0:
104,159,89378,6,0,L|102:73,1,65,2|0,0:3|0:0,0:0:0:0:
40,17,89721,2,0,P|69:0|116:-2,1,65
186,40,90064,2,0,B|229:57|229:57|395:48,1,195,8|0,0:0|0:0,0:0:0:0:
466,8,90750,54,0,P|476:50|469:80,1,65,2|0,0:3|0:0,0:0:0:0:
407,142,91093,2,0,P|362:145|334:133,1,65
280,64,91436,1,8,0:0:0:0:
305,230,91778,1,0,0:0:0:0:
156,148,92121,6,0,P|122:141|84:150,1,65,2|0,0:3|0:0,0:0:0:0:
91,244,92464,2,0,P|122:249|154:242,1,65,0|2,0:0|0:3,0:0:0:0:
240,194,92807,2,0,P|252:245|215:325,2,130,8|0|2,0:0|0:0|0:3,0:0:0:0:
240,194,94178,54,0,L|336:189,1,65,8|0,0:0|0:0,0:0:0:0:
389,142,94521,1,2,0:3:0:0:
311,292,94864,6,0,L|175:297,1,130,0|0,0:3|0:0,0:0:0:0:
97,245,95378,1,0,0:0:0:0:
183,200,95550,1,8,0:0:0:0:
127,40,95893,1,0,0:0:0:0:
295,50,96236,54,0,L|372:51,1,65,2|0,0:3|0:0,0:0:0:0:
361,148,96578,2,0,L|296:148,1,65
210,100,96921,1,8,0:0:0:0:
51,159,97264,1,2,0:3:0:0:
185,260,97607,6,0,P|199:307|170:388,1,130,2|0,0:3|0:0,0:0:0:0:
284,252,98293,2,0,P|328:246|360:258,1,65,0|0,2:0|2:0,2:0:0:0:
424,312,98636,2,0,P|468:317|500:305,1,65,0|0,2:0|2:0,2:0:0:0:
