osu file format v14

[General]
AudioFilename: audio.mp3
AudioLeadIn: 0
PreviewTime: 42750
Countdown: 0
SampleSet: Normal
StackLeniency: 0.7
Mode: 1
LetterboxInBreaks: 0
WidescreenStoryboard: 1

[Editor]
Bookmarks: 78750
DistanceSpacing: 1.5
BeatDivisor: 8
GridSize: 4
TimelineZoom: 0.6999987

[Metadata]
Title:Spacecraft (Cut Ver.)
TitleUnicode:Spacecraft (Cut Ver.)
Artist:Blaster & Extra Terra
ArtistUnicode:Blaster & Extra Terra
Creator:Horiiizon
Version:Kantan
Source:
Tags:Electronic Instrumental Exclusive Tunes Network Dubstep Wub mappers' guild mg featured artist mpg fa bass electrostep edm version
BeatmapID:3811224
BeatmapSetID:1854710

[Difficulty]
HPDrainRate:8
CircleSize:5
OverallDifficulty:3
ApproachRate:5
SliderMultiplier:1.4
SliderTickRate:1

[Events]
//Background and Video events
0,0,"brian-mcgowan-yjOUm3zkRD0-unsplash.jpg",0,30
//Break Periods
//Storyboard Layer 0 (Background)
//Storyboard Layer 1 (Fail)
//Storyboard Layer 2 (Pass)
//Storyboard Layer 3 (Foreground)
//Storyboard Layer 4 (Overlay)
//Storyboard Sound Samples

[TimingPoints]
248,342.857142857143,4,1,0,40,1,0
248,-125,4,1,0,40,0,0
11219,-100,4,1,0,70,0,0
20948,-100,4,1,0,60,0,0
22190,-100,4,1,0,50,0,0
38648,-100,4,1,0,60,0,0
44133,-83.3333333333333,4,1,0,80,0,1
53733,-83.3333333333333,4,1,0,80,0,0
55105,-83.3333333333333,4,1,0,80,0,1
64705,-83.3333333333333,4,1,0,80,0,0
66076,-83.3333333333333,4,1,0,80,0,1
75676,-83.3333333333333,4,1,0,80,0,0
77048,-83.3333333333333,4,1,0,80,0,1
86648,-83.3333333333333,4,1,0,80,0,0
88019,-83.3333333333333,4,1,0,80,0,1
98990,-83.3333333333333,4,1,0,40,0,0
100362,-100,4,1,0,40,0,0

[HitObjects]
156,167,248,5,8,0:0:0:0:
201,219,1620,1,8,0:0:0:0:
185,239,2991,1,0,0:0:0:0:
149,258,5734,1,0,0:0:0:0:
154,230,7106,1,8,0:0:0:0:
121,222,8477,1,0,0:0:0:0:
121,155,11219,1,4,0:0:0:0:
133,181,11905,1,8,0:0:0:0:
137,167,12248,1,0,0:0:0:0:
150,142,12590,1,8,0:0:0:0:
139,202,13276,1,8,0:0:0:0:
157,138,13619,1,8,0:0:0:0:
162,144,13962,1,0,0:0:0:0:
149,142,14648,1,8,0:0:0:0:
171,156,14990,1,0,0:0:0:0:
173,183,15333,1,8,0:0:0:0:
173,183,16019,1,8,0:0:0:0:
142,187,16705,1,0,0:0:0:0:
133,181,17390,1,8,0:0:0:0:
136,200,17733,1,0,0:0:0:0:
150,142,18075,1,8,0:0:0:0:
139,202,18761,1,8,0:0:0:0:
157,138,19104,1,8,0:0:0:0:
162,144,19447,1,0,0:0:0:0:
149,142,20133,1,8,0:0:0:0:
171,156,20475,1,0,0:0:0:0:
171,156,20818,1,0,0:0:0:0:
113,253,22190,5,0,0:0:0:0:
144,245,22876,1,8,0:0:0:0:
123,194,23562,1,0,0:0:0:0:
139,242,24248,1,8,0:0:0:0:
147,197,24933,1,0,0:0:0:0:
138,241,25619,1,8,0:0:0:0:
141,256,26305,1,0,0:0:0:0:
141,183,27676,1,8,0:0:0:0:
161,206,28362,1,0,0:0:0:0:
143,170,29048,1,8,0:0:0:0:
129,236,29733,1,0,0:0:0:0:
122,232,30419,1,8,0:0:0:0:
122,242,31105,1,0,0:0:0:0:
106,215,31790,1,8,0:0:0:0:
143,248,33162,1,8,0:0:0:0:
127,174,33848,1,8,0:0:0:0:
121,208,34533,1,8,0:0:0:0:
126,232,35905,1,8,0:0:0:0:
92,220,36590,1,8,0:0:0:0:
137,169,37276,1,8,0:0:0:0:
157,150,38648,1,8,0:0:0:0:
142,189,39333,1,8,0:0:0:0:
142,189,40019,1,8,0:0:0:0:
142,189,40705,1,8,0:0:0:0:
142,189,41390,1,0,0:0:0:0:
146,197,42076,1,0,0:0:0:0:
136,217,42762,1,8,0:0:0:0:
131,181,44133,1,0,0:0:0:0:
152,158,44819,1,8,0:0:0:0:
122,156,45162,1,0,0:0:0:0:
133,167,45505,1,8,0:0:0:0:
136,118,46190,1,0,0:0:0:0:
141,187,46533,1,0,0:0:0:0:
146,196,46876,1,8,0:0:0:0:
143,226,47562,1,8,0:0:0:0:
144,212,47905,1,8,0:0:0:0:
142,181,48248,1,0,0:0:0:0:
132,152,48933,1,8,0:0:0:0:
139,129,49619,1,0,0:0:0:0:
123,231,50305,1,0,0:0:0:0:
144,173,51333,1,8,0:0:0:0:
152,196,51676,1,0,0:0:0:0:
155,202,52019,1,0,0:0:0:0:
155,203,52362,1,8,0:0:0:0:
143,226,53048,1,8,0:0:0:0:
130,175,53390,1,8,0:0:0:0:
153,197,53734,1,0,0:0:0:0:
131,181,55105,1,0,0:0:0:0:
152,158,55791,1,8,0:0:0:0:
122,156,56134,1,0,0:0:0:0:
133,167,56477,1,8,0:0:0:0:
136,118,57162,1,0,0:0:0:0:
141,187,57505,1,0,0:0:0:0:
146,196,57848,1,8,0:0:0:0:
143,226,58534,1,8,0:0:0:0:
144,212,58877,1,8,0:0:0:0:
142,181,59220,1,0,0:0:0:0:
132,152,59905,1,8,0:0:0:0:
139,129,60591,1,0,0:0:0:0:
123,231,61277,1,0,0:0:0:0:
144,173,62305,1,0,0:0:0:0:
152,196,62648,1,8,0:0:0:0:
155,202,62991,1,8,0:0:0:0:
155,203,63334,1,0,0:0:0:0:
143,226,64020,5,8,0:0:0:0:
130,175,64362,1,8,0:0:0:0:
153,197,64706,1,0,0:0:0:0:
135,162,66076,1,0,0:0:0:0:
116,163,66419,1,0,0:0:0:0:
135,179,66762,1,0,0:0:0:0:
181,173,67105,1,8,0:0:0:0:
148,157,67448,1,0,0:0:0:0:
154,203,68133,1,8,0:0:0:0:
44,194,68819,1,0,0:0:0:0:
160,156,69162,1,0,0:0:0:0:
139,196,69505,1,8,0:0:0:0:
136,210,69848,1,8,0:0:0:0:
116,159,70190,1,0,0:0:0:0:
135,212,71562,1,0,0:0:0:0:
146,153,71905,1,8,0:0:0:0:
158,170,72248,1,8,0:0:0:0:
144,207,72590,1,8,0:0:0:0:
56,164,72933,1,0,0:0:0:0:
170,180,73619,1,8,0:0:0:0:
157,166,74305,1,0,0:0:0:0:
156,182,74648,1,8,0:0:0:0:
121,165,74990,1,8,0:0:0:0:
130,147,75333,1,0,0:0:0:0:
135,178,75676,1,0,0:0:0:0:
135,162,77048,1,0,0:0:0:0:
116,163,77391,1,0,0:0:0:0:
144,205,77733,1,0,0:0:0:0:
181,173,78077,1,8,0:0:0:0:
148,157,78420,1,0,0:0:0:0:
154,203,79105,1,8,0:0:0:0:
44,194,79791,1,0,0:0:0:0:
119,92,80133,1,0,0:0:0:0:
114,184,80476,1,8,0:0:0:0:
136,210,80820,1,8,0:0:0:0:
116,159,81162,1,0,0:0:0:0:
135,212,82534,1,0,0:0:0:0:
113,181,82876,1,8,0:0:0:0:
158,170,83220,1,8,0:0:0:0:
144,207,83562,1,8,0:0:0:0:
56,164,83905,1,0,0:0:0:0:
170,180,84591,1,8,0:0:0:0:
157,166,85277,1,0,0:0:0:0:
156,182,85620,5,8,0:0:0:0:
121,165,85962,1,8,0:0:0:0:
130,147,86305,1,0,0:0:0:0:
135,178,86648,1,0,0:0:0:0:
125,202,88019,1,0,0:0:0:0:
123,197,88362,1,8,0:0:0:0:
143,184,88705,1,8,0:0:0:0:
119,213,89390,1,0,0:0:0:0:
130,184,89733,1,8,0:0:0:0:
141,117,90076,1,0,0:0:0:0:
136,182,90762,1,8,0:0:0:0:
139,262,91105,1,8,0:0:0:0:
147,192,91448,1,0,0:0:0:0:
150,218,92133,1,8,0:0:0:0:
130,232,92476,1,8,0:0:0:0:
141,139,92819,1,0,0:0:0:0:
105,201,93505,1,0,0:0:0:0:
151,168,94190,1,0,0:0:0:0:
151,151,94876,1,8,0:0:0:0:
160,199,95219,1,8,0:0:0:0:
151,200,95562,1,0,0:0:0:0:
166,165,96248,1,0,0:0:0:0:
135,201,96590,1,0,0:0:0:0:
137,171,96933,1,8,0:0:0:0:
141,192,97619,1,0,0:0:0:0:
156,192,98305,1,8,0:0:0:0:
142,165,98648,1,0,0:0:0:0:
262,192,98990,5,8,0:0:0:0:
201,219,100362,1,8,0:0:0:0:
185,239,101733,1,0,0:0:0:0:
150,229,103105,1,0,0:0:0:0:
149,258,104476,1,0,0:0:0:0:
252,192,105848,1,8,0:0:0:0:
121,222,107219,1,0,0:0:0:0:
134,198,108590,1,0,0:0:0:0:
256,192,108933,12,0,109962,0:0:0:0:
