osu file format v14

[General]
AudioFilename: audio.mp3
AudioLeadIn: 0
PreviewTime: 42750
Countdown: 0
SampleSet: Normal
StackLeniency: 0.7
Mode: 1
LetterboxInBreaks: 0
WidescreenStoryboard: 1

[Editor]
Bookmarks: 78750
DistanceSpacing: 1.5
BeatDivisor: 8
GridSize: 4
TimelineZoom: 0.7999986

[Metadata]
Title:Spacecraft (Cut Ver.)
TitleUnicode:Spacecraft (Cut Ver.)
Artist:Blaster & Extra Terra
ArtistUnicode:Blaster & Extra Terra
Creator:Horiiizon
Version:Futsuu
Source:
Tags:Electronic Instrumental Exclusive Tunes Network Dubstep Wub mappers' guild mg featured artist mpg fa bass electrostep edm version
BeatmapID:3811222
BeatmapSetID:1854710

[Difficulty]
HPDrainRate:7
CircleSize:5
OverallDifficulty:4
ApproachRate:5
SliderMultiplier:1.4
SliderTickRate:1

[Events]
//Background and Video events
0,0,"brian-mcgowan-yjOUm3zkRD0-unsplash.jpg",0,30
//Break Periods
//Storyboard Layer 0 (Background)
//Storyboard Layer 1 (Fail)
//Storyboard Layer 2 (Pass)
//Storyboard Layer 3 (Foreground)
//Storyboard Layer 4 (Overlay)
//Storyboard Sound Samples

[TimingPoints]
248,342.857142857143,4,1,0,40,1,0
248,-100,4,1,0,40,0,0
11219,-100,4,1,0,70,0,0
20948,-100,4,1,0,60,0,0
22190,-100,4,1,0,50,0,0
38648,-100,4,1,0,60,0,0
44133,-100,4,1,0,80,0,1
53733,-100,4,1,0,80,0,0
55105,-100,4,1,0,80,0,1
64705,-100,4,1,0,80,0,0
66076,-100,4,1,0,80,0,1
75676,-100,4,1,0,80,0,0
77048,-100,4,1,0,80,0,1
86648,-100,4,1,0,80,0,0
88019,-100,4,1,0,80,0,1
98990,-100,4,1,0,40,0,0

[HitObjects]
156,167,248,5,8,0:0:0:0:
201,219,1620,1,8,0:0:0:0:
185,239,2991,1,0,0:0:0:0:
150,229,4363,1,0,0:0:0:0:
149,258,5734,1,0,0:0:0:0:
154,230,7106,1,8,0:0:0:0:
121,222,8477,1,0,0:0:0:0:
134,198,9848,1,0,0:0:0:0:
121,155,11219,1,4,0:0:0:0:
133,181,11905,1,8,0:0:0:0:
133,181,12076,1,8,0:0:0:0:
137,167,12248,1,0,0:0:0:0:
150,142,12590,1,8,0:0:0:0:
139,202,13276,1,8,0:0:0:0:
154,162,13448,1,0,0:0:0:0:
157,138,13619,1,8,0:0:0:0:
162,144,13962,1,0,0:0:0:0:
149,142,14648,1,8,0:0:0:0:
171,156,14819,1,8,0:0:0:0:
171,156,14990,1,0,0:0:0:0:
153,189,15333,1,0,0:0:0:0:
159,222,15676,1,0,0:0:0:0:
159,222,15848,1,0,0:0:0:0:
137,164,16019,1,8,0:0:0:0:
176,149,16190,1,0,0:0:0:0:
156,192,16362,1,8,0:0:0:0:
142,187,16705,1,0,0:0:0:0:
133,181,17390,1,8,0:0:0:0:
133,181,17561,1,8,0:0:0:0:
137,167,17733,1,0,0:0:0:0:
150,142,18075,1,8,0:0:0:0:
139,202,18761,1,8,0:0:0:0:
154,162,18933,1,0,0:0:0:0:
157,138,19104,1,8,0:0:0:0:
162,144,19447,1,0,0:0:0:0:
149,142,20133,1,8,0:0:0:0:
171,156,20304,1,8,0:0:0:0:
171,156,20475,1,0,0:0:0:0:
171,156,20818,1,0,0:0:0:0:
256,192,20990,12,0,22019,0:0:0:0:
113,253,22190,5,0,0:0:0:0:
144,245,22876,1,8,0:0:0:0:
123,194,23562,1,0,0:0:0:0:
141,232,23733,1,0,0:0:0:0:
145,164,23905,1,8,0:0:0:0:
139,242,24248,1,8,0:0:0:0:
147,197,24933,1,0,0:0:0:0:
138,241,25619,1,8,0:0:0:0:
141,256,26305,1,0,0:0:0:0:
146,236,26648,1,0,0:0:0:0:
146,236,26990,1,8,0:0:0:0:
141,183,27333,1,0,0:0:0:0:
141,183,27676,1,8,0:0:0:0:
136,209,28362,1,8,0:0:0:0:
116,237,29048,1,0,0:0:0:0:
164,182,29219,1,0,0:0:0:0:
177,190,29390,1,8,0:0:0:0:
122,245,29733,1,8,0:0:0:0:
131,175,30419,1,0,0:0:0:0:
142,213,31105,1,8,0:0:0:0:
140,240,31790,1,0,0:0:0:0:
168,200,32133,1,0,0:0:0:0:
168,200,32476,1,8,0:0:0:0:
149,179,32819,1,0,0:0:0:0:
143,248,33162,1,8,0:0:0:0:
127,174,33848,1,8,0:0:0:0:
121,208,34533,1,8,0:0:0:0:
127,228,35219,1,8,0:0:0:0:
126,232,35905,1,8,0:0:0:0:
92,220,36590,1,8,0:0:0:0:
161,191,37276,1,0,0:0:0:0:
161,191,37619,1,0,0:0:0:0:
147,207,37962,1,8,0:0:0:0:
147,136,38305,1,0,0:0:0:0:
157,150,38648,1,8,0:0:0:0:
142,189,38990,1,8,0:0:0:0:
142,189,39333,1,8,0:0:0:0:
142,189,39676,1,8,0:0:0:0:
142,189,40019,1,8,0:0:0:0:
142,189,40362,1,8,0:0:0:0:
142,189,40705,1,8,0:0:0:0:
142,189,41390,1,0,0:0:0:0:
142,189,41562,1,0,0:0:0:0:
132,185,41733,1,8,0:0:0:0:
134,178,42076,1,0,0:0:0:0:
161,175,42248,1,0,0:0:0:0:
134,178,42419,1,8,0:0:0:0:
142,172,42762,1,0,0:0:0:0:
151,220,43105,1,8,0:0:0:0:
118,138,43276,1,8,0:0:0:0:
156,203,43448,1,0,0:0:0:0:
160,117,43619,1,0,0:0:0:0:
131,160,43790,1,8,0:0:0:0:
115,181,43962,1,0,0:0:0:0:
95,198,44133,1,8,0:0:0:0:
152,158,44819,1,8,0:0:0:0:
122,156,45162,1,0,0:0:0:0:
133,167,45505,1,8,0:0:0:0:
140,161,45676,1,8,0:0:0:0:
141,161,45848,1,0,0:0:0:0:
144,182,46190,1,8,0:0:0:0:
127,149,46362,1,0,0:0:0:0:
121,190,46533,1,8,0:0:0:0:
129,179,46705,1,0,0:0:0:0:
137,178,46876,1,8,0:0:0:0:
155,202,47219,1,0,0:0:0:0:
143,226,47562,1,8,0:0:0:0:
166,240,47733,1,0,0:0:0:0:
144,212,47905,1,8,0:0:0:0:
115,159,48076,1,8,0:0:0:0:
153,197,48248,1,0,0:0:0:0:
121,179,48590,1,8,0:0:0:0:
149,161,48762,1,0,0:0:0:0:
149,161,48933,1,8,0:0:0:0:
140,119,49276,1,8,0:0:0:0:
136,133,49448,1,8,0:0:0:0:
146,178,49619,1,0,0:0:0:0:
123,231,50305,1,0,0:0:0:0:
127,245,50648,1,8,0:0:0:0:
110,232,50990,1,0,0:0:0:0:
139,191,51162,1,8,0:0:0:0:
122,172,51333,1,0,0:0:0:0:
144,182,51676,1,8,0:0:0:0:
154,201,51848,1,0,0:0:0:0:
121,190,52019,1,8,0:0:0:0:
145,172,52190,1,0,0:0:0:0:
145,174,52362,1,8,0:0:0:0:
155,202,52705,1,0,0:0:0:0:
143,226,53048,1,8,0:0:0:0:
166,240,53219,1,0,0:0:0:0:
144,212,53391,1,8,0:0:0:0:
147,206,53562,1,8,0:0:0:0:
153,197,53734,1,0,0:0:0:0:
184,215,54419,1,8,0:0:0:0:
95,198,55105,1,8,0:0:0:0:
152,158,55791,1,8,0:0:0:0:
122,156,56134,1,0,0:0:0:0:
133,167,56477,1,8,0:0:0:0:
140,161,56648,1,8,0:0:0:0:
141,161,56820,1,0,0:0:0:0:
144,182,57162,1,8,0:0:0:0:
127,149,57334,1,0,0:0:0:0:
121,190,57505,1,8,0:0:0:0:
129,179,57677,1,0,0:0:0:0:
137,178,57848,1,8,0:0:0:0:
155,202,58191,1,0,0:0:0:0:
143,226,58534,1,8,0:0:0:0:
166,240,58705,1,0,0:0:0:0:
144,212,58877,1,8,0:0:0:0:
115,159,59048,1,8,0:0:0:0:
153,197,59220,1,0,0:0:0:0:
121,179,59562,1,8,0:0:0:0:
149,161,59734,1,0,0:0:0:0:
149,161,59905,1,8,0:0:0:0:
140,119,60248,1,8,0:0:0:0:
136,133,60420,1,8,0:0:0:0:
146,178,60591,1,0,0:0:0:0:
123,231,61277,1,0,0:0:0:0:
127,245,61620,1,8,0:0:0:0:
110,232,61962,1,0,0:0:0:0:
139,191,62134,1,8,0:0:0:0:
122,172,62305,1,0,0:0:0:0:
144,182,62648,1,8,0:0:0:0:
154,201,62820,1,0,0:0:0:0:
121,190,62991,1,8,0:0:0:0:
145,172,63162,1,0,0:0:0:0:
145,174,63334,1,8,0:0:0:0:
155,202,63677,5,0,0:0:0:0:
143,226,64020,1,8,0:0:0:0:
166,240,64191,1,0,0:0:0:0:
144,212,64363,1,8,0:0:0:0:
147,206,64534,1,8,0:0:0:0:
153,197,64706,1,0,0:0:0:0:
161,192,65048,1,8,0:0:0:0:
153,183,65390,1,0,0:0:0:0:
137,157,65562,1,0,0:0:0:0:
150,131,65733,1,8,0:0:0:0:
139,162,65905,1,8,0:0:0:0:
135,162,66076,1,0,0:0:0:0:
140,193,66762,1,8,0:0:0:0:
80,179,66933,1,0,0:0:0:0:
181,173,67105,1,8,0:0:0:0:
181,173,67276,1,8,0:0:0:0:
148,157,67448,1,0,0:0:0:0:
161,143,67790,1,8,0:0:0:0:
154,203,68133,1,8,0:0:0:0:
145,176,68305,1,0,0:0:0:0:
122,193,68476,1,8,0:0:0:0:
123,166,68648,1,0,0:0:0:0:
149,145,68819,1,8,0:0:0:0:
137,124,69162,1,0,0:0:0:0:
149,145,69333,1,0,0:0:0:0:
149,145,69505,1,8,0:0:0:0:
136,210,69848,1,8,0:0:0:0:
143,141,70019,1,0,0:0:0:0:
130,158,70190,1,8,0:0:0:0:
126,157,70533,1,0,0:0:0:0:
144,142,70876,1,0,0:0:0:0:
132,167,71048,1,8,0:0:0:0:
146,165,71219,1,0,0:0:0:0:
160,194,71390,1,8,0:0:0:0:
136,168,71562,1,0,0:0:0:0:
140,193,72248,1,8,0:0:0:0:
128,204,72419,1,8,0:0:0:0:
120,206,72591,1,0,0:0:0:0:
145,211,72762,1,8,0:0:0:0:
56,164,72933,1,0,0:0:0:0:
142,169,73276,1,8,0:0:0:0:
121,165,73448,1,0,0:0:0:0:
170,180,73619,1,8,0:0:0:0:
144,182,73790,1,8,0:0:0:0:
122,193,73962,1,8,0:0:0:0:
157,166,74305,1,0,0:0:0:0:
156,182,74648,1,8,0:0:0:0:
125,129,74819,1,8,0:0:0:0:
151,195,74990,1,8,0:0:0:0:
150,157,75162,1,8,0:0:0:0:
130,147,75333,1,0,0:0:0:0:
135,178,75676,1,0,0:0:0:0:
140,187,76019,1,8,0:0:0:0:
136,147,76362,1,8,0:0:0:0:
145,174,76705,1,0,0:0:0:0:
135,162,77048,1,0,0:0:0:0:
140,193,77734,1,8,0:0:0:0:
80,179,77905,1,0,0:0:0:0:
181,173,78077,1,8,0:0:0:0:
181,173,78248,1,8,0:0:0:0:
148,157,78420,1,0,0:0:0:0:
161,143,78762,1,8,0:0:0:0:
154,203,79105,1,8,0:0:0:0:
145,176,79277,1,0,0:0:0:0:
122,193,79448,1,8,0:0:0:0:
123,166,79620,1,0,0:0:0:0:
149,145,79791,1,8,0:0:0:0:
137,124,80134,1,0,0:0:0:0:
149,145,80305,1,0,0:0:0:0:
149,145,80477,1,8,0:0:0:0:
136,210,80820,1,8,0:0:0:0:
143,141,80991,1,0,0:0:0:0:
130,158,81162,1,8,0:0:0:0:
126,157,81505,1,0,0:0:0:0:
144,142,81848,1,0,0:0:0:0:
132,167,82020,1,8,0:0:0:0:
146,165,82191,1,0,0:0:0:0:
160,194,82362,1,8,0:0:0:0:
136,168,82534,1,0,0:0:0:0:
140,193,83220,1,8,0:0:0:0:
128,204,83391,1,8,0:0:0:0:
120,206,83563,1,0,0:0:0:0:
145,211,83734,1,8,0:0:0:0:
56,164,83905,1,0,0:0:0:0:
142,169,84248,1,8,0:0:0:0:
121,165,84420,1,0,0:0:0:0:
170,180,84591,1,8,0:0:0:0:
144,182,84762,1,8,0:0:0:0:
122,193,84934,1,8,0:0:0:0:
157,166,85277,1,0,0:0:0:0:
156,182,85620,5,8,0:0:0:0:
125,129,85791,1,8,0:0:0:0:
151,195,85962,1,8,0:0:0:0:
150,157,86134,1,8,0:0:0:0:
130,147,86305,1,0,0:0:0:0:
109,192,86648,1,0,0:0:0:0:
160,194,86819,5,8,0:0:0:0:
86,192,86990,1,0,0:0:0:0:
75,190,87333,1,8,0:0:0:0:
137,126,87676,1,8,0:0:0:0:
125,202,88019,1,0,0:0:0:0:
123,197,88362,1,8,0:0:0:0:
143,217,88705,1,8,0:0:0:0:
143,217,88876,1,0,0:0:0:0:
73,205,89048,1,8,0:0:0:0:
119,213,89390,1,0,0:0:0:0:
130,184,89733,1,8,0:0:0:0:
141,117,89905,1,8,0:0:0:0:
141,117,90076,1,0,0:0:0:0:
136,182,90762,1,8,0:0:0:0:
138,132,90933,1,8,0:0:0:0:
139,262,91105,1,8,0:0:0:0:
146,187,91276,1,8,0:0:0:0:
147,192,91448,1,0,0:0:0:0:
138,190,91790,1,8,0:0:0:0:
150,218,92133,1,8,0:0:0:0:
135,244,92305,1,0,0:0:0:0:
130,232,92476,1,8,0:0:0:0:
136,122,92648,1,8,0:0:0:0:
141,139,92819,1,0,0:0:0:0:
139,172,93162,1,8,0:0:0:0:
105,201,93505,1,0,0:0:0:0:
159,210,93848,1,8,0:0:0:0:
143,217,94190,1,8,0:0:0:0:
143,217,94362,1,0,0:0:0:0:
156,155,94533,1,8,0:0:0:0:
167,176,94876,1,0,0:0:0:0:
130,184,95218,1,8,0:0:0:0:
143,186,95390,1,8,0:0:0:0:
151,200,95562,1,0,0:0:0:0:
154,184,95905,1,8,0:0:0:0:
166,165,96248,1,0,0:0:0:0:
133,177,96419,1,8,0:0:0:0:
135,201,96590,1,0,0:0:0:0:
149,189,96933,1,0,0:0:0:0:
157,203,97276,1,8,0:0:0:0:
141,192,97619,1,0,0:0:0:0:
142,182,97962,1,8,0:0:0:0:
156,192,98305,1,8,0:0:0:0:
167,234,98476,1,0,0:0:0:0:
167,183,98648,1,8,0:0:0:0:
159,205,98819,1,0,0:0:0:0:
262,192,98990,5,8,0:0:0:0:
201,219,100362,1,8,0:0:0:0:
185,239,101733,1,0,0:0:0:0:
150,229,103105,1,0,0:0:0:0:
149,258,104476,1,0,0:0:0:0:
252,192,105848,1,8,0:0:0:0:
121,222,107219,1,0,0:0:0:0:
134,198,108590,1,0,0:0:0:0:
256,192,108933,12,0,109962,0:0:0:0:
