osu file format v14

[General]
AudioFilename: audio.mp3
AudioLeadIn: 0
PreviewTime: 58929
Countdown: 0
SampleSet: Soft
StackLeniency: 0.7
Mode: 3
LetterboxInBreaks: 0
SpecialStyle: 0
WidescreenStoryboard: 0

[Editor]
DistanceSpacing: 1.6
BeatDivisor: 4
GridSize: 4
TimelineZoom: 1.3

[Metadata]
Title:X : CALIBUR
TitleUnicode:X : CALIBUR
Artist:Blast Smith
ArtistUnicode:Blast Smith
Creator:walao
Version:MXM
Source:K-Shoot Mania
Tags:
BeatmapID:1183656
BeatmapSetID:559690

[Difficulty]
HPDrainRate:8
CircleSize:4
OverallDifficulty:9
ApproachRate:5
SliderMultiplier:1.4
SliderTickRate:1

[Events]
//Background and Video events
0,0,"bg.jpeg",0,0
//Break Periods
//Storyboard Layer 0 (Background)
//Storyboard Layer 1 (Fail)
//Storyboard Layer 2 (Pass)
//Storyboard Layer 3 (Foreground)
//Storyboard Sound Samples

[TimingPoints]
1035,263.157894736842,4,2,0,5,1,0
28403,-66.6666666666667,4,2,0,5,0,0
28469,-1000,4,2,0,5,0,0
28534,-66.6666666666667,4,2,0,5,0,0
28600,-1000,4,2,0,5,0,0
28666,-66.6666666666667,4,2,0,5,0,0
28732,-1000,4,2,0,5,0,0
28798,-66.6666666666667,4,2,0,5,0,0
28863,-1000,4,2,0,5,0,0
28929,-66.6666666666667,4,2,0,5,0,0
28995,-1000,4,2,0,5,0,0
29061,-66.6666666666667,4,2,0,5,0,0
29127,-1000,4,2,0,5,0,0
29192,-66.6666666666667,4,2,0,5,0,0
29258,-1000,4,2,0,5,0,0
29324,-66.6666666666667,4,2,0,5,0,0
29390,-1000,4,2,0,5,0,0
29456,-100,4,2,0,5,0,0
33666,-66.6666666666667,4,2,0,5,0,0
33863,-1000,4,2,0,5,0,0
33929,-66.6666666666667,4,2,0,5,0,0
34127,-1000,4,2,0,5,0,0
34192,-66.6666666666667,4,2,0,5,0,0
34390,-1000,4,2,0,5,0,0
34456,-66.6666666666667,4,2,0,5,0,0
34653,-1000,4,2,0,5,0,0
34719,-100,4,2,0,5,0,0
59982,-100,4,2,0,5,0,1
76824,-100,4,2,0,5,0,0
85245,-100,4,2,0,5,0,1
93666,-100,4,2,0,5,0,0
112613,-66.6666666666667,4,2,0,5,0,0
112701,-1000,4,2,0,5,0,0
112789,-66.6666666666667,4,2,0,5,0,0
112877,-1000,4,2,0,5,0,0
112964,-66.6666666666667,4,2,0,5,0,0
113052,-1000,4,2,0,5,0,0
113140,-66.6666666666667,4,2,0,5,0,0
113227,-1000,4,2,0,5,0,0
113315,-66.6666666666667,4,2,0,5,0,0
113403,-1000,4,2,0,5,0,0
113491,-66.6666666666667,4,2,0,5,0,0
113578,-66.6666666666667,4,2,0,5,0,0
113666,-100,4,2,0,5,0,0

[HitObjects]
64,192,1035,5,0,0:0:0:0:
192,192,1035,1,0,0:0:0:0:
448,192,1035,1,0,0:0:0:0:
320,192,1166,1,0,0:0:0:0:
192,192,1298,1,0,0:0:0:0:
448,192,1298,1,0,0:0:0:0:
64,192,1429,1,0,0:0:0:0:
320,192,1561,1,0,0:0:0:0:
448,192,1561,1,0,0:0:0:0:
192,192,1627,1,0,0:0:0:0:
64,192,1627,1,0,0:0:0:0:
320,192,1692,1,0,0:0:0:0:
448,192,1692,1,0,0:0:0:0:
64,192,1824,1,0,0:0:0:0:
192,192,1857,1,0,0:0:0:0:
320,192,1890,1,0,0:0:0:0:
448,192,1923,1,0,0:0:0:0:
64,192,1956,1,0,0:0:0:0:
192,192,1988,1,0,0:0:0:0:
320,192,2021,1,0,0:0:0:0:
448,192,2054,1,0,0:0:0:0:
64,192,2087,1,0,0:0:0:0:
192,192,2087,1,0,0:0:0:0:
448,192,2153,1,0,0:0:0:0:
320,192,2219,1,0,0:0:0:0:
64,192,2219,1,0,0:0:0:0:
192,192,2284,1,0,0:0:0:0:
320,192,2350,1,0,0:0:0:0:
448,192,2350,1,0,0:0:0:0:
192,192,2416,1,0,0:0:0:0:
64,192,2482,1,0,0:0:0:0:
320,192,2482,1,0,0:0:0:0:
448,192,2548,1,0,0:0:0:0:
192,192,2613,1,0,0:0:0:0:
320,192,2613,1,0,0:0:0:0:
64,192,2679,1,0,0:0:0:0:
448,192,2745,1,0,0:0:0:0:
192,192,2745,1,0,0:0:0:0:
320,192,2811,1,0,0:0:0:0:
192,192,2877,1,0,0:0:0:0:
64,192,2877,1,0,0:0:0:0:
448,192,3008,1,0,0:0:0:0:
192,192,3008,1,0,0:0:0:0:
64,192,3140,1,0,0:0:0:0:
448,192,3140,1,0,0:0:0:0:
320,192,3140,1,0,0:0:0:0:
192,192,3271,1,0,0:0:0:0:
448,192,3403,1,0,0:0:0:0:
192,192,3403,1,0,0:0:0:0:
320,192,3534,1,0,0:0:0:0:
192,192,3666,1,0,0:0:0:0:
64,192,3666,1,0,0:0:0:0:
320,192,3798,1,0,0:0:0:0:
448,192,3798,1,0,0:0:0:0:
64,192,3929,1,0,0:0:0:0:
192,192,3929,1,0,0:0:0:0:
320,192,3995,1,0,0:0:0:0:
448,192,3995,1,0,0:0:0:0:
192,192,4061,1,0,0:0:0:0:
64,192,4061,1,0,0:0:0:0:
448,192,4127,1,0,0:0:0:0:
64,192,4192,1,0,0:0:0:0:
192,192,4192,1,0,0:0:0:0:
320,192,4192,1,0,0:0:0:0:
64,192,4324,1,0,0:0:0:0:
320,192,4324,1,0,0:0:0:0:
192,192,4456,1,0,0:0:0:0:
448,192,4456,1,0,0:0:0:0:
448,192,4587,1,0,0:0:0:0:
320,192,4587,1,0,0:0:0:0:
192,192,4653,1,0,0:0:0:0:
64,192,4653,1,0,0:0:0:0:
448,192,4719,1,0,0:0:0:0:
320,192,4719,1,0,0:0:0:0:
192,192,4784,1,0,0:0:0:0:
64,192,4784,1,0,0:0:0:0:
320,192,4850,1,0,0:0:0:0:
448,192,4850,1,0,0:0:0:0:
64,192,4982,1,0,0:0:0:0:
320,192,4982,1,0,0:0:0:0:
448,192,5048,1,0,0:0:0:0:
192,192,5048,1,0,0:0:0:0:
320,192,5113,1,0,0:0:0:0:
64,192,5113,1,0,0:0:0:0:
192,192,5179,1,0,0:0:0:0:
448,192,5245,1,0,0:0:0:0:
320,192,5245,1,0,0:0:0:0:
64,192,5245,1,0,0:0:0:0:
192,192,5377,1,0,0:0:0:0:
320,192,5377,1,0,0:0:0:0:
192,192,5508,1,0,0:0:0:0:
448,192,5508,1,0,0:0:0:0:
64,192,5508,1,0,0:0:0:0:
320,192,5640,1,0,0:0:0:0:
448,192,5640,1,0,0:0:0:0:
64,192,5771,1,0,0:0:0:0:
320,192,5771,1,0,0:0:0:0:
192,192,5903,1,0,0:0:0:0:
320,192,5903,1,0,0:0:0:0:
448,192,5903,1,0,0:0:0:0:
64,192,6034,1,0,0:0:0:0:
320,192,6034,1,0,0:0:0:0:
64,192,6166,1,0,0:0:0:0:
192,192,6166,1,0,0:0:0:0:
448,192,6298,1,0,0:0:0:0:
192,192,6298,1,0,0:0:0:0:
64,192,6298,1,0,0:0:0:0:
320,192,6363,1,0,0:0:0:0:
192,192,6429,1,0,0:0:0:0:
64,192,6429,1,0,0:0:0:0:
320,192,6495,1,0,0:0:0:0:
192,192,6561,1,0,0:0:0:0:
448,192,6561,1,0,0:0:0:0:
64,192,6627,1,0,0:0:0:0:
192,192,6692,1,0,0:0:0:0:
320,192,6692,1,0,0:0:0:0:
448,192,6758,1,0,0:0:0:0:
192,192,6824,1,0,0:0:0:0:
64,192,6824,1,0,0:0:0:0:
320,192,6890,1,0,0:0:0:0:
448,192,6956,1,0,0:0:0:0:
64,192,6956,1,0,0:0:0:0:
192,192,7021,1,0,0:0:0:0:
320,192,7087,1,0,0:0:0:0:
448,192,7087,1,0,0:0:0:0:
64,192,7219,1,0,0:0:0:0:
320,192,7219,1,0,0:0:0:0:
192,192,7350,1,0,0:0:0:0:
448,192,7350,1,0,0:0:0:0:
320,192,7350,1,0,0:0:0:0:
64,192,7482,1,0,0:0:0:0:
320,192,7613,1,0,0:0:0:0:
192,192,7613,1,0,0:0:0:0:
192,192,7745,1,0,0:0:0:0:
448,192,7877,1,0,0:0:0:0:
320,192,7877,1,0,0:0:0:0:
192,192,8008,1,0,0:0:0:0:
320,192,8008,1,0,0:0:0:0:
64,192,8140,1,0,0:0:0:0:
448,192,8140,1,0,0:0:0:0:
192,192,8206,1,0,0:0:0:0:
320,192,8206,1,0,0:0:0:0:
448,192,8271,1,0,0:0:0:0:
64,192,8271,1,0,0:0:0:0:
320,192,8337,1,0,0:0:0:0:
64,192,8403,1,0,0:0:0:0:
192,192,8403,1,0,0:0:0:0:
448,192,8403,1,0,0:0:0:0:
320,192,8534,1,0,0:0:0:0:
192,192,8534,1,0,0:0:0:0:
64,192,8666,1,0,0:0:0:0:
320,192,8666,1,0,0:0:0:0:
448,192,8798,1,0,0:0:0:0:
192,192,8798,1,0,0:0:0:0:
320,192,8863,1,0,0:0:0:0:
64,192,8863,1,0,0:0:0:0:
448,192,8929,1,0,0:0:0:0:
192,192,8929,1,0,0:0:0:0:
320,192,8995,1,0,0:0:0:0:
64,192,8995,1,0,0:0:0:0:
192,192,9061,1,0,0:0:0:0:
448,192,9061,1,0,0:0:0:0:
64,192,9192,1,0,0:0:0:0:
192,192,9192,1,0,0:0:0:0:
448,192,9258,1,0,0:0:0:0:
320,192,9258,1,0,0:0:0:0:
192,192,9324,1,0,0:0:0:0:
64,192,9324,1,0,0:0:0:0:
320,192,9390,1,0,0:0:0:0:
448,192,9390,1,0,0:0:0:0:
192,192,9456,1,0,0:0:0:0:
64,192,9456,1,0,0:0:0:0:
448,192,9587,1,0,0:0:0:0:
320,192,9719,1,0,0:0:0:0:
192,192,9719,1,0,0:0:0:0:
64,192,9719,1,0,0:0:0:0:
192,192,9850,1,0,0:0:0:0:
64,192,9982,1,0,0:0:0:0:
320,192,9982,1,0,0:0:0:0:
448,192,9982,1,0,0:0:0:0:
64,192,10113,1,0,0:0:0:0:
192,192,10245,1,0,0:0:0:0:
320,192,10245,1,0,0:0:0:0:
448,192,10245,1,0,0:0:0:0:
320,192,10377,1,0,0:0:0:0:
192,192,10508,1,0,0:0:0:0:
64,192,10508,1,0,0:0:0:0:
448,192,10508,1,0,0:0:0:0:
192,192,10640,1,0,0:0:0:0:
64,192,10771,1,0,0:0:0:0:
320,192,10771,1,0,0:0:0:0:
448,192,10771,1,0,0:0:0:0:
448,192,10903,1,0,0:0:0:0:
320,192,11034,1,0,0:0:0:0:
192,192,11034,1,0,0:0:0:0:
64,192,11034,1,0,0:0:0:0:
192,192,11166,1,0,0:0:0:0:
64,192,11298,1,0,0:0:0:0:
320,192,11298,1,0,0:0:0:0:
448,192,11298,1,0,0:0:0:0:
448,192,11429,1,0,0:0:0:0:
64,192,11561,1,0,0:0:0:0:
192,192,11561,1,0,0:0:0:0:
320,192,11561,1,0,0:0:0:0:
192,192,11692,1,0,0:0:0:0:
64,192,11824,1,0,0:0:0:0:
320,192,11824,1,0,0:0:0:0:
448,192,11824,1,0,0:0:0:0:
448,192,11956,1,0,0:0:0:0:
320,192,11956,1,0,0:0:0:0:
64,192,11956,1,0,0:0:0:0:
448,192,12087,1,0,0:0:0:0:
320,192,12219,1,0,0:0:0:0:
192,192,12219,1,0,0:0:0:0:
64,192,12219,1,0,0:0:0:0:
64,192,12350,1,0,0:0:0:0:
192,192,12350,1,0,0:0:0:0:
320,192,12350,1,0,0:0:0:0:
320,192,12482,1,0,0:0:0:0:
448,192,12613,1,0,0:0:0:0:
192,192,12613,1,0,0:0:0:0:
64,192,12613,1,0,0:0:0:0:
64,192,12745,1,0,0:0:0:0:
192,192,12877,1,0,0:0:0:0:
320,192,12877,1,0,0:0:0:0:
448,192,12877,1,0,0:0:0:0:
448,192,13008,1,0,0:0:0:0:
320,192,13140,1,0,0:0:0:0:
192,192,13140,1,0,0:0:0:0:
64,192,13140,1,0,0:0:0:0:
192,192,13271,1,0,0:0:0:0:
320,192,13271,1,0,0:0:0:0:
448,192,13271,1,0,0:0:0:0:
64,192,13403,1,0,0:0:0:0:
192,192,13403,1,0,0:0:0:0:
448,192,13403,1,0,0:0:0:0:
448,192,13534,1,0,0:0:0:0:
320,192,13534,1,0,0:0:0:0:
192,192,13534,1,0,0:0:0:0:
320,192,13666,1,0,0:0:0:0:
448,192,13666,1,0,0:0:0:0:
64,192,13666,128,0,13929:0:0:0:0:
320,192,13798,1,0,0:0:0:0:
192,192,13929,1,0,0:0:0:0:
320,192,13929,1,0,0:0:0:0:
448,192,13929,1,0,0:0:0:0:
192,192,14061,1,0,0:0:0:0:
64,192,14192,1,0,0:0:0:0:
448,192,14192,1,0,0:0:0:0:
320,192,14192,128,0,14456:0:0:0:0:
64,192,14324,1,0,0:0:0:0:
448,192,14456,1,0,0:0:0:0:
192,192,14456,1,0,0:0:0:0:
64,192,14456,1,0,0:0:0:0:
448,192,14587,1,0,0:0:0:0:
64,192,14719,1,0,0:0:0:0:
192,192,14719,1,0,0:0:0:0:
320,192,14719,128,0,14982:0:0:0:0:
192,192,14850,1,0,0:0:0:0:
64,192,14982,1,0,0:0:0:0:
448,192,14982,1,0,0:0:0:0:
192,192,14982,1,0,0:0:0:0:
320,192,15113,1,0,0:0:0:0:
448,192,15245,1,0,0:0:0:0:
64,192,15245,1,0,0:0:0:0:
192,192,15245,128,0,15508:0:0:0:0:
64,192,15377,1,0,0:0:0:0:
320,192,15508,1,0,0:0:0:0:
448,192,15508,1,0,0:0:0:0:
64,192,15508,1,0,0:0:0:0:
448,192,15640,1,0,0:0:0:0:
192,192,15771,1,0,0:0:0:0:
320,192,15771,1,0,0:0:0:0:
64,192,15771,128,0,15837:0:0:0:0:
192,192,15903,1,0,0:0:0:0:
320,192,15903,1,0,0:0:0:0:
448,192,16034,1,0,0:0:0:0:
64,192,16034,1,0,0:0:0:0:
320,192,16034,128,0,16100:0:0:0:0:
192,192,16166,1,0,0:0:0:0:
448,192,16166,1,0,0:0:0:0:
320,192,16298,1,0,0:0:0:0:
64,192,16298,1,0,0:0:0:0:
192,192,16298,128,0,16363:0:0:0:0:
64,192,16429,1,0,0:0:0:0:
448,192,16429,1,0,0:0:0:0:
192,192,16561,1,0,0:0:0:0:
64,192,16561,1,0,0:0:0:0:
448,192,16561,128,0,16627:0:0:0:0:
320,192,16692,1,0,0:0:0:0:
448,192,16692,1,0,0:0:0:0:
64,192,16824,1,0,0:0:0:0:
192,192,16824,1,0,0:0:0:0:
320,192,16824,1,0,0:0:0:0:
448,192,16890,1,0,0:0:0:0:
320,192,16956,1,0,0:0:0:0:
192,192,16956,1,0,0:0:0:0:
64,192,17021,1,0,0:0:0:0:
192,192,17087,1,0,0:0:0:0:
448,192,17087,1,0,0:0:0:0:
320,192,17153,1,0,0:0:0:0:
192,192,17219,1,0,0:0:0:0:
64,192,17219,1,0,0:0:0:0:
448,192,17284,1,0,0:0:0:0:
320,192,17350,1,0,0:0:0:0:
192,192,17350,1,0,0:0:0:0:
64,192,17416,1,0,0:0:0:0:
448,192,17482,1,0,0:0:0:0:
192,192,17482,1,0,0:0:0:0:
320,192,17548,1,0,0:0:0:0:
64,192,17613,1,0,0:0:0:0:
192,192,17613,1,0,0:0:0:0:
320,192,17679,1,0,0:0:0:0:
448,192,17679,1,0,0:0:0:0:
64,192,17745,1,0,0:0:0:0:
192,192,17745,1,0,0:0:0:0:
320,192,17811,1,0,0:0:0:0:
448,192,17811,1,0,0:0:0:0:
64,192,17877,1,0,0:0:0:0:
192,192,17877,1,0,0:0:0:0:
320,192,18008,1,0,0:0:0:0:
448,192,18008,1,0,0:0:0:0:
192,192,18074,1,0,0:0:0:0:
64,192,18074,1,0,0:0:0:0:
448,192,18140,1,0,0:0:0:0:
320,192,18140,1,0,0:0:0:0:
192,192,18271,1,0,0:0:0:0:
320,192,18271,1,0,0:0:0:0:
64,192,18403,1,0,0:0:0:0:
448,192,18403,1,0,0:0:0:0:
448,192,18534,1,0,0:0:0:0:
192,192,18534,1,0,0:0:0:0:
448,192,18666,1,0,0:0:0:0:
320,192,18666,1,0,0:0:0:0:
64,192,18798,1,0,0:0:0:0:
192,192,18798,1,0,0:0:0:0:
448,192,18929,1,0,0:0:0:0:
320,192,18995,1,0,0:0:0:0:
192,192,18995,1,0,0:0:0:0:
64,192,19061,1,0,0:0:0:0:
448,192,19061,1,0,0:0:0:0:
192,192,19192,1,0,0:0:0:0:
448,192,19192,1,0,0:0:0:0:
320,192,19324,1,0,0:0:0:0:
64,192,19324,1,0,0:0:0:0:
192,192,19456,1,0,0:0:0:0:
320,192,19456,1,0,0:0:0:0:
64,192,19587,1,0,0:0:0:0:
192,192,19587,1,0,0:0:0:0:
448,192,19719,1,0,0:0:0:0:
320,192,19752,1,0,0:0:0:0:
192,192,19784,1,0,0:0:0:0:
64,192,19817,1,0,0:0:0:0:
448,192,19850,1,0,0:0:0:0:
320,192,19883,1,0,0:0:0:0:
192,192,19916,1,0,0:0:0:0:
64,192,19949,1,0,0:0:0:0:
320,192,19982,1,0,0:0:0:0:
448,192,19982,1,0,0:0:0:0:
448,192,20113,1,0,0:0:0:0:
192,192,20113,1,0,0:0:0:0:
64,192,20113,1,0,0:0:0:0:
448,192,20245,1,0,0:0:0:0:
64,192,20245,1,0,0:0:0:0:
320,192,20245,1,0,0:0:0:0:
192,192,20377,1,0,0:0:0:0:
320,192,20377,1,0,0:0:0:0:
64,192,20508,1,0,0:0:0:0:
448,192,20508,1,0,0:0:0:0:
192,192,20508,1,0,0:0:0:0:
64,192,20640,1,0,0:0:0:0:
448,192,20640,1,0,0:0:0:0:
320,192,20640,1,0,0:0:0:0:
320,192,20771,1,0,0:0:0:0:
192,192,20771,1,0,0:0:0:0:
448,192,20771,1,0,0:0:0:0:
320,192,20903,1,0,0:0:0:0:
192,192,20903,1,0,0:0:0:0:
64,192,20903,1,0,0:0:0:0:
448,192,21034,1,0,0:0:0:0:
320,192,21034,1,0,0:0:0:0:
64,192,21034,1,0,0:0:0:0:
192,192,21100,1,0,0:0:0:0:
320,192,21166,1,0,0:0:0:0:
448,192,21166,1,0,0:0:0:0:
192,192,21298,1,0,0:0:0:0:
64,192,21298,1,0,0:0:0:0:
192,192,21429,1,0,0:0:0:0:
320,192,21429,1,0,0:0:0:0:
448,192,21561,1,0,0:0:0:0:
192,192,21561,1,0,0:0:0:0:
64,192,21561,1,0,0:0:0:0:
320,192,21627,1,0,0:0:0:0:
448,192,21692,1,0,0:0:0:0:
192,192,21692,1,0,0:0:0:0:
64,192,21824,1,0,0:0:0:0:
192,192,21857,1,0,0:0:0:0:
320,192,21890,1,0,0:0:0:0:
448,192,21923,1,0,0:0:0:0:
64,192,21956,1,0,0:0:0:0:
192,192,21988,1,0,0:0:0:0:
320,192,22021,1,0,0:0:0:0:
448,192,22054,1,0,0:0:0:0:
64,192,22087,1,0,0:0:0:0:
192,192,22087,1,0,0:0:0:0:
192,192,22219,1,0,0:0:0:0:
320,192,22219,1,0,0:0:0:0:
192,192,22350,1,0,0:0:0:0:
448,192,22350,1,0,0:0:0:0:
64,192,22482,1,0,0:0:0:0:
320,192,22482,1,0,0:0:0:0:
64,192,22613,1,0,0:0:0:0:
192,192,22613,1,0,0:0:0:0:
320,192,22745,1,0,0:0:0:0:
448,192,22745,1,0,0:0:0:0:
192,192,22877,1,0,0:0:0:0:
320,192,22877,1,0,0:0:0:0:
64,192,23008,1,0,0:0:0:0:
448,192,23008,1,0,0:0:0:0:
64,192,23140,1,0,0:0:0:0:
320,192,23140,1,0,0:0:0:0:
192,192,23271,1,0,0:0:0:0:
448,192,23271,1,0,0:0:0:0:
320,192,23403,1,0,0:0:0:0:
192,192,23403,1,0,0:0:0:0:
64,192,23534,1,0,0:0:0:0:
448,192,23534,1,0,0:0:0:0:
64,192,23666,1,0,0:0:0:0:
192,192,23666,1,0,0:0:0:0:
320,192,23666,1,0,0:0:0:0:
320,192,23798,1,0,0:0:0:0:
64,192,23798,1,0,0:0:0:0:
448,192,23798,1,0,0:0:0:0:
64,192,23929,1,0,0:0:0:0:
192,192,23929,1,0,0:0:0:0:
448,192,23929,1,0,0:0:0:0:
320,192,24061,1,0,0:0:0:0:
192,192,24061,1,0,0:0:0:0:
448,192,24061,1,0,0:0:0:0:
64,192,24192,1,0,0:0:0:0:
192,192,24192,1,0,0:0:0:0:
320,192,24192,1,0,0:0:0:0:
448,192,24192,1,0,0:0:0:0:
64,192,24324,1,0,0:0:0:0:
192,192,24324,1,0,0:0:0:0:
320,192,24390,1,0,0:0:0:0:
448,192,24390,1,0,0:0:0:0:
192,192,24456,1,0,0:0:0:0:
64,192,24456,1,0,0:0:0:0:
64,192,24587,1,0,0:0:0:0:
192,192,24587,1,0,0:0:0:0:
320,192,24587,1,0,0:0:0:0:
448,192,24587,1,0,0:0:0:0:
448,192,24719,1,0,0:0:0:0:
192,192,24719,1,0,0:0:0:0:
64,192,24784,1,0,0:0:0:0:
320,192,24784,1,0,0:0:0:0:
192,192,24850,1,0,0:0:0:0:
448,192,24850,1,0,0:0:0:0:
64,192,24982,1,0,0:0:0:0:
192,192,25015,1,0,0:0:0:0:
320,192,25048,1,0,0:0:0:0:
448,192,25081,1,0,0:0:0:0:
64,192,25113,1,0,0:0:0:0:
192,192,25146,1,0,0:0:0:0:
320,192,25179,1,0,0:0:0:0:
448,192,25212,1,0,0:0:0:0:
64,192,25245,1,0,0:0:0:0:
192,192,25245,1,0,0:0:0:0:
64,192,25377,1,0,0:0:0:0:
320,192,25377,1,0,0:0:0:0:
448,192,25377,1,0,0:0:0:0:
192,192,25442,1,0,0:0:0:0:
64,192,25508,1,0,0:0:0:0:
320,192,25508,1,0,0:0:0:0:
448,192,25508,1,0,0:0:0:0:
448,192,25640,1,0,0:0:0:0:
320,192,25640,1,0,0:0:0:0:
192,192,25706,1,0,0:0:0:0:
64,192,25706,1,0,0:0:0:0:
448,192,25771,1,0,0:0:0:0:
320,192,25771,1,0,0:0:0:0:
448,192,25903,1,0,0:0:0:0:
192,192,25903,1,0,0:0:0:0:
64,192,25903,1,0,0:0:0:0:
320,192,25969,1,0,0:0:0:0:
192,192,26034,1,0,0:0:0:0:
448,192,26034,1,0,0:0:0:0:
64,192,26034,1,0,0:0:0:0:
64,192,26298,1,0,0:0:0:0:
192,192,26298,1,0,0:0:0:0:
320,192,26298,1,0,0:0:0:0:
448,192,26298,1,0,0:0:0:0:
64,192,26429,1,0,0:0:0:0:
192,192,26495,1,0,0:0:0:0:
320,192,26495,1,0,0:0:0:0:
64,192,26561,1,0,0:0:0:0:
448,192,26561,1,0,0:0:0:0:
320,192,26692,1,0,0:0:0:0:
448,192,26692,1,0,0:0:0:0:
192,192,26824,1,0,0:0:0:0:
64,192,26824,1,0,0:0:0:0:
448,192,26956,1,0,0:0:0:0:
64,192,26956,1,0,0:0:0:0:
192,192,27087,1,0,0:0:0:0:
448,192,27087,1,0,0:0:0:0:
448,192,27219,1,0,0:0:0:0:
320,192,27219,1,0,0:0:0:0:
64,192,27350,1,0,0:0:0:0:
448,192,27350,1,0,0:0:0:0:
192,192,27416,1,0,0:0:0:0:
320,192,27416,1,0,0:0:0:0:
64,192,27482,1,0,0:0:0:0:
448,192,27482,1,0,0:0:0:0:
192,192,27613,1,0,0:0:0:0:
320,192,27613,1,0,0:0:0:0:
448,192,27745,1,0,0:0:0:0:
192,192,27745,1,0,0:0:0:0:
64,192,27877,1,0,0:0:0:0:
320,192,27877,1,0,0:0:0:0:
64,192,28008,1,0,0:0:0:0:
192,192,28008,1,0,0:0:0:0:
448,192,28140,1,0,0:0:0:0:
320,192,28140,1,0,0:0:0:0:
64,192,28271,1,0,0:0:0:0:
448,192,28271,1,0,0:0:0:0:
64,192,28403,1,0,0:0:0:0:
192,192,28403,1,0,0:0:0:0:
320,192,28403,1,0,0:0:0:0:
320,192,28534,1,0,0:0:0:0:
448,192,28534,1,0,0:0:0:0:
192,192,28534,1,0,0:0:0:0:
64,192,28666,1,0,0:0:0:0:
192,192,28666,1,0,0:0:0:0:
448,192,28666,1,0,0:0:0:0:
448,192,28798,1,0,0:0:0:0:
320,192,28798,1,0,0:0:0:0:
64,192,28798,1,0,0:0:0:0:
64,192,28929,1,0,0:0:0:0:
192,192,28929,1,0,0:0:0:0:
448,192,28929,1,0,0:0:0:0:
64,192,29061,1,0,0:0:0:0:
192,192,29061,1,0,0:0:0:0:
320,192,29061,1,0,0:0:0:0:
192,192,29192,1,0,0:0:0:0:
320,192,29192,1,0,0:0:0:0:
448,192,29192,1,0,0:0:0:0:
64,192,29324,1,0,0:0:0:0:
320,192,29324,1,0,0:0:0:0:
448,192,29324,1,0,0:0:0:0:
192,192,29456,1,0,0:0:0:0:
64,192,29456,1,0,0:0:0:0:
320,192,29521,1,0,0:0:0:0:
448,192,29587,1,0,0:0:0:0:
320,192,29719,1,0,0:0:0:0:
64,192,29719,1,0,0:0:0:0:
192,192,29850,1,0,0:0:0:0:
448,192,29850,1,0,0:0:0:0:
64,192,29982,1,0,0:0:0:0:
192,192,30113,1,0,0:0:0:0:
320,192,30113,1,0,0:0:0:0:
320,192,30245,1,0,0:0:0:0:
448,192,30245,1,0,0:0:0:0:
192,192,30311,1,0,0:0:0:0:
64,192,30311,1,0,0:0:0:0:
320,192,30377,1,0,0:0:0:0:
448,192,30377,1,0,0:0:0:0:
192,192,30442,1,0,0:0:0:0:
64,192,30442,1,0,0:0:0:0:
320,192,30508,1,0,0:0:0:0:
448,192,30508,1,0,0:0:0:0:
192,192,30640,1,0,0:0:0:0:
64,192,30706,1,0,0:0:0:0:
320,192,30706,1,0,0:0:0:0:
192,192,30771,1,0,0:0:0:0:
448,192,30771,1,0,0:0:0:0:
320,192,30903,1,0,0:0:0:0:
192,192,30903,1,0,0:0:0:0:
64,192,31034,1,0,0:0:0:0:
448,192,31034,1,0,0:0:0:0:
448,192,31166,1,0,0:0:0:0:
320,192,31166,1,0,0:0:0:0:
320,192,31298,1,0,0:0:0:0:
192,192,31298,1,0,0:0:0:0:
192,192,31429,1,0,0:0:0:0:
64,192,31429,1,0,0:0:0:0:
192,192,31561,1,0,0:0:0:0:
320,192,31561,1,0,0:0:0:0:
64,192,31627,1,0,0:0:0:0:
448,192,31627,1,0,0:0:0:0:
192,192,31692,1,0,0:0:0:0:
320,192,31692,1,0,0:0:0:0:
64,192,31824,1,0,0:0:0:0:
320,192,31824,1,0,0:0:0:0:
448,192,31956,1,0,0:0:0:0:
320,192,31956,1,0,0:0:0:0:
192,192,32087,1,0,0:0:0:0:
320,192,32087,1,0,0:0:0:0:
64,192,32219,1,0,0:0:0:0:
448,192,32219,1,0,0:0:0:0:
64,192,32350,1,0,0:0:0:0:
320,192,32350,1,0,0:0:0:0:
192,192,32482,5,0,0:0:0:0:
320,192,32482,1,0,0:0:0:0:
64,192,32613,5,0,0:0:0:0:
448,192,32613,1,0,0:0:0:0:
64,192,32745,1,0,0:0:0:0:
320,192,32745,1,0,0:0:0:0:
192,192,32877,1,0,0:0:0:0:
64,192,32877,1,0,0:0:0:0:
448,192,33008,1,0,0:0:0:0:
64,192,33008,1,0,0:0:0:0:
448,192,33140,1,0,0:0:0:0:
192,192,33140,1,0,0:0:0:0:
448,192,33271,1,0,0:0:0:0:
320,192,33271,1,0,0:0:0:0:
192,192,33403,1,0,0:0:0:0:
320,192,33403,1,0,0:0:0:0:
192,192,33534,1,0,0:0:0:0:
64,192,33534,1,0,0:0:0:0:
64,192,33666,5,0,0:0:0:0:
448,192,33666,1,0,0:0:0:0:
320,192,33666,1,0,0:0:0:0:
64,192,33929,1,0,0:0:0:0:
320,192,33929,1,0,0:0:0:0:
192,192,33929,1,0,0:0:0:0:
64,192,34192,1,0,0:0:0:0:
192,192,34192,1,0,0:0:0:0:
448,192,34192,1,0,0:0:0:0:
320,192,34456,1,0,0:0:0:0:
192,192,34456,1,0,0:0:0:0:
448,192,34456,1,0,0:0:0:0:
64,192,34719,1,0,0:0:0:0:
192,192,34719,1,0,0:0:0:0:
320,192,34719,1,0,0:0:0:0:
448,192,34719,1,0,0:0:0:0:
192,192,34850,1,0,0:0:0:0:
320,192,34916,1,0,0:0:0:0:
448,192,34916,1,0,0:0:0:0:
192,192,34982,1,0,0:0:0:0:
64,192,34982,1,0,0:0:0:0:
320,192,35113,1,0,0:0:0:0:
448,192,35113,1,0,0:0:0:0:
192,192,35245,1,0,0:0:0:0:
448,192,35245,1,0,0:0:0:0:
64,192,35377,1,0,0:0:0:0:
320,192,35377,1,0,0:0:0:0:
192,192,35508,1,0,0:0:0:0:
320,192,35508,1,0,0:0:0:0:
64,192,35640,1,0,0:0:0:0:
448,192,35640,1,0,0:0:0:0:
320,192,35771,1,0,0:0:0:0:
64,192,35837,1,0,0:0:0:0:
192,192,35837,1,0,0:0:0:0:
320,192,35903,1,0,0:0:0:0:
448,192,35903,1,0,0:0:0:0:
64,192,36034,1,0,0:0:0:0:
320,192,36034,1,0,0:0:0:0:
192,192,36166,1,0,0:0:0:0:
320,192,36166,1,0,0:0:0:0:
64,192,36298,128,0,36561:0:0:0:0:
192,192,36298,1,0,0:0:0:0:
448,192,36298,1,0,0:0:0:0:
320,192,36429,1,0,0:0:0:0:
448,192,36561,128,0,36824:0:0:0:0:
320,192,36561,1,0,0:0:0:0:
192,192,36561,1,0,0:0:0:0:
192,192,36692,1,0,0:0:0:0:
64,192,36824,1,0,0:0:0:0:
192,192,36824,1,0,0:0:0:0:
320,192,36824,1,0,0:0:0:0:
192,192,36956,1,0,0:0:0:0:
64,192,37021,1,0,0:0:0:0:
320,192,37021,1,0,0:0:0:0:
448,192,37087,1,0,0:0:0:0:
192,192,37087,1,0,0:0:0:0:
320,192,37219,1,0,0:0:0:0:
448,192,37219,1,0,0:0:0:0:
448,192,37350,1,0,0:0:0:0:
192,192,37350,1,0,0:0:0:0:
64,192,37482,1,0,0:0:0:0:
448,192,37482,1,0,0:0:0:0:
64,192,37613,1,0,0:0:0:0:
320,192,37613,1,0,0:0:0:0:
64,192,37745,1,0,0:0:0:0:
192,192,37745,1,0,0:0:0:0:
448,192,37877,1,0,0:0:0:0:
320,192,37942,1,0,0:0:0:0:
192,192,37942,1,0,0:0:0:0:
64,192,38008,1,0,0:0:0:0:
448,192,38008,1,0,0:0:0:0:
448,192,38140,1,0,0:0:0:0:
320,192,38140,1,0,0:0:0:0:
192,192,38140,1,0,0:0:0:0:
320,192,38271,1,0,0:0:0:0:
192,192,38271,1,0,0:0:0:0:
64,192,38271,1,0,0:0:0:0:
192,192,38403,1,0,0:0:0:0:
64,192,38403,1,0,0:0:0:0:
448,192,38403,1,0,0:0:0:0:
64,192,38534,1,0,0:0:0:0:
320,192,38534,1,0,0:0:0:0:
448,192,38534,1,0,0:0:0:0:
320,192,38666,1,0,0:0:0:0:
192,192,38666,1,0,0:0:0:0:
64,192,38666,1,0,0:0:0:0:
192,192,38798,1,0,0:0:0:0:
320,192,38798,1,0,0:0:0:0:
448,192,38798,1,0,0:0:0:0:
64,192,38929,1,0,0:0:0:0:
192,192,38929,1,0,0:0:0:0:
320,192,38929,1,0,0:0:0:0:
448,192,38929,1,0,0:0:0:0:
64,192,39061,1,0,0:0:0:0:
192,192,39127,1,0,0:0:0:0:
320,192,39127,1,0,0:0:0:0:
448,192,39192,1,0,0:0:0:0:
64,192,39192,1,0,0:0:0:0:
192,192,39324,1,0,0:0:0:0:
448,192,39324,1,0,0:0:0:0:
320,192,39456,1,0,0:0:0:0:
64,192,39456,1,0,0:0:0:0:
64,192,39587,1,0,0:0:0:0:
448,192,39587,1,0,0:0:0:0:
448,192,39719,1,0,0:0:0:0:
192,192,39719,1,0,0:0:0:0:
192,192,39850,1,0,0:0:0:0:
320,192,39850,1,0,0:0:0:0:
448,192,39982,1,0,0:0:0:0:
64,192,40048,1,0,0:0:0:0:
320,192,40048,1,0,0:0:0:0:
192,192,40113,1,0,0:0:0:0:
448,192,40113,1,0,0:0:0:0:
64,192,40245,1,0,0:0:0:0:
320,192,40245,1,0,0:0:0:0:
192,192,40377,1,0,0:0:0:0:
320,192,40377,1,0,0:0:0:0:
64,192,40508,1,0,0:0:0:0:
320,192,40508,1,0,0:0:0:0:
192,192,40508,128,0,40640:0:0:0:0:
448,192,40640,1,0,0:0:0:0:
448,192,40771,128,0,40903:0:0:0:0:
320,192,40771,1,0,0:0:0:0:
192,192,40771,1,0,0:0:0:0:
64,192,40903,1,0,0:0:0:0:
64,192,41034,1,0,0:0:0:0:
192,192,41034,1,0,0:0:0:0:
320,192,41034,1,0,0:0:0:0:
448,192,41166,1,0,0:0:0:0:
64,192,41232,1,0,0:0:0:0:
192,192,41232,1,0,0:0:0:0:
320,192,41298,1,0,0:0:0:0:
448,192,41298,1,0,0:0:0:0:
64,192,41429,1,0,0:0:0:0:
448,192,41429,1,0,0:0:0:0:
448,192,41561,1,0,0:0:0:0:
192,192,41561,1,0,0:0:0:0:
320,192,41561,1,0,0:0:0:0:
64,192,41824,1,0,0:0:0:0:
192,192,41824,1,0,0:0:0:0:
192,192,41956,1,0,0:0:0:0:
64,192,41956,1,0,0:0:0:0:
320,192,42087,1,0,0:0:0:0:
448,192,42087,1,0,0:0:0:0:
448,192,42219,1,0,0:0:0:0:
192,192,42219,1,0,0:0:0:0:
320,192,42350,1,0,0:0:0:0:
64,192,42482,1,0,0:0:0:0:
320,192,42482,1,0,0:0:0:0:
192,192,42613,1,0,0:0:0:0:
64,192,42745,1,0,0:0:0:0:
320,192,42745,1,0,0:0:0:0:
64,192,42877,1,0,0:0:0:0:
192,192,42877,1,0,0:0:0:0:
448,192,43008,1,0,0:0:0:0:
320,192,43140,1,0,0:0:0:0:
448,192,43140,1,0,0:0:0:0:
64,192,43140,1,0,0:0:0:0:
192,192,43140,1,0,0:0:0:0:
64,192,43271,1,0,0:0:0:0:
448,192,43337,1,0,0:0:0:0:
192,192,43337,1,0,0:0:0:0:
64,192,43403,1,0,0:0:0:0:
320,192,43403,1,0,0:0:0:0:
448,192,43534,1,0,0:0:0:0:
64,192,43534,1,0,0:0:0:0:
448,192,43666,1,0,0:0:0:0:
320,192,43666,1,0,0:0:0:0:
320,192,43798,1,0,0:0:0:0:
192,192,43798,1,0,0:0:0:0:
192,192,43929,1,0,0:0:0:0:
64,192,43929,1,0,0:0:0:0:
448,192,44061,1,0,0:0:0:0:
192,192,44061,1,0,0:0:0:0:
448,192,44192,1,0,0:0:0:0:
320,192,44258,1,0,0:0:0:0:
192,192,44258,1,0,0:0:0:0:
448,192,44324,1,0,0:0:0:0:
64,192,44324,1,0,0:0:0:0:
448,192,44456,1,0,0:0:0:0:
192,192,44456,1,0,0:0:0:0:
320,192,44587,1,0,0:0:0:0:
192,192,44587,1,0,0:0:0:0:
448,192,44719,1,0,0:0:0:0:
320,192,44719,128,0,44982:0:0:0:0:
64,192,44719,1,0,0:0:0:0:
192,192,44850,1,0,0:0:0:0:
448,192,44982,128,0,45245:0:0:0:0:
192,192,44982,1,0,0:0:0:0:
64,192,44982,1,0,0:0:0:0:
320,192,45113,1,0,0:0:0:0:
320,192,45245,1,0,0:0:0:0:
64,192,45245,1,0,0:0:0:0:
192,192,45245,1,0,0:0:0:0:
320,192,45377,1,0,0:0:0:0:
64,192,45442,1,0,0:0:0:0:
192,192,45442,1,0,0:0:0:0:
320,192,45508,1,0,0:0:0:0:
448,192,45508,1,0,0:0:0:0:
64,192,45640,1,0,0:0:0:0:
192,192,45640,1,0,0:0:0:0:
64,192,45771,1,0,0:0:0:0:
320,192,45771,1,0,0:0:0:0:
448,192,45903,1,0,0:0:0:0:
64,192,45903,1,0,0:0:0:0:
320,192,46034,1,0,0:0:0:0:
192,192,46034,1,0,0:0:0:0:
448,192,46166,1,0,0:0:0:0:
64,192,46166,1,0,0:0:0:0:
448,192,46298,1,0,0:0:0:0:
320,192,46363,1,0,0:0:0:0:
64,192,46363,1,0,0:0:0:0:
448,192,46429,1,0,0:0:0:0:
192,192,46429,1,0,0:0:0:0:
320,192,46561,1,0,0:0:0:0:
192,192,46561,1,0,0:0:0:0:
64,192,46561,1,0,0:0:0:0:
448,192,46692,1,0,0:0:0:0:
320,192,46692,1,0,0:0:0:0:
192,192,46692,1,0,0:0:0:0:
64,192,46824,1,0,0:0:0:0:
448,192,46824,1,0,0:0:0:0:
320,192,46824,1,0,0:0:0:0:
64,192,46956,1,0,0:0:0:0:
192,192,46956,1,0,0:0:0:0:
448,192,46956,1,0,0:0:0:0:
448,192,47087,1,0,0:0:0:0:
320,192,47087,1,0,0:0:0:0:
192,192,47087,1,0,0:0:0:0:
64,192,47219,1,0,0:0:0:0:
192,192,47219,1,0,0:0:0:0:
320,192,47219,1,0,0:0:0:0:
64,192,47350,1,0,0:0:0:0:
192,192,47350,1,0,0:0:0:0:
320,192,47350,1,0,0:0:0:0:
448,192,47350,1,0,0:0:0:0:
320,192,47482,1,0,0:0:0:0:
192,192,47482,1,0,0:0:0:0:
64,192,47613,1,0,0:0:0:0:
192,192,47613,1,0,0:0:0:0:
448,192,47613,1,0,0:0:0:0:
320,192,47745,1,0,0:0:0:0:
64,192,47745,1,0,0:0:0:0:
192,192,47877,1,0,0:0:0:0:
320,192,47877,1,0,0:0:0:0:
448,192,47877,1,0,0:0:0:0:
320,192,48008,1,0,0:0:0:0:
192,192,48008,1,0,0:0:0:0:
64,192,48008,1,0,0:0:0:0:
192,192,48140,1,0,0:0:0:0:
320,192,48140,1,0,0:0:0:0:
448,192,48140,1,0,0:0:0:0:
320,192,48271,1,0,0:0:0:0:
64,192,48271,1,0,0:0:0:0:
64,192,48403,128,0,48666:0:0:0:0:
192,192,48403,1,0,0:0:0:0:
448,192,48403,1,0,0:0:0:0:
448,192,48534,1,0,0:0:0:0:
320,192,48666,1,0,0:0:0:0:
64,192,48798,128,0,49061:0:0:0:0:
192,192,48798,1,0,0:0:0:0:
448,192,48798,1,0,0:0:0:0:
192,192,48929,1,0,0:0:0:0:
320,192,49061,1,0,0:0:0:0:
64,192,49192,128,0,49324:0:0:0:0:
192,192,49192,1,0,0:0:0:0:
448,192,49192,1,0,0:0:0:0:
320,192,49324,1,0,0:0:0:0:
64,192,49456,128,0,49982:0:0:0:0:
192,192,49456,1,0,0:0:0:0:
448,192,49456,1,0,0:0:0:0:
192,192,49982,1,0,0:0:0:0:
320,192,49982,1,0,0:0:0:0:
192,192,50245,1,0,0:0:0:0:
192,192,50377,1,0,0:0:0:0:
448,192,50508,1,0,0:0:0:0:
320,192,50640,1,0,0:0:0:0:
64,192,50903,1,0,0:0:0:0:
64,192,51166,1,0,0:0:0:0:
320,192,51298,1,0,0:0:0:0:
64,192,51561,1,0,0:0:0:0:
192,192,51561,1,0,0:0:0:0:
320,192,51561,1,0,0:0:0:0:
448,192,51561,1,0,0:0:0:0:
192,192,51824,1,0,0:0:0:0:
192,192,52087,1,0,0:0:0:0:
320,192,52219,1,0,0:0:0:0:
192,192,52350,1,0,0:0:0:0:
448,192,52482,1,0,0:0:0:0:
320,192,52745,1,0,0:0:0:0:
192,192,52877,1,0,0:0:0:0:
64,192,53008,1,0,0:0:0:0:
192,192,53140,1,0,0:0:0:0:
448,192,53403,1,0,0:0:0:0:
320,192,53666,1,0,0:0:0:0:
64,192,53929,1,0,0:0:0:0:
192,192,54192,1,0,0:0:0:0:
320,192,54324,1,0,0:0:0:0:
448,192,54456,1,0,0:0:0:0:
192,192,54587,1,0,0:0:0:0:
320,192,54850,1,0,0:0:0:0:
192,192,54982,1,0,0:0:0:0:
64,192,55113,1,0,0:0:0:0:
448,192,55245,1,0,0:0:0:0:
320,192,55377,1,0,0:0:0:0:
192,192,55508,1,0,0:0:0:0:
64,192,55640,1,0,0:0:0:0:
192,192,55771,1,0,0:0:0:0:
320,192,55771,1,0,0:0:0:0:
448,192,55771,1,0,0:0:0:0:
64,192,56034,1,0,0:0:0:0:
192,192,56034,1,0,0:0:0:0:
320,192,56298,1,0,0:0:0:0:
64,192,56298,1,0,0:0:0:0:
448,192,56298,1,0,0:0:0:0:
192,192,56429,1,0,0:0:0:0:
64,192,56561,1,0,0:0:0:0:
320,192,56692,1,0,0:0:0:0:
64,192,56824,1,0,0:0:0:0:
192,192,56824,1,0,0:0:0:0:
448,192,56824,1,0,0:0:0:0:
320,192,56956,1,0,0:0:0:0:
192,192,57087,1,0,0:0:0:0:
64,192,57219,1,0,0:0:0:0:
192,192,57350,1,0,0:0:0:0:
320,192,57613,1,0,0:0:0:0:
448,192,57877,1,0,0:0:0:0:
192,192,57877,1,0,0:0:0:0:
64,192,57877,1,0,0:0:0:0:
192,192,58140,1,0,0:0:0:0:
320,192,58140,1,0,0:0:0:0:
64,192,58403,1,0,0:0:0:0:
320,192,58403,1,0,0:0:0:0:
448,192,58403,1,0,0:0:0:0:
320,192,58666,1,0,0:0:0:0:
192,192,58666,1,0,0:0:0:0:
64,192,58929,1,0,0:0:0:0:
320,192,58929,1,0,0:0:0:0:
192,192,58929,1,0,0:0:0:0:
192,192,59192,1,0,0:0:0:0:
320,192,59456,1,0,0:0:0:0:
448,192,59719,1,0,0:0:0:0:
64,192,59982,1,0,0:0:0:0:
192,192,59982,1,0,0:0:0:0:
320,192,59982,1,0,0:0:0:0:
448,192,59982,1,0,0:0:0:0:
64,192,60113,1,0,0:0:0:0:
192,192,60113,1,0,0:0:0:0:
320,192,60179,1,0,0:0:0:0:
448,192,60179,1,0,0:0:0:0:
192,192,60245,1,0,0:0:0:0:
64,192,60245,1,0,0:0:0:0:
192,192,60377,1,0,0:0:0:0:
320,192,60377,1,0,0:0:0:0:
64,192,60508,1,0,0:0:0:0:
192,192,60508,1,0,0:0:0:0:
448,192,60508,1,0,0:0:0:0:
448,192,60640,1,0,0:0:0:0:
320,192,60640,1,0,0:0:0:0:
64,192,60640,1,0,0:0:0:0:
64,192,60771,1,0,0:0:0:0:
192,192,60771,1,0,0:0:0:0:
320,192,60771,1,0,0:0:0:0:
320,192,60903,1,0,0:0:0:0:
192,192,60903,1,0,0:0:0:0:
448,192,60903,1,0,0:0:0:0:
64,192,61034,1,0,0:0:0:0:
192,192,61034,1,0,0:0:0:0:
320,192,61166,1,0,0:0:0:0:
64,192,61166,1,0,0:0:0:0:
448,192,61166,1,0,0:0:0:0:
64,192,61298,1,0,0:0:0:0:
192,192,61298,1,0,0:0:0:0:
448,192,61298,1,0,0:0:0:0:
448,192,61429,1,0,0:0:0:0:
320,192,61429,1,0,0:0:0:0:
192,192,61429,1,0,0:0:0:0:
64,192,61561,1,0,0:0:0:0:
192,192,61561,1,0,0:0:0:0:
320,192,61561,1,0,0:0:0:0:
448,192,61692,1,0,0:0:0:0:
192,192,61692,1,0,0:0:0:0:
64,192,61758,1,0,0:0:0:0:
320,192,61758,1,0,0:0:0:0:
192,192,61824,1,0,0:0:0:0:
448,192,61824,1,0,0:0:0:0:
64,192,61956,1,0,0:0:0:0:
192,192,61956,1,0,0:0:0:0:
448,192,61956,1,0,0:0:0:0:
192,192,62087,1,0,0:0:0:0:
320,192,62087,1,0,0:0:0:0:
448,192,62087,1,0,0:0:0:0:
192,192,62219,1,0,0:0:0:0:
64,192,62219,1,0,0:0:0:0:
64,192,62350,1,0,0:0:0:0:
320,192,62350,1,0,0:0:0:0:
448,192,62350,1,0,0:0:0:0:
192,192,62482,1,0,0:0:0:0:
320,192,62482,1,0,0:0:0:0:
64,192,62613,1,0,0:0:0:0:
192,192,62613,1,0,0:0:0:0:
448,192,62613,1,0,0:0:0:0:
64,192,62745,1,0,0:0:0:0:
448,192,62745,1,0,0:0:0:0:
64,192,62877,1,0,0:0:0:0:
192,192,62877,1,0,0:0:0:0:
320,192,62877,1,0,0:0:0:0:
448,192,63008,1,0,0:0:0:0:
192,192,63008,1,0,0:0:0:0:
64,192,63140,1,0,0:0:0:0:
448,192,63140,1,0,0:0:0:0:
320,192,63140,1,0,0:0:0:0:
192,192,63271,1,0,0:0:0:0:
64,192,63271,1,0,0:0:0:0:
448,192,63337,1,0,0:0:0:0:
320,192,63337,1,0,0:0:0:0:
64,192,63403,1,0,0:0:0:0:
192,192,63403,1,0,0:0:0:0:
192,192,63534,1,0,0:0:0:0:
448,192,63534,1,0,0:0:0:0:
320,192,63666,1,0,0:0:0:0:
448,192,63666,1,0,0:0:0:0:
192,192,63732,1,0,0:0:0:0:
64,192,63732,1,0,0:0:0:0:
448,192,63798,1,0,0:0:0:0:
320,192,63831,1,0,0:0:0:0:
192,192,63863,1,0,0:0:0:0:
64,192,63896,1,0,0:0:0:0:
320,192,63929,1,0,0:0:0:0:
448,192,63929,1,0,0:0:0:0:
320,192,64061,1,0,0:0:0:0:
192,192,64061,1,0,0:0:0:0:
320,192,64192,1,0,0:0:0:0:
192,192,64192,1,0,0:0:0:0:
64,192,64192,1,0,0:0:0:0:
448,192,64192,1,0,0:0:0:0:
64,192,64324,1,0,0:0:0:0:
192,192,64324,1,0,0:0:0:0:
320,192,64390,1,0,0:0:0:0:
448,192,64390,1,0,0:0:0:0:
64,192,64456,1,0,0:0:0:0:
192,192,64456,1,0,0:0:0:0:
192,192,64587,1,0,0:0:0:0:
320,192,64587,1,0,0:0:0:0:
448,192,64587,1,0,0:0:0:0:
64,192,64719,1,0,0:0:0:0:
192,192,64719,1,0,0:0:0:0:
448,192,64719,1,0,0:0:0:0:
64,192,64850,1,0,0:0:0:0:
192,192,64850,1,0,0:0:0:0:
320,192,64850,1,0,0:0:0:0:
320,192,64982,1,0,0:0:0:0:
448,192,64982,1,0,0:0:0:0:
192,192,64982,1,0,0:0:0:0:
320,192,65113,1,0,0:0:0:0:
448,192,65113,1,0,0:0:0:0:
64,192,65113,1,0,0:0:0:0:
192,192,65179,1,0,0:0:0:0:
64,192,65245,1,0,0:0:0:0:
448,192,65245,1,0,0:0:0:0:
320,192,65311,1,0,0:0:0:0:
192,192,65377,1,0,0:0:0:0:
448,192,65377,1,0,0:0:0:0:
64,192,65442,1,0,0:0:0:0:
320,192,65508,1,0,0:0:0:0:
448,192,65508,1,0,0:0:0:0:
192,192,65640,1,0,0:0:0:0:
64,192,65640,1,0,0:0:0:0:
320,192,65706,1,0,0:0:0:0:
64,192,65771,1,0,0:0:0:0:
448,192,65771,1,0,0:0:0:0:
320,192,65837,1,0,0:0:0:0:
192,192,65837,1,0,0:0:0:0:
64,192,65903,1,0,0:0:0:0:
448,192,65903,1,0,0:0:0:0:
64,192,66034,1,0,0:0:0:0:
192,192,66034,1,0,0:0:0:0:
320,192,66034,1,0,0:0:0:0:
448,192,66166,1,0,0:0:0:0:
320,192,66166,1,0,0:0:0:0:
64,192,66298,1,0,0:0:0:0:
192,192,66298,1,0,0:0:0:0:
448,192,66298,1,0,0:0:0:0:
448,192,66429,1,0,0:0:0:0:
192,192,66429,1,0,0:0:0:0:
64,192,66429,1,0,0:0:0:0:
64,192,66561,1,0,0:0:0:0:
320,192,66561,1,0,0:0:0:0:
448,192,66561,1,0,0:0:0:0:
192,192,66692,1,0,0:0:0:0:
320,192,66692,1,0,0:0:0:0:
64,192,66824,1,0,0:0:0:0:
192,192,66824,1,0,0:0:0:0:
448,192,66824,1,0,0:0:0:0:
448,192,66956,1,0,0:0:0:0:
64,192,66956,1,0,0:0:0:0:
64,192,67087,1,0,0:0:0:0:
192,192,67087,1,0,0:0:0:0:
320,192,67087,1,0,0:0:0:0:
192,192,67219,1,0,0:0:0:0:
448,192,67219,1,0,0:0:0:0:
320,192,67350,1,0,0:0:0:0:
64,192,67350,1,0,0:0:0:0:
448,192,67350,1,0,0:0:0:0:
320,192,67482,1,0,0:0:0:0:
448,192,67482,1,0,0:0:0:0:
64,192,67482,1,0,0:0:0:0:
64,192,67613,1,0,0:0:0:0:
320,192,67613,1,0,0:0:0:0:
448,192,67613,1,0,0:0:0:0:
320,192,67745,1,0,0:0:0:0:
192,192,67745,1,0,0:0:0:0:
64,192,67745,1,0,0:0:0:0:
320,192,67877,1,0,0:0:0:0:
448,192,67877,1,0,0:0:0:0:
64,192,67877,1,0,0:0:0:0:
192,192,67942,1,0,0:0:0:0:
448,192,68008,1,0,0:0:0:0:
64,192,68008,1,0,0:0:0:0:
320,192,68074,1,0,0:0:0:0:
64,192,68140,1,0,0:0:0:0:
448,192,68140,1,0,0:0:0:0:
192,192,68140,1,0,0:0:0:0:
320,192,68206,1,0,0:0:0:0:
192,192,68271,1,0,0:0:0:0:
64,192,68271,1,0,0:0:0:0:
448,192,68337,1,0,0:0:0:0:
64,192,68403,1,0,0:0:0:0:
192,192,68403,1,0,0:0:0:0:
320,192,68403,1,0,0:0:0:0:
64,192,68534,1,0,0:0:0:0:
448,192,68534,1,0,0:0:0:0:
192,192,68600,1,0,0:0:0:0:
320,192,68600,1,0,0:0:0:0:
448,192,68666,1,0,0:0:0:0:
64,192,68666,1,0,0:0:0:0:
320,192,68798,1,0,0:0:0:0:
448,192,68798,1,0,0:0:0:0:
64,192,68929,1,0,0:0:0:0:
192,192,68929,1,0,0:0:0:0:
320,192,68929,1,0,0:0:0:0:
448,192,69061,1,0,0:0:0:0:
320,192,69061,1,0,0:0:0:0:
192,192,69061,1,0,0:0:0:0:
64,192,69192,1,0,0:0:0:0:
192,192,69192,1,0,0:0:0:0:
448,192,69192,1,0,0:0:0:0:
320,192,69324,1,0,0:0:0:0:
448,192,69324,1,0,0:0:0:0:
64,192,69324,1,0,0:0:0:0:
448,192,69456,1,0,0:0:0:0:
192,192,69456,1,0,0:0:0:0:
64,192,69587,1,0,0:0:0:0:
192,192,69587,1,0,0:0:0:0:
448,192,69587,1,0,0:0:0:0:
64,192,69719,1,0,0:0:0:0:
320,192,69719,1,0,0:0:0:0:
448,192,69719,1,0,0:0:0:0:
448,192,69850,1,0,0:0:0:0:
64,192,69850,1,0,0:0:0:0:
192,192,69850,1,0,0:0:0:0:
448,192,69982,1,0,0:0:0:0:
320,192,69982,1,0,0:0:0:0:
192,192,69982,1,0,0:0:0:0:
64,192,70113,1,0,0:0:0:0:
192,192,70113,1,0,0:0:0:0:
320,192,70179,1,0,0:0:0:0:
448,192,70179,1,0,0:0:0:0:
192,192,70245,1,0,0:0:0:0:
64,192,70245,1,0,0:0:0:0:
192,192,70377,1,0,0:0:0:0:
320,192,70377,1,0,0:0:0:0:
192,192,70508,1,0,0:0:0:0:
320,192,70508,1,0,0:0:0:0:
64,192,70508,1,0,0:0:0:0:
448,192,70640,1,0,0:0:0:0:
64,192,70640,1,0,0:0:0:0:
192,192,70771,1,0,0:0:0:0:
320,192,70771,1,0,0:0:0:0:
448,192,70771,1,0,0:0:0:0:
192,192,70903,1,0,0:0:0:0:
320,192,70903,1,0,0:0:0:0:
64,192,71034,1,0,0:0:0:0:
192,192,71034,1,0,0:0:0:0:
448,192,71034,1,0,0:0:0:0:
64,192,71166,1,0,0:0:0:0:
448,192,71166,1,0,0:0:0:0:
320,192,71166,1,0,0:0:0:0:
64,192,71298,1,0,0:0:0:0:
192,192,71298,1,0,0:0:0:0:
320,192,71298,1,0,0:0:0:0:
448,192,71429,1,0,0:0:0:0:
192,192,71429,1,0,0:0:0:0:
320,192,71429,1,0,0:0:0:0:
448,192,71561,1,0,0:0:0:0:
320,192,71561,1,0,0:0:0:0:
64,192,71561,1,0,0:0:0:0:
192,192,71692,1,0,0:0:0:0:
320,192,71692,1,0,0:0:0:0:
64,192,71824,1,0,0:0:0:0:
448,192,71824,1,0,0:0:0:0:
192,192,71824,1,0,0:0:0:0:
320,192,71956,1,0,0:0:0:0:
64,192,71956,1,0,0:0:0:0:
192,192,72087,1,0,0:0:0:0:
448,192,72087,1,0,0:0:0:0:
320,192,72087,1,0,0:0:0:0:
64,192,72219,1,0,0:0:0:0:
448,192,72219,1,0,0:0:0:0:
192,192,72350,1,0,0:0:0:0:
64,192,72350,1,0,0:0:0:0:
448,192,72350,1,0,0:0:0:0:
320,192,72482,1,0,0:0:0:0:
192,192,72482,1,0,0:0:0:0:
320,192,72613,1,0,0:0:0:0:
192,192,72613,1,0,0:0:0:0:
64,192,72613,1,0,0:0:0:0:
448,192,72613,1,0,0:0:0:0:
64,192,72745,1,0,0:0:0:0:
448,192,72745,1,0,0:0:0:0:
320,192,72811,1,0,0:0:0:0:
192,192,72811,1,0,0:0:0:0:
64,192,72877,1,0,0:0:0:0:
448,192,72877,1,0,0:0:0:0:
192,192,73008,1,0,0:0:0:0:
448,192,73008,1,0,0:0:0:0:
64,192,73140,1,0,0:0:0:0:
192,192,73140,1,0,0:0:0:0:
320,192,73140,1,0,0:0:0:0:
64,192,73271,1,0,0:0:0:0:
192,192,73271,1,0,0:0:0:0:
448,192,73271,1,0,0:0:0:0:
320,192,73403,1,0,0:0:0:0:
192,192,73403,1,0,0:0:0:0:
64,192,73403,1,0,0:0:0:0:
320,192,73534,1,0,0:0:0:0:
64,192,73534,1,0,0:0:0:0:
448,192,73534,1,0,0:0:0:0:
192,192,73600,1,0,0:0:0:0:
320,192,73666,1,0,0:0:0:0:
448,192,73666,1,0,0:0:0:0:
64,192,73732,1,0,0:0:0:0:
192,192,73798,1,0,0:0:0:0:
448,192,73798,1,0,0:0:0:0:
320,192,73863,1,0,0:0:0:0:
192,192,73929,1,0,0:0:0:0:
64,192,73929,1,0,0:0:0:0:
448,192,74061,1,0,0:0:0:0:
320,192,74061,1,0,0:0:0:0:
192,192,74127,1,0,0:0:0:0:
64,192,74127,1,0,0:0:0:0:
448,192,74192,1,0,0:0:0:0:
320,192,74192,1,0,0:0:0:0:
64,192,74324,1,0,0:0:0:0:
192,192,74324,1,0,0:0:0:0:
320,192,74390,1,0,0:0:0:0:
448,192,74390,1,0,0:0:0:0:
64,192,74456,1,0,0:0:0:0:
192,192,74456,1,0,0:0:0:0:
448,192,74587,1,0,0:0:0:0:
320,192,74587,1,0,0:0:0:0:
64,192,74719,1,0,0:0:0:0:
192,192,74719,1,0,0:0:0:0:
448,192,74719,1,0,0:0:0:0:
192,192,74850,1,0,0:0:0:0:
320,192,74850,1,0,0:0:0:0:
64,192,74982,1,0,0:0:0:0:
320,192,74982,1,0,0:0:0:0:
448,192,74982,1,0,0:0:0:0:
192,192,75113,1,0,0:0:0:0:
448,192,75113,1,0,0:0:0:0:
64,192,75245,1,0,0:0:0:0:
192,192,75245,1,0,0:0:0:0:
448,192,75377,1,0,0:0:0:0:
320,192,75377,1,0,0:0:0:0:
64,192,75508,1,0,0:0:0:0:
320,192,75508,1,0,0:0:0:0:
192,192,75640,1,0,0:0:0:0:
320,192,75640,1,0,0:0:0:0:
320,192,75771,1,0,0:0:0:0:
64,192,75771,1,0,0:0:0:0:
448,192,75771,1,0,0:0:0:0:
448,192,75903,1,0,0:0:0:0:
64,192,75903,1,0,0:0:0:0:
192,192,75903,1,0,0:0:0:0:
64,192,76034,1,0,0:0:0:0:
320,192,76034,1,0,0:0:0:0:
448,192,76034,1,0,0:0:0:0:
320,192,76166,1,0,0:0:0:0:
192,192,76166,1,0,0:0:0:0:
64,192,76166,1,0,0:0:0:0:
320,192,76298,1,0,0:0:0:0:
448,192,76298,1,0,0:0:0:0:
192,192,76298,1,0,0:0:0:0:
64,192,76298,1,0,0:0:0:0:
320,192,76429,1,0,0:0:0:0:
448,192,76429,1,0,0:0:0:0:
64,192,76561,1,0,0:0:0:0:
192,192,76561,1,0,0:0:0:0:
320,192,76561,1,0,0:0:0:0:
448,192,76561,1,0,0:0:0:0:
192,192,76692,1,0,0:0:0:0:
64,192,76692,1,0,0:0:0:0:
64,192,76824,1,0,0:0:0:0:
192,192,76824,1,0,0:0:0:0:
320,192,76824,1,0,0:0:0:0:
448,192,76824,1,0,0:0:0:0:
448,192,76956,1,0,0:0:0:0:
320,192,76956,1,0,0:0:0:0:
192,192,77021,1,0,0:0:0:0:
64,192,77021,1,0,0:0:0:0:
320,192,77087,1,0,0:0:0:0:
448,192,77087,1,0,0:0:0:0:
64,192,77219,1,0,0:0:0:0:
192,192,77219,1,0,0:0:0:0:
448,192,77350,1,0,0:0:0:0:
320,192,77350,1,0,0:0:0:0:
320,192,77482,1,0,0:0:0:0:
192,192,77482,1,0,0:0:0:0:
192,192,77613,1,0,0:0:0:0:
64,192,77613,1,0,0:0:0:0:
192,192,77745,1,0,0:0:0:0:
320,192,77745,1,0,0:0:0:0:
64,192,77877,1,0,0:0:0:0:
448,192,77877,1,0,0:0:0:0:
64,192,78008,1,0,0:0:0:0:
448,192,78008,1,0,0:0:0:0:
64,192,78140,1,0,0:0:0:0:
320,192,78140,1,0,0:0:0:0:
448,192,78271,1,0,0:0:0:0:
192,192,78271,1,0,0:0:0:0:
64,192,78403,1,0,0:0:0:0:
192,192,78403,1,0,0:0:0:0:
448,192,78534,1,0,0:0:0:0:
192,192,78534,1,0,0:0:0:0:
320,192,78600,1,0,0:0:0:0:
64,192,78600,1,0,0:0:0:0:
192,192,78666,1,0,0:0:0:0:
448,192,78666,1,0,0:0:0:0:
64,192,78798,1,0,0:0:0:0:
448,192,78798,1,0,0:0:0:0:
192,192,78929,1,0,0:0:0:0:
448,192,78929,1,0,0:0:0:0:
320,192,79061,1,0,0:0:0:0:
448,192,79061,1,0,0:0:0:0:
192,192,79127,1,0,0:0:0:0:
64,192,79127,1,0,0:0:0:0:
320,192,79192,1,0,0:0:0:0:
448,192,79192,1,0,0:0:0:0:
192,192,79324,1,0,0:0:0:0:
320,192,79324,1,0,0:0:0:0:
64,192,79456,1,0,0:0:0:0:
448,192,79456,1,0,0:0:0:0:
192,192,79587,1,0,0:0:0:0:
320,192,79587,1,0,0:0:0:0:
64,192,79653,1,0,0:0:0:0:
448,192,79653,1,0,0:0:0:0:
192,192,79719,1,0,0:0:0:0:
320,192,79719,1,0,0:0:0:0:
448,192,79850,1,0,0:0:0:0:
320,192,79850,1,0,0:0:0:0:
64,192,79982,1,0,0:0:0:0:
320,192,79982,1,0,0:0:0:0:
192,192,80113,1,0,0:0:0:0:
192,192,80179,1,0,0:0:0:0:
64,192,80245,1,0,0:0:0:0:
320,192,80245,1,0,0:0:0:0:
448,192,80245,1,0,0:0:0:0:
320,192,80377,1,0,0:0:0:0:
320,192,80442,1,0,0:0:0:0:
448,192,80508,1,0,0:0:0:0:
192,192,80508,1,0,0:0:0:0:
64,192,80508,1,0,0:0:0:0:
448,192,80640,1,0,0:0:0:0:
320,192,80673,1,0,0:0:0:0:
192,192,80706,1,0,0:0:0:0:
64,192,80738,1,0,0:0:0:0:
320,192,80771,1,0,0:0:0:0:
448,192,80771,1,0,0:0:0:0:
192,192,80903,1,0,0:0:0:0:
320,192,80903,1,0,0:0:0:0:
448,192,80903,1,0,0:0:0:0:
448,192,81034,1,0,0:0:0:0:
320,192,81034,1,0,0:0:0:0:
64,192,81034,1,0,0:0:0:0:
192,192,81034,1,0,0:0:0:0:
64,192,81166,1,0,0:0:0:0:
192,192,81166,1,0,0:0:0:0:
320,192,81232,1,0,0:0:0:0:
448,192,81232,1,0,0:0:0:0:
192,192,81298,1,0,0:0:0:0:
64,192,81298,1,0,0:0:0:0:
320,192,81429,1,0,0:0:0:0:
192,192,81429,1,0,0:0:0:0:
64,192,81561,1,0,0:0:0:0:
192,192,81561,1,0,0:0:0:0:
448,192,81692,1,0,0:0:0:0:
192,192,81692,1,0,0:0:0:0:
320,192,81758,1,0,0:0:0:0:
64,192,81758,1,0,0:0:0:0:
192,192,81824,1,0,0:0:0:0:
448,192,81824,1,0,0:0:0:0:
64,192,81956,1,0,0:0:0:0:
192,192,81956,1,0,0:0:0:0:
320,192,82087,1,0,0:0:0:0:
448,192,82087,1,0,0:0:0:0:
192,192,82219,1,0,0:0:0:0:
320,192,82219,1,0,0:0:0:0:
448,192,82284,1,0,0:0:0:0:
64,192,82284,1,0,0:0:0:0:
192,192,82350,1,0,0:0:0:0:
320,192,82350,1,0,0:0:0:0:
64,192,82482,1,0,0:0:0:0:
320,192,82482,1,0,0:0:0:0:
448,192,82613,1,0,0:0:0:0:
320,192,82613,1,0,0:0:0:0:
192,192,82613,1,0,0:0:0:0:
64,192,82811,1,0,0:0:0:0:
192,192,82811,1,0,0:0:0:0:
320,192,82811,1,0,0:0:0:0:
64,192,83008,1,0,0:0:0:0:
192,192,83008,1,0,0:0:0:0:
448,192,83008,1,0,0:0:0:0:
448,192,83140,1,0,0:0:0:0:
320,192,83140,1,0,0:0:0:0:
192,192,83140,1,0,0:0:0:0:
64,192,83140,1,0,0:0:0:0:
448,192,83271,1,0,0:0:0:0:
64,192,83271,1,0,0:0:0:0:
192,192,83337,1,0,0:0:0:0:
320,192,83337,1,0,0:0:0:0:
64,192,83403,1,0,0:0:0:0:
448,192,83403,1,0,0:0:0:0:
64,192,83534,1,0,0:0:0:0:
320,192,83534,1,0,0:0:0:0:
320,192,83666,1,0,0:0:0:0:
448,192,83666,1,0,0:0:0:0:
192,192,83732,1,0,0:0:0:0:
64,192,83798,1,0,0:0:0:0:
448,192,83798,1,0,0:0:0:0:
192,192,83863,1,0,0:0:0:0:
448,192,83929,1,0,0:0:0:0:
320,192,83929,1,0,0:0:0:0:
192,192,84061,1,0,0:0:0:0:
320,192,84061,1,0,0:0:0:0:
64,192,84192,1,0,0:0:0:0:
192,192,84192,1,0,0:0:0:0:
448,192,84324,1,0,0:0:0:0:
320,192,84324,1,0,0:0:0:0:
192,192,84390,1,0,0:0:0:0:
64,192,84390,1,0,0:0:0:0:
320,192,84456,1,0,0:0:0:0:
448,192,84456,1,0,0:0:0:0:
64,192,84587,1,0,0:0:0:0:
320,192,84587,1,0,0:0:0:0:
192,192,84653,1,0,0:0:0:0:
448,192,84653,1,0,0:0:0:0:
320,192,84719,1,0,0:0:0:0:
64,192,84719,1,0,0:0:0:0:
64,192,84850,1,0,0:0:0:0:
192,192,84883,1,0,0:0:0:0:
448,192,84916,1,0,0:0:0:0:
320,192,84949,1,0,0:0:0:0:
192,192,84982,1,0,0:0:0:0:
64,192,84982,1,0,0:0:0:0:
64,192,85113,1,0,0:0:0:0:
192,192,85113,1,0,0:0:0:0:
320,192,85113,1,0,0:0:0:0:
64,192,85245,1,0,0:0:0:0:
192,192,85245,1,0,0:0:0:0:
320,192,85245,1,0,0:0:0:0:
448,192,85245,1,0,0:0:0:0:
192,192,85377,1,0,0:0:0:0:
320,192,85377,1,0,0:0:0:0:
64,192,85508,1,0,0:0:0:0:
192,192,85508,1,0,0:0:0:0:
448,192,85508,1,0,0:0:0:0:
320,192,85640,1,0,0:0:0:0:
448,192,85640,1,0,0:0:0:0:
320,192,85771,1,0,0:0:0:0:
192,192,85771,1,0,0:0:0:0:
64,192,85771,1,0,0:0:0:0:
192,192,85903,1,0,0:0:0:0:
320,192,85903,1,0,0:0:0:0:
448,192,85903,1,0,0:0:0:0:
448,192,86034,1,0,0:0:0:0:
320,192,86034,1,0,0:0:0:0:
192,192,86034,1,0,0:0:0:0:
64,192,86166,1,0,0:0:0:0:
192,192,86166,1,0,0:0:0:0:
448,192,86166,1,0,0:0:0:0:
64,192,86298,1,0,0:0:0:0:
320,192,86298,1,0,0:0:0:0:
448,192,86298,1,0,0:0:0:0:
192,192,86363,1,0,0:0:0:0:
64,192,86429,1,0,0:0:0:0:
320,192,86429,1,0,0:0:0:0:
448,192,86429,1,0,0:0:0:0:
64,192,86561,1,0,0:0:0:0:
192,192,86561,1,0,0:0:0:0:
448,192,86561,1,0,0:0:0:0:
448,192,86692,1,0,0:0:0:0:
320,192,86692,1,0,0:0:0:0:
320,192,86824,1,0,0:0:0:0:
192,192,86824,1,0,0:0:0:0:
64,192,86824,1,0,0:0:0:0:
192,192,86956,1,0,0:0:0:0:
320,192,86956,1,0,0:0:0:0:
64,192,87087,1,0,0:0:0:0:
192,192,87087,1,0,0:0:0:0:
448,192,87087,1,0,0:0:0:0:
192,192,87219,1,0,0:0:0:0:
320,192,87219,1,0,0:0:0:0:
64,192,87350,1,0,0:0:0:0:
192,192,87350,1,0,0:0:0:0:
320,192,87350,1,0,0:0:0:0:
448,192,87482,1,0,0:0:0:0:
320,192,87482,1,0,0:0:0:0:
192,192,87548,1,0,0:0:0:0:
64,192,87548,1,0,0:0:0:0:
320,192,87613,1,0,0:0:0:0:
448,192,87613,1,0,0:0:0:0:
192,192,87745,1,0,0:0:0:0:
64,192,87745,1,0,0:0:0:0:
448,192,87877,1,0,0:0:0:0:
320,192,87877,1,0,0:0:0:0:
192,192,88008,1,0,0:0:0:0:
320,192,88008,1,0,0:0:0:0:
64,192,88140,1,0,0:0:0:0:
192,192,88140,1,0,0:0:0:0:
448,192,88271,1,0,0:0:0:0:
192,192,88271,1,0,0:0:0:0:
64,192,88403,1,0,0:0:0:0:
320,192,88403,1,0,0:0:0:0:
448,192,88403,1,0,0:0:0:0:
64,192,88534,1,0,0:0:0:0:
192,192,88534,1,0,0:0:0:0:
448,192,88600,1,0,0:0:0:0:
320,192,88600,1,0,0:0:0:0:
64,192,88666,1,0,0:0:0:0:
192,192,88666,1,0,0:0:0:0:
448,192,88798,1,0,0:0:0:0:
320,192,88798,1,0,0:0:0:0:
64,192,88863,1,0,0:0:0:0:
192,192,88863,1,0,0:0:0:0:
320,192,88929,1,0,0:0:0:0:
448,192,88929,1,0,0:0:0:0:
192,192,89061,1,0,0:0:0:0:
320,192,89061,1,0,0:0:0:0:
448,192,89127,1,0,0:0:0:0:
64,192,89127,1,0,0:0:0:0:
192,192,89192,1,0,0:0:0:0:
320,192,89192,1,0,0:0:0:0:
448,192,89324,1,0,0:0:0:0:
192,192,89324,1,0,0:0:0:0:
320,192,89390,1,0,0:0:0:0:
64,192,89390,1,0,0:0:0:0:
192,192,89456,1,0,0:0:0:0:
448,192,89456,1,0,0:0:0:0:
320,192,89587,1,0,0:0:0:0:
448,192,89587,1,0,0:0:0:0:
192,192,89653,1,0,0:0:0:0:
64,192,89653,1,0,0:0:0:0:
320,192,89719,1,0,0:0:0:0:
448,192,89719,1,0,0:0:0:0:
320,192,89850,1,0,0:0:0:0:
192,192,89850,1,0,0:0:0:0:
192,192,89982,1,0,0:0:0:0:
64,192,89982,1,0,0:0:0:0:
64,192,90113,1,0,0:0:0:0:
320,192,90113,1,0,0:0:0:0:
448,192,90113,1,0,0:0:0:0:
192,192,90179,1,0,0:0:0:0:
448,192,90245,1,0,0:0:0:0:
320,192,90245,1,0,0:0:0:0:
64,192,90245,1,0,0:0:0:0:
192,192,90377,1,0,0:0:0:0:
320,192,90377,1,0,0:0:0:0:
192,192,90508,1,0,0:0:0:0:
64,192,90508,1,0,0:0:0:0:
64,192,90640,1,0,0:0:0:0:
448,192,90640,1,0,0:0:0:0:
64,192,90771,1,0,0:0:0:0:
320,192,90771,1,0,0:0:0:0:
448,192,90771,1,0,0:0:0:0:
192,192,90903,1,0,0:0:0:0:
64,192,90903,1,0,0:0:0:0:
448,192,90903,1,0,0:0:0:0:
64,192,91034,1,0,0:0:0:0:
192,192,91034,1,0,0:0:0:0:
320,192,91034,1,0,0:0:0:0:
448,192,91232,1,0,0:0:0:0:
320,192,91232,1,0,0:0:0:0:
192,192,91232,1,0,0:0:0:0:
64,192,91429,5,0,0:0:0:0:
192,192,91429,1,0,0:0:0:0:
320,192,91429,1,0,0:0:0:0:
192,192,91561,1,0,0:0:0:0:
64,192,91561,1,0,0:0:0:0:
448,192,91561,1,0,0:0:0:0:
192,192,91692,1,0,0:0:0:0:
320,192,91692,1,0,0:0:0:0:
64,192,91758,1,0,0:0:0:0:
448,192,91758,1,0,0:0:0:0:
192,192,91824,1,0,0:0:0:0:
320,192,91824,1,0,0:0:0:0:
64,192,91956,1,0,0:0:0:0:
448,192,91956,1,0,0:0:0:0:
192,192,91956,1,0,0:0:0:0:
64,192,92087,1,0,0:0:0:0:
320,192,92087,1,0,0:0:0:0:
192,192,92153,1,0,0:0:0:0:
448,192,92153,1,0,0:0:0:0:
64,192,92219,1,0,0:0:0:0:
320,192,92219,1,0,0:0:0:0:
192,192,92350,1,0,0:0:0:0:
320,192,92350,1,0,0:0:0:0:
448,192,92350,1,0,0:0:0:0:
64,192,92482,1,0,0:0:0:0:
192,192,92482,1,0,0:0:0:0:
448,192,92482,1,0,0:0:0:0:
64,192,92613,5,0,0:0:0:0:
192,192,92613,1,0,0:0:0:0:
320,192,92613,1,0,0:0:0:0:
192,192,92745,1,0,0:0:0:0:
320,192,92745,1,0,0:0:0:0:
448,192,92745,1,0,0:0:0:0:
64,192,92877,1,0,0:0:0:0:
192,192,92877,1,0,0:0:0:0:
448,192,92877,1,0,0:0:0:0:
448,192,93008,1,0,0:0:0:0:
320,192,93008,1,0,0:0:0:0:
64,192,93008,1,0,0:0:0:0:
448,192,93140,1,0,0:0:0:0:
320,192,93140,1,0,0:0:0:0:
192,192,93140,1,0,0:0:0:0:
320,192,93271,1,0,0:0:0:0:
192,192,93271,1,0,0:0:0:0:
64,192,93271,1,0,0:0:0:0:
64,192,93403,1,0,0:0:0:0:
192,192,93403,1,0,0:0:0:0:
448,192,93403,1,0,0:0:0:0:
448,192,93534,1,0,0:0:0:0:
320,192,93534,1,0,0:0:0:0:
64,192,93534,1,0,0:0:0:0:
192,192,93666,1,0,0:0:0:0:
64,192,93666,1,0,0:0:0:0:
320,192,93666,1,0,0:0:0:0:
448,192,93666,1,0,0:0:0:0:
320,192,93929,1,0,0:0:0:0:
448,192,94061,1,0,0:0:0:0:
320,192,94192,1,0,0:0:0:0:
64,192,94324,1,0,0:0:0:0:
64,192,94456,1,0,0:0:0:0:
192,192,94587,1,0,0:0:0:0:
320,192,94719,1,0,0:0:0:0:
448,192,94719,1,0,0:0:0:0:
192,192,94784,1,0,0:0:0:0:
64,192,94850,1,0,0:0:0:0:
448,192,94916,1,0,0:0:0:0:
320,192,94982,1,0,0:0:0:0:
192,192,94982,1,0,0:0:0:0:
64,192,95048,1,0,0:0:0:0:
448,192,95113,1,0,0:0:0:0:
320,192,95179,1,0,0:0:0:0:
192,192,95245,1,0,0:0:0:0:
64,192,95245,1,0,0:0:0:0:
448,192,95311,1,0,0:0:0:0:
192,192,95377,1,0,0:0:0:0:
320,192,95442,1,0,0:0:0:0:
64,192,95508,1,0,0:0:0:0:
448,192,95508,1,0,0:0:0:0:
192,192,95771,1,0,0:0:0:0:
320,192,95771,1,0,0:0:0:0:
320,192,96034,1,0,0:0:0:0:
448,192,96166,1,0,0:0:0:0:
320,192,96298,1,0,0:0:0:0:
64,192,96429,1,0,0:0:0:0:
64,192,96561,1,0,0:0:0:0:
192,192,96692,1,0,0:0:0:0:
320,192,96824,1,0,0:0:0:0:
448,192,96824,1,0,0:0:0:0:
448,192,96890,1,0,0:0:0:0:
320,192,96890,1,0,0:0:0:0:
64,192,96956,1,0,0:0:0:0:
192,192,96956,1,0,0:0:0:0:
64,192,97087,1,0,0:0:0:0:
192,192,97087,1,0,0:0:0:0:
448,192,97087,1,0,0:0:0:0:
448,192,97219,1,0,0:0:0:0:
320,192,97219,1,0,0:0:0:0:
64,192,97219,1,0,0:0:0:0:
64,192,97350,1,0,0:0:0:0:
192,192,97350,1,0,0:0:0:0:
192,192,97416,1,0,0:0:0:0:
64,192,97416,1,0,0:0:0:0:
320,192,97482,1,0,0:0:0:0:
448,192,97482,1,0,0:0:0:0:
448,192,97613,1,0,0:0:0:0:
320,192,97613,1,0,0:0:0:0:
192,192,97613,1,0,0:0:0:0:
64,192,97745,1,0,0:0:0:0:
192,192,97745,1,0,0:0:0:0:
320,192,97745,1,0,0:0:0:0:
448,192,97877,1,0,0:0:0:0:
320,192,97877,1,0,0:0:0:0:
320,192,98140,1,0,0:0:0:0:
448,192,98271,1,0,0:0:0:0:
320,192,98403,1,0,0:0:0:0:
64,192,98534,1,0,0:0:0:0:
64,192,98666,1,0,0:0:0:0:
192,192,98798,1,0,0:0:0:0:
64,192,98929,1,0,0:0:0:0:
448,192,98929,1,0,0:0:0:0:
192,192,98995,1,0,0:0:0:0:
320,192,99061,1,0,0:0:0:0:
448,192,99127,1,0,0:0:0:0:
320,192,99192,1,0,0:0:0:0:
192,192,99192,1,0,0:0:0:0:
64,192,99258,1,0,0:0:0:0:
448,192,99324,1,0,0:0:0:0:
320,192,99390,1,0,0:0:0:0:
192,192,99456,1,0,0:0:0:0:
64,192,99456,1,0,0:0:0:0:
448,192,99521,1,0,0:0:0:0:
64,192,99587,1,0,0:0:0:0:
192,192,99653,1,0,0:0:0:0:
320,192,99719,1,0,0:0:0:0:
448,192,99719,1,0,0:0:0:0:
64,192,99982,1,0,0:0:0:0:
192,192,99982,1,0,0:0:0:0:
320,192,100245,1,0,0:0:0:0:
448,192,100377,1,0,0:0:0:0:
320,192,100508,1,0,0:0:0:0:
64,192,100640,1,0,0:0:0:0:
64,192,100771,1,0,0:0:0:0:
192,192,100903,1,0,0:0:0:0:
320,192,101034,1,0,0:0:0:0:
64,192,101166,1,0,0:0:0:0:
320,192,101298,1,0,0:0:0:0:
192,192,101429,1,0,0:0:0:0:
448,192,101561,1,0,0:0:0:0:
320,192,101692,1,0,0:0:0:0:
192,192,101824,1,0,0:0:0:0:
64,192,101956,1,0,0:0:0:0:
64,192,102087,1,0,0:0:0:0:
192,192,102087,1,0,0:0:0:0:
320,192,102087,1,0,0:0:0:0:
448,192,102087,1,0,0:0:0:0:
448,192,102350,1,0,0:0:0:0:
192,192,102350,1,0,0:0:0:0:
64,192,102350,1,0,0:0:0:0:
64,192,102482,1,0,0:0:0:0:
448,192,102482,1,0,0:0:0:0:
320,192,102482,1,0,0:0:0:0:
448,192,102613,1,0,0:0:0:0:
192,192,102745,1,0,0:0:0:0:
192,192,102877,1,0,0:0:0:0:
320,192,103008,1,0,0:0:0:0:
64,192,103140,1,0,0:0:0:0:
192,192,103140,1,0,0:0:0:0:
448,192,103206,1,0,0:0:0:0:
320,192,103206,1,0,0:0:0:0:
64,192,103271,1,0,0:0:0:0:
192,192,103271,1,0,0:0:0:0:
448,192,103403,1,0,0:0:0:0:
320,192,103403,1,0,0:0:0:0:
192,192,103403,1,0,0:0:0:0:
64,192,103534,1,0,0:0:0:0:
192,192,103534,1,0,0:0:0:0:
320,192,103534,1,0,0:0:0:0:
192,192,103666,1,0,0:0:0:0:
320,192,103798,1,0,0:0:0:0:
192,192,103929,1,0,0:0:0:0:
320,192,104061,1,0,0:0:0:0:
64,192,104192,1,0,0:0:0:0:
192,192,104192,1,0,0:0:0:0:
448,192,104192,1,0,0:0:0:0:
320,192,104456,1,0,0:0:0:0:
192,192,104719,1,0,0:0:0:0:
448,192,104719,1,0,0:0:0:0:
64,192,104982,1,0,0:0:0:0:
64,192,105245,1,0,0:0:0:0:
320,192,105245,1,0,0:0:0:0:
448,192,105311,1,0,0:0:0:0:
192,192,105311,1,0,0:0:0:0:
64,192,105377,1,0,0:0:0:0:
320,192,105377,1,0,0:0:0:0:
192,192,105508,1,0,0:0:0:0:
320,192,105508,1,0,0:0:0:0:
64,192,105508,1,0,0:0:0:0:
320,192,105640,1,0,0:0:0:0:
448,192,105640,1,0,0:0:0:0:
192,192,105640,1,0,0:0:0:0:
64,192,105771,1,0,0:0:0:0:
448,192,105771,1,0,0:0:0:0:
192,192,105837,1,0,0:0:0:0:
320,192,105837,1,0,0:0:0:0:
448,192,105903,1,0,0:0:0:0:
64,192,105903,1,0,0:0:0:0:
64,192,106034,1,0,0:0:0:0:
448,192,106034,1,0,0:0:0:0:
320,192,106034,1,0,0:0:0:0:
192,192,106166,1,0,0:0:0:0:
448,192,106166,1,0,0:0:0:0:
64,192,106166,1,0,0:0:0:0:
64,192,106298,1,0,0:0:0:0:
192,192,106298,1,0,0:0:0:0:
320,192,106298,1,0,0:0:0:0:
448,192,106298,1,0,0:0:0:0:
64,192,106561,1,0,0:0:0:0:
192,192,106561,1,0,0:0:0:0:
320,192,106561,1,0,0:0:0:0:
192,192,106692,1,0,0:0:0:0:
320,192,106692,1,0,0:0:0:0:
448,192,106692,1,0,0:0:0:0:
448,192,106824,1,0,0:0:0:0:
64,192,106956,1,0,0:0:0:0:
64,192,107087,1,0,0:0:0:0:
320,192,107219,1,0,0:0:0:0:
64,192,107350,1,0,0:0:0:0:
192,192,107350,1,0,0:0:0:0:
320,192,107350,1,0,0:0:0:0:
448,192,107350,1,0,0:0:0:0:
192,192,107482,1,0,0:0:0:0:
320,192,107482,1,0,0:0:0:0:
448,192,107482,1,0,0:0:0:0:
320,192,107613,1,0,0:0:0:0:
192,192,107613,1,0,0:0:0:0:
64,192,107613,1,0,0:0:0:0:
64,192,107745,1,0,0:0:0:0:
320,192,107745,1,0,0:0:0:0:
448,192,107745,1,0,0:0:0:0:
64,192,107877,1,0,0:0:0:0:
448,192,108008,1,0,0:0:0:0:
320,192,108140,1,0,0:0:0:0:
192,192,108271,1,0,0:0:0:0:
64,192,108403,1,0,0:0:0:0:
320,192,108403,1,0,0:0:0:0:
448,192,108403,1,0,0:0:0:0:
192,192,108666,1,0,0:0:0:0:
320,192,108929,1,0,0:0:0:0:
448,192,108929,1,0,0:0:0:0:
64,192,109192,1,0,0:0:0:0:
192,192,109456,1,0,0:0:0:0:
320,192,109456,1,0,0:0:0:0:
64,192,109719,1,0,0:0:0:0:
448,192,109982,1,0,0:0:0:0:
192,192,109982,1,0,0:0:0:0:
320,192,110245,1,0,0:0:0:0:
448,192,110261,1,0,0:0:0:0:
64,192,110508,1,0,0:0:0:0:
192,192,110508,1,0,0:0:0:0:
320,192,110508,1,0,0:0:0:0:
448,192,110508,1,0,0:0:0:0:
192,192,110706,1,0,0:0:0:0:
320,192,110706,1,0,0:0:0:0:
64,192,110771,1,0,0:0:0:0:
448,192,110771,1,0,0:0:0:0:
192,192,110771,1,0,0:0:0:0:
64,192,110903,1,0,0:0:0:0:
320,192,110903,1,0,0:0:0:0:
448,192,110903,1,0,0:0:0:0:
192,192,111034,1,0,0:0:0:0:
320,192,111034,1,0,0:0:0:0:
448,192,111034,1,0,0:0:0:0:
320,192,111166,1,0,0:0:0:0:
192,192,111166,1,0,0:0:0:0:
64,192,111166,1,0,0:0:0:0:
320,192,111298,128,0,111495:0:0:0:0:
448,192,111298,128,0,111495:0:0:0:0:
64,192,111561,1,0,0:0:0:0:
192,192,111561,1,0,0:0:0:0:
192,192,111627,1,0,0:0:0:0:
64,192,111627,1,0,0:0:0:0:
64,192,111692,1,0,0:0:0:0:
192,192,111692,1,0,0:0:0:0:
320,192,111692,1,0,0:0:0:0:
192,192,111824,1,0,0:0:0:0:
320,192,111824,1,0,0:0:0:0:
448,192,111824,1,0,0:0:0:0:
192,192,111956,1,0,0:0:0:0:
320,192,111956,1,0,0:0:0:0:
64,192,111956,1,0,0:0:0:0:
192,192,112087,1,0,0:0:0:0:
64,192,112087,1,0,0:0:0:0:
448,192,112087,1,0,0:0:0:0:
320,192,112219,1,0,0:0:0:0:
448,192,112219,1,0,0:0:0:0:
64,192,112219,1,0,0:0:0:0:
64,192,112350,128,0,112548:0:0:0:0:
192,192,112350,128,0,112548:0:0:0:0:
448,192,112613,1,0,0:0:0:0:
320,192,112613,1,0,0:0:0:0:
192,192,112613,1,0,0:0:0:0:
64,192,112789,1,0,0:0:0:0:
192,192,112789,1,0,0:0:0:0:
320,192,112789,1,0,0:0:0:0:
448,192,112964,1,0,0:0:0:0:
320,192,112964,1,0,0:0:0:0:
192,192,112964,1,0,0:0:0:0:
64,192,113140,1,0,0:0:0:0:
192,192,113140,1,0,0:0:0:0:
448,192,113140,1,0,0:0:0:0:
448,192,113315,1,0,0:0:0:0:
320,192,113315,1,0,0:0:0:0:
64,192,113315,1,0,0:0:0:0:
64,192,113491,1,0,0:0:0:0:
192,192,113491,1,0,0:0:0:0:
448,192,113491,1,0,0:0:0:0:
64,192,113666,1,0,0:0:0:0:
64,192,113732,1,0,0:0:0:0:
64,192,113798,1,0,0:0:0:0:
192,192,113929,1,0,0:0:0:0:
320,192,114061,1,0,0:0:0:0:
448,192,114192,1,0,0:0:0:0:
448,192,114258,1,0,0:0:0:0:
448,192,114324,1,0,0:0:0:0:
64,192,114456,1,0,0:0:0:0:
192,192,114488,1,0,0:0:0:0:
320,192,114521,1,0,0:0:0:0:
448,192,114554,1,0,0:0:0:0:
64,192,114587,1,0,0:0:0:0:
192,192,114620,1,0,0:0:0:0:
320,192,114653,1,0,0:0:0:0:
448,192,114686,1,0,0:0:0:0:
64,192,114719,1,0,0:0:0:0:
192,192,114719,1,0,0:0:0:0:
448,192,114850,1,0,0:0:0:0:
64,192,114850,1,0,0:0:0:0:
192,192,114916,1,0,0:0:0:0:
320,192,114916,1,0,0:0:0:0:
448,192,114982,1,0,0:0:0:0:
64,192,114982,1,0,0:0:0:0:
64,192,115113,1,0,0:0:0:0:
192,192,115113,1,0,0:0:0:0:
320,192,115113,1,0,0:0:0:0:
192,192,115245,1,0,0:0:0:0:
320,192,115245,1,0,0:0:0:0:
448,192,115245,1,0,0:0:0:0:
64,192,115377,1,0,0:0:0:0:
320,192,115377,1,0,0:0:0:0:
64,192,115508,1,0,0:0:0:0:
448,192,115541,1,0,0:0:0:0:
448,192,115771,1,0,0:0:0:0:
320,192,115771,1,0,0:0:0:0:
320,192,115837,1,0,0:0:0:0:
448,192,115837,1,0,0:0:0:0:
448,192,115903,1,0,0:0:0:0:
320,192,115903,1,0,0:0:0:0:
448,192,116034,1,0,0:0:0:0:
320,192,116034,1,0,0:0:0:0:
192,192,116034,1,0,0:0:0:0:
64,192,116166,1,0,0:0:0:0:
192,192,116166,1,0,0:0:0:0:
448,192,116166,1,0,0:0:0:0:
448,192,116298,1,0,0:0:0:0:
320,192,116298,1,0,0:0:0:0:
64,192,116298,1,0,0:0:0:0:
448,192,116429,1,0,0:0:0:0:
320,192,116495,1,0,0:0:0:0:
192,192,116561,1,0,0:0:0:0:
64,192,116692,1,0,0:0:0:0:
64,192,116824,1,0,0:0:0:0:
192,192,116824,1,0,0:0:0:0:
320,192,116824,1,0,0:0:0:0:
448,192,116824,1,0,0:0:0:0:
320,192,116956,1,0,0:0:0:0:
448,192,116956,1,0,0:0:0:0:
448,192,117021,1,0,0:0:0:0:
320,192,117021,1,0,0:0:0:0:
192,192,117087,1,0,0:0:0:0:
320,192,117087,1,0,0:0:0:0:
448,192,117087,1,0,0:0:0:0:
64,192,117219,1,0,0:0:0:0:
192,192,117219,1,0,0:0:0:0:
320,192,117219,1,0,0:0:0:0:
448,192,117219,1,0,0:0:0:0:
64,192,117350,1,0,0:0:0:0:
192,192,117350,1,0,0:0:0:0:
192,192,117416,1,0,0:0:0:0:
64,192,117416,1,0,0:0:0:0:
64,192,117482,1,0,0:0:0:0:
192,192,117482,1,0,0:0:0:0:
320,192,117482,1,0,0:0:0:0:
448,192,117613,1,0,0:0:0:0:
320,192,117613,1,0,0:0:0:0:
192,192,117679,1,0,0:0:0:0:
64,192,117679,1,0,0:0:0:0:
320,192,117745,1,0,0:0:0:0:
448,192,117745,1,0,0:0:0:0:
192,192,117811,1,0,0:0:0:0:
64,192,117811,1,0,0:0:0:0:
320,192,117844,1,0,0:0:0:0:
192,192,117860,1,0,0:0:0:0:
448,192,117860,1,0,0:0:0:0:
64,192,117877,1,0,0:0:0:0:
64,192,118123,1,0,0:0:0:0:
448,192,118123,1,0,0:0:0:0:
192,192,118140,1,0,0:0:0:0:
320,192,118156,1,0,0:0:0:0:
448,192,118370,1,0,0:0:0:0:
192,192,118386,1,0,0:0:0:0:
320,192,118403,1,0,0:0:0:0:
64,192,118403,1,0,0:0:0:0:
320,192,118650,1,0,0:0:0:0:
448,192,118666,1,0,0:0:0:0:
192,192,118683,1,0,0:0:0:0:
64,192,118699,1,0,0:0:0:0:
192,192,118929,1,0,0:0:0:0:
320,192,118929,1,0,0:0:0:0:
448,192,118929,1,0,0:0:0:0:
64,192,118929,128,0,121824:0:0:0:0:
448,192,119719,128,0,119982:0:0:0:0:
448,192,120508,128,0,120771:0:0:0:0:
448,192,121034,128,0,121298:0:0:0:0:
192,192,121298,1,0,0:0:0:0:
320,192,121363,1,0,0:0:0:0:
192,192,121429,1,0,0:0:0:0:
320,192,121495,1,0,0:0:0:0:
192,192,121561,1,0,0:0:0:0:
448,192,121824,128,0,122350:0:0:0:0:
192,192,122087,1,0,0:0:0:0:
320,192,122120,1,0,0:0:0:0:
192,192,122153,1,0,0:0:0:0:
320,192,122186,1,0,0:0:0:0:
192,192,122219,1,0,0:0:0:0:
320,192,122252,1,0,0:0:0:0:
192,192,122284,1,0,0:0:0:0:
320,192,122317,1,0,0:0:0:0:
64,192,122350,128,0,122482:0:0:0:0:
192,192,122482,128,0,122613:0:0:0:0:
448,192,122613,1,0,0:0:0:0:
320,192,123140,1,0,0:0:0:0:
192,192,123173,1,0,0:0:0:0:
320,192,123206,1,0,0:0:0:0:
192,192,123238,1,0,0:0:0:0:
320,192,123271,1,0,0:0:0:0:
192,192,123304,1,0,0:0:0:0:
320,192,123337,1,0,0:0:0:0:
192,192,123370,1,0,0:0:0:0:
