osu file format v14

[General]
AudioFilename: audio.mp3
AudioLeadIn: 0
PreviewTime: 91196
Countdown: 0
SampleSet: None
StackLeniency: 0.7
Mode: 1
LetterboxInBreaks: 0
WidescreenStoryboard: 0

[Editor]
Bookmarks: 2998,3579,3966,11071,11652,12039,28735,53351,78458,91196,103504,115811,121965,128119,149447,166161,182744
DistanceSpacing: 1.6
BeatDivisor: 8
GridSize: 32
TimelineZoom: 2.899999

[Metadata]
Title:Mettaton
TitleUnicode:Mettaton
Artist:Blankfield ft. Minstrell
ArtistUnicode:Blankfield ft. Minstrell
Creator:GoldenWolf
Version:tiko
Source:Undertale
Tags:Untaled
BeatmapID:1575773
BeatmapSetID:747898

[Difficulty]
HPDrainRate:6
CircleSize:2
OverallDifficulty:8
ApproachRate:10
SliderMultiplier:2.8
SliderTickRate:1

[Events]
//Background and Video events
0,0,"orz203.png",0,120
//Break Periods
//Storyboard Layer 0 (Background)
//Storyboard Layer 1 (Fail)
//Storyboard Layer 2 (Pass)
//Storyboard Layer 3 (Foreground)
//Storyboard Sound Samples

[TimingPoints]
16428,384.615384615385,4,1,0,75,1,0
39504,-103.092783505155,4,1,0,75,0,0
39697,-106.382978723404,4,1,0,75,0,0
39793,-108.695652173913,4,1,0,75,0,0
39841,-109.89010989011,4,1,0,75,0,0
39889,-111.111111111111,4,1,0,75,0,0
40081,-113.636363636364,4,1,0,75,0,0
40129,-114.942528735632,4,1,0,75,0,0
40178,-116.279069767442,4,1,0,75,0,0
40226,-117.647058823529,4,1,0,75,0,0
40274,-119.047619047619,4,1,0,75,0,0
40466,-121.951219512195,4,1,0,75,0,0
40514,-123.456790123457,4,1,0,75,0,0
40562,-125,4,1,0,75,0,0
40658,-126.582278481013,4,1,0,75,0,0
40754,-128.205128205128,4,1,0,75,0,0
40851,-129.87012987013,4,1,0,75,0,0
40947,-131.578947368421,4,1,0,75,0,0
41043,-133.333333333333,4,1,0,75,0,0
51812,-128.205128205128,4,1,0,75,0,0
52004,-123.456790123457,4,1,0,75,0,0
52197,-119.047619047619,4,1,0,75,0,0
52389,-114.942528735632,4,1,0,75,0,0
52581,-111.111111111111,4,1,0,75,0,0
52678,-108.695652173913,4,1,0,75,0,0
52726,-107.52688172043,4,1,0,75,0,0
52774,-106.382978723404,4,1,0,75,0,0
52870,-104.166666666667,4,1,0,75,0,0
52966,-102.040816326531,4,1,0,75,0,0
53254,-101.010101010101,4,1,0,75,0,0
53351,-100,4,1,0,75,0,0
65258,400,4,1,0,75,1,8
65658,400,4,1,0,75,1,0
70458,-98.0392156862745,4,1,0,75,0,0
70508,-97.0873786407767,4,1,0,75,0,0
70558,-96.1538461538461,4,1,0,75,0,0
70608,-95.2380952380952,4,1,0,75,0,0
70658,-94.3396226415094,4,1,0,75,0,0
70858,-92.5925925925926,4,1,0,75,0,0
70908,-91.743119266055,4,1,0,75,0,0
70958,-90.9090909090909,4,1,0,75,0,0
71008,-90.0900900900901,4,1,0,75,0,0
71058,-89.2857142857143,4,1,0,75,0,0
71258,-87.719298245614,4,1,0,75,0,0
71308,-86.9565217391304,4,1,0,75,0,0
71358,-86.2068965517241,4,1,0,75,0,0
71408,-85.4700854700855,4,1,0,75,0,0
71458,-86.2068965517241,4,1,0,75,0,0
71508,-87.719298245614,4,1,0,75,0,0
71558,-89.2857142857143,4,1,0,75,0,0
71608,-90.9090909090909,4,1,0,75,0,0
71658,-92.5925925925926,4,1,0,75,0,0
71758,-94.3396226415094,4,1,0,75,0,0
71858,-96.1538461538461,4,1,0,75,0,0
71958,-98.0392156862745,4,1,0,75,0,0
72058,-100,4,1,0,75,0,0
83258,-98.0392156862745,4,1,0,75,0,0
83308,-97.0873786407767,4,1,0,75,0,0
83358,-96.1538461538461,4,1,0,75,0,0
83408,-95.2380952380952,4,1,0,75,0,0
83458,-94.3396226415094,4,1,0,75,0,0
83658,-92.5925925925926,4,1,0,75,0,0
83708,-91.743119266055,4,1,0,75,0,0
83758,-90.9090909090909,4,1,0,75,0,0
83808,-90.0900900900901,4,1,0,75,0,0
83858,-89.2857142857143,4,1,0,75,0,0
84058,-87.719298245614,4,1,0,75,0,0
84108,-86.9565217391304,4,1,0,75,0,0
84158,-86.2068965517241,4,1,0,75,0,0
84208,-85.4700854700855,4,1,0,75,0,0
84258,-86.2068965517241,4,1,0,75,0,0
84308,-87.719298245614,4,1,0,75,0,0
84358,-89.2857142857143,4,1,0,75,0,0
84408,-90.9090909090909,4,1,0,75,0,0
84458,-92.5925925925926,4,1,0,75,0,0
84558,-94.3396226415094,4,1,0,75,0,0
84658,-96.1538461538461,4,1,0,75,0,0
84758,-98.0392156862745,4,1,0,75,0,0
84858,-100,4,1,0,75,0,0
89658,384.615384615385,4,1,0,75,1,0
95811,-99.009900990099,4,1,0,75,0,0
95859,-98.0392156862745,4,1,0,75,0,0
95908,-97.0873786407767,4,1,0,75,0,0
96100,-95.2380952380952,4,1,0,75,0,0
96148,-94.3396226415094,4,1,0,75,0,0
96196,-93.4579439252336,4,1,0,75,0,0
96388,-91.743119266055,4,1,0,75,0,0
96436,-90.9090909090909,4,1,0,75,0,0
96484,-90.0900900900901,4,1,0,75,0,0
96581,-89.2857142857143,4,1,0,75,0,0
96869,-90.0900900900901,4,1,0,75,0,0
96917,-90.9090909090909,4,1,0,75,0,0
96965,-91.743119266055,4,1,0,75,0,0
97061,-94.3396226415094,4,1,0,75,0,0
97158,-97.0873786407767,4,1,0,75,0,0
97350,-100,4,1,0,75,0,0
101965,-99.009900990099,4,1,0,75,0,0
102013,-98.0392156862745,4,1,0,75,0,0
102062,-97.0873786407767,4,1,0,75,0,0
102254,-95.2380952380952,4,1,0,75,0,0
102302,-94.3396226415094,4,1,0,75,0,0
102350,-93.4579439252336,4,1,0,75,0,0
102542,-91.743119266055,4,1,0,75,0,0
102590,-90.9090909090909,4,1,0,75,0,0
102638,-90.0900900900901,4,1,0,75,0,0
102735,-89.2857142857143,4,1,0,75,0,0
103023,-90.0900900900901,4,1,0,75,0,0
103071,-90.9090909090909,4,1,0,75,0,0
103119,-91.743119266055,4,1,0,75,0,0
103215,-94.3396226415094,4,1,0,75,0,0
103312,-97.0873786407767,4,1,0,75,0,0
103504,-100,4,1,0,75,0,0
108119,-99.009900990099,4,1,0,75,0,0
108167,-98.0392156862745,4,1,0,75,0,0
108216,-97.0873786407767,4,1,0,75,0,0
108408,-95.2380952380952,4,1,0,75,0,0
108456,-94.3396226415094,4,1,0,75,0,0
108504,-93.4579439252336,4,1,0,75,0,0
108696,-91.743119266055,4,1,0,75,0,0
108744,-90.9090909090909,4,1,0,75,0,0
108792,-90.0900900900901,4,1,0,75,0,0
108889,-89.2857142857143,4,1,0,75,0,0
109177,-90.0900900900901,4,1,0,75,0,0
109225,-90.9090909090909,4,1,0,75,0,0
109273,-91.743119266055,4,1,0,75,0,0
109369,-94.3396226415094,4,1,0,75,0,0
109466,-97.0873786407767,4,1,0,75,0,0
109658,-100,4,1,0,75,0,0
114273,-99.009900990099,4,1,0,75,0,0
114321,-98.0392156862745,4,1,0,75,0,0
114370,-97.0873786407767,4,1,0,75,0,0
114562,-95.2380952380952,4,1,0,75,0,0
114610,-94.3396226415094,4,1,0,75,0,0
114658,-93.4579439252336,4,1,0,75,0,0
114850,-91.743119266055,4,1,0,75,0,0
114898,-90.9090909090909,4,1,0,75,0,0
114946,-90.0900900900901,4,1,0,75,0,0
115043,-89.2857142857143,4,1,0,75,0,0
115331,-90.0900900900901,4,1,0,75,0,0
115379,-90.9090909090909,4,1,0,75,0,0
115427,-91.743119266055,4,1,0,75,0,0
115523,-94.3396226415094,4,1,0,75,0,0
115620,-97.0873786407767,4,1,0,75,0,0
115812,-100,4,1,0,75,0,0
132734,384.615384615385,4,1,0,75,1,8
132752,521.739130434783,4,1,0,75,1,0

[HitObjects]
256,192,16428,5,12,0:0:0:0:
256,192,16812,1,0,0:0:0:0:
256,192,17197,1,0,0:0:0:0:
256,192,17389,1,8,0:0:0:0:
256,192,17437,1,8,0:0:0:0:
256,192,17485,1,0,0:0:0:0:
256,192,17533,1,0,0:0:0:0:
256,192,17581,1,8,0:0:0:0:
256,192,17774,1,8,0:0:0:0:
256,192,17822,1,0,0:0:0:0:
256,192,17870,1,0,0:0:0:0:
256,192,17918,1,0,0:0:0:0:
256,192,17966,1,8,0:0:0:0:
256,192,18158,1,0,0:0:0:0:
256,192,18351,1,0,0:0:0:0:
256,192,18735,1,0,0:0:0:0:
256,192,18928,1,8,0:0:0:0:
256,192,18976,1,8,0:0:0:0:
256,192,19024,1,8,0:0:0:0:
256,192,19072,1,8,0:0:0:0:
256,192,19120,1,0,0:0:0:0:
256,192,19504,1,12,0:0:0:0:
256,192,19888,1,0,0:0:0:0:
256,192,20273,1,0,0:0:0:0:
256,192,20465,1,8,0:0:0:0:
256,192,20513,1,8,0:0:0:0:
256,192,20561,1,0,0:0:0:0:
256,192,20609,1,0,0:0:0:0:
256,192,20657,1,8,0:0:0:0:
256,192,20850,1,8,0:0:0:0:
256,192,20898,1,0,0:0:0:0:
256,192,20946,1,0,0:0:0:0:
256,192,20994,1,0,0:0:0:0:
256,192,21042,1,8,0:0:0:0:
256,192,21234,1,0,0:0:0:0:
256,192,21427,1,8,0:0:0:0:
256,192,21620,1,0,0:0:0:0:
256,192,21811,1,8,0:0:0:0:
256,192,21860,1,8,0:0:0:0:
256,192,21908,1,0,0:0:0:0:
256,192,21956,1,0,0:0:0:0:
256,192,22004,1,8,0:0:0:0:
256,192,22052,1,8,0:0:0:0:
256,192,22100,1,8,0:0:0:0:
256,192,22148,1,8,0:0:0:0:
256,192,22196,1,0,0:0:0:0:
256,192,22581,1,12,0:0:0:0:
256,192,22870,1,0,0:0:0:0:
256,192,22966,1,8,0:0:0:0:
256,192,23254,1,0,0:0:0:0:
256,192,23351,1,8,0:0:0:0:
256,192,23543,1,8,0:0:0:0:
256,192,23639,1,8,0:0:0:0:
256,192,23735,1,0,0:0:0:0:
256,192,23928,1,8,0:0:0:0:
256,192,24024,1,8,0:0:0:0:
256,192,24120,1,0,0:0:0:0:
256,192,24312,1,8,0:0:0:0:
256,192,24408,1,8,0:0:0:0:
256,192,24504,1,0,0:0:0:0:
256,192,24601,1,0,0:0:0:0:
256,192,24649,1,0,0:0:0:0:
256,192,24697,1,8,0:0:0:0:
256,192,24889,1,8,0:0:0:0:
256,192,24937,1,8,0:0:0:0:
256,192,24985,1,0,0:0:0:0:
256,192,25033,1,0,0:0:0:0:
256,192,25081,1,0,0:0:0:0:
256,192,25129,1,0,0:0:0:0:
256,192,25178,1,8,0:0:0:0:
256,192,25274,1,8,0:0:0:0:
256,192,25466,1,0,0:0:0:0:
256,192,25514,1,0,0:0:0:0:
256,192,25562,1,0,0:0:0:0:
256,192,25610,1,0,0:0:0:0:
256,192,25658,1,12,0:0:0:0:
256,192,25851,1,0,0:0:0:0:
256,192,25947,1,8,0:0:0:0:
256,192,26043,1,8,0:0:0:0:
256,192,26235,1,0,0:0:0:0:
256,192,26428,1,8,0:0:0:0:
256,192,26524,1,8,0:0:0:0:
256,192,26620,1,0,0:0:0:0:
256,192,26812,1,8,0:0:0:0:
256,192,26908,1,0,0:0:0:0:
256,192,27004,1,0,0:0:0:0:
256,192,27197,1,8,0:0:0:0:
256,192,27245,1,8,0:0:0:0:
256,192,27293,1,0,0:0:0:0:
256,192,27341,1,0,0:0:0:0:
256,192,27389,1,8,0:0:0:0:
256,192,27437,1,8,0:0:0:0:
256,192,27485,1,0,0:0:0:0:
256,192,27533,1,0,0:0:0:0:
256,192,27581,1,8,0:0:0:0:
256,192,27629,1,8,0:0:0:0:
256,192,27678,1,8,0:0:0:0:
256,192,27726,1,8,0:0:0:0:
256,192,27774,1,0,0:0:0:0:
256,192,27822,1,0,0:0:0:0:
256,192,27870,1,0,0:0:0:0:
256,192,27918,1,0,0:0:0:0:
256,192,27966,1,8,0:0:0:0:
256,192,28351,1,8,0:0:0:0:
256,192,28735,1,12,0:0:0:0:
256,192,28928,1,0,0:0:0:0:
256,192,29024,1,0,0:0:0:0:
256,192,29072,1,0,0:0:0:0:
256,192,29120,1,8,0:0:0:0:
256,192,29312,1,0,0:0:0:0:
256,192,29504,1,8,0:0:0:0:
256,192,29601,1,8,0:0:0:0:
256,192,29697,1,0,0:0:0:0:
256,192,29793,1,8,0:0:0:0:
256,192,29889,1,8,0:0:0:0:
256,192,29985,1,0,0:0:0:0:
256,192,30033,1,0,0:0:0:0:
256,192,30081,1,8,0:0:0:0:
256,192,30274,1,0,0:0:0:0:
256,192,30466,1,8,0:0:0:0:
256,192,30562,1,0,0:0:0:0:
256,192,30610,1,0,0:0:0:0:
256,192,30658,1,8,0:0:0:0:
256,192,30851,1,0,0:0:0:0:
256,192,30899,1,0,0:0:0:0:
256,192,30947,1,0,0:0:0:0:
256,192,30995,1,0,0:0:0:0:
256,192,31043,1,8,0:0:0:0:
256,192,31235,1,0,0:0:0:0:
256,192,31283,1,0,0:0:0:0:
256,192,31331,1,8,0:0:0:0:
256,192,31428,1,8,0:0:0:0:
256,192,31620,1,0,0:0:0:0:
256,192,31812,1,8,0:0:0:0:
256,192,32004,1,0,0:0:0:0:
256,192,32100,1,0,0:0:0:0:
256,192,32148,1,0,0:0:0:0:
256,192,32196,1,8,0:0:0:0:
256,192,32388,1,0,0:0:0:0:
256,192,32580,1,8,0:0:0:0:
256,192,32677,1,8,0:0:0:0:
256,192,32773,1,0,0:0:0:0:
256,192,32869,1,8,0:0:0:0:
256,192,32965,1,8,0:0:0:0:
256,192,33061,1,0,0:0:0:0:
256,192,33109,1,0,0:0:0:0:
256,192,33157,1,8,0:0:0:0:
256,192,33350,1,0,0:0:0:0:
256,192,33542,1,8,0:0:0:0:
256,192,33638,1,0,0:0:0:0:
256,192,33686,1,0,0:0:0:0:
256,192,33734,1,8,0:0:0:0:
256,192,33927,1,0,0:0:0:0:
256,192,33975,1,0,0:0:0:0:
256,192,34023,1,0,0:0:0:0:
256,192,34071,1,0,0:0:0:0:
256,192,34119,1,8,0:0:0:0:
256,192,34311,1,0,0:0:0:0:
256,192,34359,1,0,0:0:0:0:
256,192,34407,1,8,0:0:0:0:
256,192,34504,1,8,0:0:0:0:
256,192,34601,1,0,0:0:0:0:
256,192,34649,1,0,0:0:0:0:
256,192,34696,1,8,0:0:0:0:
256,192,34889,1,8,0:0:0:0:
256,192,35081,1,0,0:0:0:0:
256,192,35177,1,0,0:0:0:0:
256,192,35225,1,0,0:0:0:0:
256,192,35273,1,8,0:0:0:0:
256,192,35465,1,0,0:0:0:0:
256,192,35657,1,8,0:0:0:0:
256,192,35754,1,8,0:0:0:0:
256,192,35850,1,0,0:0:0:0:
256,192,35946,1,8,0:0:0:0:
256,192,36042,1,8,0:0:0:0:
256,192,36138,1,0,0:0:0:0:
256,192,36186,1,0,0:0:0:0:
256,192,36234,1,8,0:0:0:0:
256,192,36427,1,0,0:0:0:0:
256,192,36619,1,8,0:0:0:0:
256,192,36715,1,0,0:0:0:0:
256,192,36763,1,0,0:0:0:0:
256,192,36811,1,8,0:0:0:0:
256,192,37004,1,0,0:0:0:0:
256,192,37052,1,0,0:0:0:0:
256,192,37100,1,0,0:0:0:0:
256,192,37148,1,0,0:0:0:0:
256,192,37196,1,8,0:0:0:0:
256,192,37388,1,0,0:0:0:0:
256,192,37436,1,0,0:0:0:0:
256,192,37484,1,8,0:0:0:0:
256,192,37581,1,8,0:0:0:0:
256,192,37773,1,0,0:0:0:0:
256,192,37965,1,8,0:0:0:0:
256,192,38157,1,0,0:0:0:0:
256,192,38253,1,0,0:0:0:0:
256,192,38301,1,0,0:0:0:0:
256,192,38349,1,8,0:0:0:0:
256,192,38541,1,0,0:0:0:0:
256,192,38733,1,8,0:0:0:0:
256,192,38830,1,8,0:0:0:0:
256,192,38926,1,0,0:0:0:0:
256,192,39022,1,8,0:0:0:0:
256,192,39118,1,8,0:0:0:0:
256,192,39214,1,0,0:0:0:0:
256,192,39262,1,0,0:0:0:0:
256,192,39310,1,8,0:0:0:0:
256,192,39504,1,0,0:0:0:0:
256,192,39697,1,8,0:0:0:0:
256,192,39793,1,0,0:0:0:0:
256,192,39841,1,0,0:0:0:0:
256,192,39889,1,8,0:0:0:0:
256,192,40081,1,0,0:0:0:0:
256,192,40129,1,0,0:0:0:0:
256,192,40178,1,0,0:0:0:0:
256,192,40226,1,0,0:0:0:0:
256,192,40274,1,8,0:0:0:0:
256,192,40466,1,0,0:0:0:0:
256,192,40514,1,0,0:0:0:0:
256,192,40562,1,8,0:0:0:0:
256,192,40658,1,8,0:0:0:0:
256,192,40754,1,0,0:0:0:0:
256,192,40851,1,0,0:0:0:0:
256,192,40947,1,0,0:0:0:0:
256,192,41043,1,12,0:0:0:0:
256,192,41235,1,0,0:0:0:0:
256,192,41331,1,0,0:0:0:0:
256,192,41428,1,8,0:0:0:0:
256,192,41620,1,0,0:0:0:0:
256,192,41812,1,8,0:0:0:0:
256,192,42004,1,0,0:0:0:0:
256,192,42101,1,8,0:0:0:0:
256,192,42197,1,8,0:0:0:0:
256,192,42293,1,0,0:0:0:0:
256,192,42389,1,8,0:0:0:0:
256,192,42581,1,0,0:0:0:0:
256,192,42774,1,8,0:0:0:0:
256,192,42966,1,8,0:0:0:0:
256,192,43158,1,0,0:0:0:0:
256,192,43351,1,8,0:0:0:0:
256,192,43447,1,0,0:0:0:0:
256,192,43543,1,0,0:0:0:0:
256,192,43639,1,8,0:0:0:0:
256,192,43735,1,0,0:0:0:0:
256,192,43928,1,0,0:0:0:0:
256,192,44120,1,8,0:0:0:0:
256,192,44312,1,0,0:0:0:0:
256,192,44408,1,0,0:0:0:0:
256,192,44505,1,8,0:0:0:0:
256,192,44697,1,0,0:0:0:0:
256,192,44889,1,8,0:0:0:0:
256,192,44985,1,8,0:0:0:0:
256,192,45081,1,0,0:0:0:0:
256,192,45178,1,8,0:0:0:0:
256,192,45274,1,0,0:0:0:0:
256,192,45466,1,8,0:0:0:0:
256,192,45658,1,0,0:0:0:0:
256,192,45851,1,8,0:0:0:0:
256,192,46043,1,8,0:0:0:0:
256,192,46235,1,0,0:0:0:0:
256,192,46428,1,8,0:0:0:0:
256,192,46524,1,8,0:0:0:0:
256,192,46620,1,0,0:0:0:0:
256,192,46716,1,8,0:0:0:0:
256,192,46812,1,8,0:0:0:0:
256,192,46908,1,0,0:0:0:0:
256,192,47005,1,0,0:0:0:0:
256,192,47101,1,0,0:0:0:0:
256,192,47197,1,8,0:0:0:0:
256,192,47389,1,0,0:0:0:0:
256,192,47485,1,0,0:0:0:0:
256,192,47582,1,8,0:0:0:0:
256,192,47774,1,0,0:0:0:0:
256,192,47966,1,8,0:0:0:0:
256,192,48158,1,0,0:0:0:0:
256,192,48255,1,8,0:0:0:0:
256,192,48351,1,8,0:0:0:0:
256,192,48447,1,0,0:0:0:0:
256,192,48543,1,8,0:0:0:0:
256,192,48735,1,0,0:0:0:0:
256,192,48928,1,8,0:0:0:0:
256,192,49120,1,8,0:0:0:0:
256,192,49312,1,0,0:0:0:0:
256,192,49505,1,8,0:0:0:0:
256,192,49601,1,0,0:0:0:0:
256,192,49697,1,0,0:0:0:0:
256,192,49793,1,8,0:0:0:0:
256,192,49889,1,0,0:0:0:0:
256,192,50082,1,0,0:0:0:0:
256,192,50274,1,8,0:0:0:0:
256,192,50466,1,0,0:0:0:0:
256,192,50562,1,0,0:0:0:0:
256,192,50659,1,8,0:0:0:0:
256,192,50851,1,0,0:0:0:0:
256,192,51043,1,8,0:0:0:0:
256,192,51139,1,8,0:0:0:0:
256,192,51235,1,0,0:0:0:0:
256,192,51332,1,8,0:0:0:0:
256,192,51428,1,0,0:0:0:0:
256,192,51620,1,8,0:0:0:0:
256,192,51812,1,0,0:0:0:0:
256,192,52005,1,8,0:0:0:0:
256,192,52197,1,8,0:0:0:0:
256,192,52389,1,0,0:0:0:0:
256,192,52582,1,8,0:0:0:0:
256,192,52678,1,0,0:0:0:0:
256,192,52726,1,0,0:0:0:0:
256,192,52774,1,0,0:0:0:0:
256,192,52870,1,8,0:0:0:0:
256,192,52966,1,8,0:0:0:0:
256,192,53014,1,0,0:0:0:0:
256,192,53062,1,0,0:0:0:0:
256,192,53110,1,0,0:0:0:0:
256,192,53159,1,8,0:0:0:0:
256,192,53254,1,0,0:0:0:0:
256,192,53351,1,12,0:0:0:0:
256,192,53543,1,8,0:0:0:0:
256,192,53639,1,0,0:0:0:0:
256,192,53735,1,8,0:0:0:0:
256,192,53831,1,0,0:0:0:0:
256,192,53928,1,0,0:0:0:0:
256,192,53976,1,0,0:0:0:0:
256,192,54024,1,8,0:0:0:0:
256,192,54120,1,8,0:0:0:0:
256,192,54216,1,0,0:0:0:0:
256,192,54312,1,0,0:0:0:0:
256,192,54408,1,8,0:0:0:0:
256,192,54504,1,8,0:0:0:0:
256,192,54601,1,0,0:0:0:0:
256,192,54649,1,0,0:0:0:0:
256,192,54697,1,8,0:0:0:0:
256,192,54793,1,0,0:0:0:0:
256,192,54889,1,0,0:0:0:0:
256,192,54985,1,0,0:0:0:0:
256,192,55081,1,8,0:0:0:0:
256,192,55178,1,0,0:0:0:0:
256,192,55226,1,0,0:0:0:0:
256,192,55274,1,8,0:0:0:0:
256,192,55370,1,8,0:0:0:0:
256,192,55466,1,0,0:0:0:0:
256,192,55514,1,0,0:0:0:0:
256,192,55562,1,8,0:0:0:0:
256,192,55658,1,8,0:0:0:0:
256,192,55754,1,8,0:0:0:0:
256,192,55851,1,0,0:0:0:0:
256,192,55947,1,8,0:0:0:0:
256,192,56043,1,8,0:0:0:0:
256,192,56139,1,0,0:0:0:0:
256,192,56235,1,8,0:0:0:0:
256,192,56331,1,0,0:0:0:0:
256,192,56428,1,8,0:0:0:0:
256,192,56524,1,0,0:0:0:0:
256,192,56572,1,0,0:0:0:0:
256,192,56620,1,8,0:0:0:0:
256,192,56716,1,8,0:0:0:0:
256,192,56812,1,0,0:0:0:0:
256,192,57004,1,0,0:0:0:0:
256,192,57101,1,0,0:0:0:0:
256,192,57197,1,8,0:0:0:0:
256,192,57293,1,8,0:0:0:0:
256,192,57389,1,0,0:0:0:0:
256,192,57485,1,8,0:0:0:0:
256,192,57581,1,0,0:0:0:0:
256,192,57678,1,0,0:0:0:0:
256,192,57774,1,8,0:0:0:0:
256,192,57822,1,0,0:0:0:0:
256,192,57870,1,0,0:0:0:0:
256,192,57918,1,0,0:0:0:0:
256,192,57966,1,8,0:0:0:0:
256,192,58158,1,0,0:0:0:0:
256,192,58206,1,0,0:0:0:0:
256,192,58254,1,8,0:0:0:0:
256,192,58351,1,8,0:0:0:0:
256,192,58447,1,0,0:0:0:0:
256,192,58543,1,8,0:0:0:0:
256,192,58639,1,0,0:0:0:0:
256,192,58735,1,8,0:0:0:0:
256,192,58831,1,0,0:0:0:0:
256,192,58879,1,0,0:0:0:0:
256,192,58928,1,8,0:0:0:0:
256,192,59024,1,8,0:0:0:0:
256,192,59120,1,0,0:0:0:0:
256,192,59216,1,8,0:0:0:0:
256,192,59312,1,0,0:0:0:0:
256,192,59504,1,12,0:0:0:0:
256,192,59697,1,8,0:0:0:0:
256,192,59793,1,0,0:0:0:0:
256,192,59889,1,8,0:0:0:0:
256,192,59985,1,0,0:0:0:0:
256,192,60082,1,0,0:0:0:0:
256,192,60130,1,0,0:0:0:0:
256,192,60178,1,8,0:0:0:0:
256,192,60274,1,8,0:0:0:0:
256,192,60370,1,0,0:0:0:0:
256,192,60466,1,0,0:0:0:0:
256,192,60562,1,8,0:0:0:0:
256,192,60658,1,8,0:0:0:0:
256,192,60755,1,0,0:0:0:0:
256,192,60803,1,0,0:0:0:0:
256,192,60851,1,8,0:0:0:0:
256,192,60947,1,0,0:0:0:0:
256,192,61043,1,0,0:0:0:0:
256,192,61139,1,0,0:0:0:0:
256,192,61235,1,8,0:0:0:0:
256,192,61332,1,0,0:0:0:0:
256,192,61380,1,0,0:0:0:0:
256,192,61428,1,8,0:0:0:0:
256,192,61524,1,8,0:0:0:0:
256,192,61620,1,0,0:0:0:0:
256,192,61668,1,0,0:0:0:0:
256,192,61716,1,8,0:0:0:0:
256,192,61812,1,8,0:0:0:0:
256,192,61908,1,0,0:0:0:0:
256,192,61956,1,0,0:0:0:0:
256,192,62005,1,8,0:0:0:0:
256,192,62101,1,8,0:0:0:0:
256,192,62197,1,8,0:0:0:0:
256,192,62293,1,0,0:0:0:0:
256,192,62389,1,8,0:0:0:0:
256,192,62485,1,0,0:0:0:0:
256,192,62582,1,8,0:0:0:0:
256,192,62678,1,0,0:0:0:0:
256,192,62726,1,0,0:0:0:0:
256,192,62774,1,8,0:0:0:0:
256,192,62870,1,8,0:0:0:0:
256,192,62966,1,0,0:0:0:0:
256,192,63158,1,0,0:0:0:0:
256,192,63255,1,0,0:0:0:0:
256,192,63303,1,0,0:0:0:0:
256,192,63351,1,8,0:0:0:0:
256,192,63447,1,8,0:0:0:0:
256,192,63543,1,0,0:0:0:0:
256,192,63639,1,8,0:0:0:0:
256,192,63735,1,8,0:0:0:0:
256,192,63832,1,0,0:0:0:0:
256,192,63928,1,8,0:0:0:0:
256,192,64024,1,0,0:0:0:0:
256,192,64072,1,0,0:0:0:0:
256,192,64120,1,8,0:0:0:0:
256,192,64168,1,8,0:0:0:0:
256,192,64216,1,0,0:0:0:0:
256,192,64312,1,0,0:0:0:0:
256,192,64360,1,0,0:0:0:0:
256,192,64408,1,8,0:0:0:0:
256,192,64456,1,0,0:0:0:0:
256,192,64505,1,8,0:0:0:0:
256,192,64601,1,0,0:0:0:0:
256,192,64697,1,8,0:0:0:0:
256,192,64745,1,8,0:0:0:0:
256,192,64793,1,0,0:0:0:0:
256,192,64841,1,0,0:0:0:0:
256,192,64889,1,8,0:0:0:0:
256,192,65258,1,8,0:0:0:0:
256,192,65358,1,0,0:0:0:0:
256,192,65458,1,0,0:0:0:0:
256,192,65558,1,0,0:0:0:0:
256,192,65658,1,12,0:0:0:0:
256,192,65758,1,0,0:0:0:0:
256,192,65858,1,0,0:0:0:0:
256,192,65958,1,0,0:0:0:0:
256,192,66158,1,8,0:0:0:0:
256,192,66258,1,8,0:0:0:0:
256,192,66358,1,8,0:0:0:0:
256,192,66458,1,0,0:0:0:0:
256,192,66658,1,8,0:0:0:0:
256,192,66758,1,0,0:0:0:0:
256,192,66808,1,0,0:0:0:0:
256,192,66858,1,8,0:0:0:0:
256,192,66958,1,0,0:0:0:0:
256,192,67008,1,0,0:0:0:0:
256,192,67058,1,8,0:0:0:0:
256,192,67158,1,0,0:0:0:0:
256,192,67258,1,8,0:0:0:0:
256,192,67308,1,8,0:0:0:0:
256,192,67358,1,0,0:0:0:0:
256,192,67408,1,0,0:0:0:0:
256,192,67458,1,8,0:0:0:0:
256,192,67658,1,8,0:0:0:0:
256,192,67791,1,0,0:0:0:0:
256,192,67858,1,0,0:0:0:0:
256,192,67924,1,0,0:0:0:0:
256,192,67991,1,0,0:0:0:0:
256,192,68058,1,8,0:0:0:0:
256,192,68258,1,0,0:0:0:0:
256,192,68358,1,0,0:0:0:0:
256,192,68458,1,8,0:0:0:0:
256,192,68558,1,0,0:0:0:0:
256,192,68658,1,0,0:0:0:0:
256,192,68858,1,8,0:0:0:0:
256,192,69058,1,0,0:0:0:0:
256,192,69108,1,0,0:0:0:0:
256,192,69158,1,8,0:0:0:0:
256,192,69258,1,0,0:0:0:0:
256,192,69358,1,0,0:0:0:0:
256,192,69458,1,8,0:0:0:0:
256,192,69508,1,8,0:0:0:0:
256,192,69558,1,0,0:0:0:0:
256,192,69608,1,0,0:0:0:0:
256,192,69658,1,8,0:0:0:0:
256,192,69858,1,8,0:0:0:0:
256,192,69908,1,8,0:0:0:0:
256,192,69958,1,0,0:0:0:0:
256,192,70058,1,8,0:0:0:0:
256,192,70158,1,0,0:0:0:0:
256,192,70258,1,8,0:0:0:0:
256,192,70458,1,8,0:0:0:0:
256,192,70508,1,0,0:0:0:0:
256,192,70558,1,0,0:0:0:0:
256,192,70608,1,0,0:0:0:0:
256,192,70658,1,8,0:0:0:0:
256,192,70858,1,8,0:0:0:0:
256,192,70908,1,8,0:0:0:0:
256,192,70958,1,0,0:0:0:0:
256,192,71008,1,0,0:0:0:0:
256,192,71058,1,8,0:0:0:0:
256,192,71258,1,8,0:0:0:0:
256,192,71308,1,8,0:0:0:0:
256,192,71358,1,8,0:0:0:0:
256,192,71408,1,8,0:0:0:0:
256,192,71458,1,0,0:0:0:0:
256,192,71508,1,0,0:0:0:0:
256,192,71558,1,0,0:0:0:0:
256,192,71608,1,0,0:0:0:0:
256,192,71658,1,8,0:0:0:0:
256,192,71758,1,0,0:0:0:0:
256,192,71858,1,0,0:0:0:0:
256,192,71958,1,0,0:0:0:0:
256,192,72058,1,12,0:0:0:0:
256,192,72158,1,0,0:0:0:0:
256,192,72258,1,0,0:0:0:0:
256,192,72358,1,0,0:0:0:0:
256,192,72558,1,8,0:0:0:0:
256,192,72658,1,8,0:0:0:0:
256,192,72758,1,8,0:0:0:0:
256,192,72858,1,0,0:0:0:0:
256,192,73058,1,8,0:0:0:0:
256,192,73158,1,0,0:0:0:0:
256,192,73208,1,0,0:0:0:0:
256,192,73258,1,8,0:0:0:0:
256,192,73358,1,0,0:0:0:0:
256,192,73408,1,0,0:0:0:0:
256,192,73458,1,8,0:0:0:0:
256,192,73558,1,0,0:0:0:0:
256,192,73658,1,8,0:0:0:0:
256,192,73708,1,8,0:0:0:0:
256,192,73758,1,0,0:0:0:0:
256,192,73808,1,0,0:0:0:0:
256,192,73858,1,8,0:0:0:0:
256,192,74058,1,8,0:0:0:0:
256,192,74191,1,0,0:0:0:0:
256,192,74258,1,0,0:0:0:0:
256,192,74324,1,0,0:0:0:0:
256,192,74391,1,0,0:0:0:0:
256,192,74458,1,8,0:0:0:0:
256,192,74658,1,0,0:0:0:0:
256,192,74758,1,0,0:0:0:0:
256,192,74858,1,8,0:0:0:0:
256,192,74958,1,8,0:0:0:0:
256,192,75058,1,0,0:0:0:0:
256,192,75158,1,0,0:0:0:0:
256,192,75258,1,8,0:0:0:0:
256,192,75458,1,0,0:0:0:0:
256,192,75508,1,0,0:0:0:0:
256,192,75558,1,8,0:0:0:0:
256,192,75858,1,8,0:0:0:0:
256,192,75908,1,8,0:0:0:0:
256,192,75958,1,0,0:0:0:0:
256,192,76008,1,0,0:0:0:0:
256,192,76058,1,8,0:0:0:0:
256,192,76258,1,8,0:0:0:0:
256,192,76358,1,0,0:0:0:0:
256,192,76458,1,0,0:0:0:0:
256,192,76558,1,0,0:0:0:0:
256,192,76658,1,8,0:0:0:0:
256,192,76858,1,8,0:0:0:0:
256,192,76958,1,0,0:0:0:0:
256,192,77058,1,8,0:0:0:0:
256,192,77108,1,8,0:0:0:0:
256,192,77158,1,0,0:0:0:0:
256,192,77208,1,0,0:0:0:0:
256,192,77258,1,8,0:0:0:0:
256,192,77308,1,8,0:0:0:0:
256,192,77358,1,8,0:0:0:0:
256,192,77408,1,8,0:0:0:0:
256,192,77458,1,0,0:0:0:0:
256,192,77658,1,8,0:0:0:0:
256,192,77758,1,0,0:0:0:0:
256,192,77808,1,0,0:0:0:0:
256,192,77858,1,0,0:0:0:0:
256,192,77958,1,0,0:0:0:0:
256,192,78008,1,0,0:0:0:0:
256,192,78058,1,8,0:0:0:0:
256,192,78158,1,0,0:0:0:0:
256,192,78258,1,0,0:0:0:0:
256,192,78358,1,0,0:0:0:0:
256,192,78458,1,12,0:0:0:0:
256,192,78658,1,0,0:0:0:0:
256,192,78858,1,0,0:0:0:0:
256,192,78958,1,8,0:0:0:0:
256,192,79058,1,8,0:0:0:0:
256,192,79158,1,8,0:0:0:0:
256,192,79258,1,0,0:0:0:0:
256,192,79458,1,0,0:0:0:0:
256,192,79558,1,8,0:0:0:0:
256,192,79658,1,0,0:0:0:0:
256,192,79858,1,8,0:0:0:0:
256,192,79958,1,0,0:0:0:0:
256,192,80008,1,0,0:0:0:0:
256,192,80058,1,8,0:0:0:0:
256,192,80158,1,8,0:0:0:0:
256,192,80258,1,0,0:0:0:0:
256,192,80358,1,0,0:0:0:0:
256,192,80458,1,8,0:0:0:0:
256,192,80658,1,0,0:0:0:0:
256,192,80758,1,0,0:0:0:0:
256,192,80808,1,0,0:0:0:0:
256,192,80858,1,8,0:0:0:0:
256,192,80958,1,8,0:0:0:0:
256,192,81058,1,0,0:0:0:0:
256,192,81158,1,0,0:0:0:0:
256,192,81258,1,8,0:0:0:0:
256,192,81308,1,8,0:0:0:0:
256,192,81358,1,0,0:0:0:0:
256,192,81408,1,0,0:0:0:0:
256,192,81458,1,8,0:0:0:0:
256,192,81658,1,8,0:0:0:0:
256,192,81858,1,8,0:0:0:0:
256,192,81958,1,8,0:0:0:0:
256,192,82058,1,0,0:0:0:0:
256,192,82108,1,0,0:0:0:0:
256,192,82158,1,0,0:0:0:0:
256,192,82258,1,8,0:0:0:0:
256,192,82358,1,0,0:0:0:0:
256,192,82408,1,0,0:0:0:0:
256,192,82458,1,8,0:0:0:0:
256,192,82558,1,8,0:0:0:0:
256,192,82658,1,0,0:0:0:0:
256,192,82758,1,0,0:0:0:0:
256,192,82858,1,0,0:0:0:0:
256,192,82908,1,0,0:0:0:0:
256,192,82958,1,8,0:0:0:0:
256,192,83058,1,8,0:0:0:0:
256,192,83258,1,8,0:0:0:0:
256,192,83308,1,0,0:0:0:0:
256,192,83358,1,0,0:0:0:0:
256,192,83408,1,0,0:0:0:0:
256,192,83458,1,8,0:0:0:0:
256,192,83658,1,8,0:0:0:0:
256,192,83708,1,8,0:0:0:0:
256,192,83758,1,0,0:0:0:0:
256,192,83808,1,0,0:0:0:0:
256,192,83858,1,8,0:0:0:0:
256,192,84058,1,8,0:0:0:0:
256,192,84108,1,8,0:0:0:0:
256,192,84158,1,8,0:0:0:0:
256,192,84208,1,8,0:0:0:0:
256,192,84258,1,0,0:0:0:0:
256,192,84308,1,0,0:0:0:0:
256,192,84358,1,0,0:0:0:0:
256,192,84408,1,0,0:0:0:0:
256,192,84458,1,8,0:0:0:0:
256,192,84558,1,0,0:0:0:0:
256,192,84658,1,0,0:0:0:0:
256,192,84758,1,0,0:0:0:0:
256,192,84858,1,8,0:0:0:0:
256,192,85058,1,0,0:0:0:0:
256,192,85258,1,0,0:0:0:0:
256,192,85358,1,8,0:0:0:0:
256,192,85458,1,8,0:0:0:0:
256,192,85558,1,8,0:0:0:0:
256,192,85658,1,0,0:0:0:0:
256,192,85858,1,0,0:0:0:0:
256,192,85958,1,8,0:0:0:0:
256,192,86058,1,0,0:0:0:0:
256,192,86258,1,8,0:0:0:0:
256,192,86358,1,0,0:0:0:0:
256,192,86408,1,0,0:0:0:0:
256,192,86458,1,8,0:0:0:0:
256,192,86558,1,8,0:0:0:0:
256,192,86658,1,0,0:0:0:0:
256,192,86758,1,0,0:0:0:0:
256,192,86858,1,8,0:0:0:0:
256,192,87058,1,0,0:0:0:0:
256,192,87158,1,0,0:0:0:0:
256,192,87208,1,0,0:0:0:0:
256,192,87258,1,8,0:0:0:0:
256,192,87358,1,8,0:0:0:0:
256,192,87458,1,0,0:0:0:0:
256,192,87558,1,0,0:0:0:0:
256,192,87658,1,8,0:0:0:0:
256,192,87708,1,8,0:0:0:0:
256,192,87758,1,0,0:0:0:0:
256,192,87808,1,0,0:0:0:0:
256,192,87858,1,8,0:0:0:0:
256,192,88058,1,8,0:0:0:0:
256,192,88258,1,8,0:0:0:0:
256,192,88358,1,0,0:0:0:0:
256,192,88458,1,0,0:0:0:0:
256,192,88558,1,0,0:0:0:0:
256,192,88658,1,8,0:0:0:0:
256,192,88758,1,8,0:0:0:0:
256,192,88858,1,0,0:0:0:0:
256,192,88908,1,0,0:0:0:0:
256,192,88958,1,0,0:0:0:0:
256,192,89058,1,0,0:0:0:0:
256,192,89108,1,0,0:0:0:0:
256,192,89158,1,0,0:0:0:0:
256,192,89258,1,0,0:0:0:0:
256,192,89308,1,0,0:0:0:0:
256,192,89358,1,0,0:0:0:0:
256,192,89458,1,0,0:0:0:0:
256,192,89508,1,0,0:0:0:0:
256,192,89558,1,0,0:0:0:0:
256,192,89658,1,8,0:0:0:0:
256,192,89946,1,8,0:0:0:0:
256,192,90234,1,8,0:0:0:0:
256,192,90427,1,8,0:0:0:0:
256,192,90715,1,8,0:0:0:0:
256,192,90811,1,8,0:0:0:0:
256,192,91196,1,12,0:0:0:0:
256,192,91388,1,0,0:0:0:0:
256,192,91484,1,0,0:0:0:0:
256,192,91581,1,8,0:0:0:0:
256,192,91677,1,0,0:0:0:0:
256,192,91773,1,8,0:0:0:0:
256,192,91869,1,8,0:0:0:0:
256,192,91917,1,8,0:0:0:0:
256,192,91965,1,0,0:0:0:0:
256,192,92061,1,0,0:0:0:0:
256,192,92158,1,8,0:0:0:0:
256,192,92254,1,0,0:0:0:0:
256,192,92350,1,8,0:0:0:0:
256,192,92446,1,8,0:0:0:0:
256,192,92542,1,0,0:0:0:0:
256,192,92638,1,0,0:0:0:0:
256,192,92734,1,8,0:0:0:0:
256,192,92783,1,0,0:0:0:0:
256,192,92831,1,0,0:0:0:0:
256,192,92927,1,8,0:0:0:0:
256,192,93023,1,0,0:0:0:0:
256,192,93119,1,8,0:0:0:0:
256,192,93215,1,0,0:0:0:0:
256,192,93311,1,8,0:0:0:0:
256,192,93408,1,8,0:0:0:0:
256,192,93456,1,8,0:0:0:0:
256,192,93504,1,0,0:0:0:0:
256,192,93600,1,8,0:0:0:0:
256,192,93696,1,0,0:0:0:0:
256,192,93792,1,8,0:0:0:0:
256,192,93888,1,8,0:0:0:0:
256,192,93936,1,0,0:0:0:0:
256,192,93984,1,0,0:0:0:0:
256,192,94033,1,0,0:0:0:0:
256,192,94081,1,8,0:0:0:0:
256,192,94177,1,0,0:0:0:0:
256,192,94273,1,8,0:0:0:0:
256,192,94321,1,8,0:0:0:0:
256,192,94369,1,0,0:0:0:0:
256,192,94465,1,0,0:0:0:0:
256,192,94561,1,8,0:0:0:0:
256,192,94609,1,8,0:0:0:0:
256,192,94658,1,0,0:0:0:0:
256,192,94754,1,0,0:0:0:0:
256,192,94850,1,8,0:0:0:0:
256,192,94898,1,8,0:0:0:0:
256,192,94946,1,0,0:0:0:0:
256,192,95042,1,8,0:0:0:0:
256,192,95090,1,0,0:0:0:0:
256,192,95138,1,0,0:0:0:0:
256,192,95234,1,8,0:0:0:0:
256,192,95331,1,0,0:0:0:0:
256,192,95427,1,8,0:0:0:0:
256,192,95475,1,8,0:0:0:0:
256,192,95523,1,0,0:0:0:0:
256,192,95619,1,8,0:0:0:0:
256,192,95715,1,0,0:0:0:0:
256,192,95763,1,0,0:0:0:0:
256,192,95811,1,8,0:0:0:0:
256,192,95859,1,8,0:0:0:0:
256,192,95908,1,0,0:0:0:0:
256,192,96100,1,8,0:0:0:0:
256,192,96148,1,8,0:0:0:0:
256,192,96196,1,0,0:0:0:0:
256,192,96388,1,8,0:0:0:0:
256,192,96436,1,8,0:0:0:0:
256,192,96484,1,0,0:0:0:0:
256,192,96581,1,8,0:0:0:0:
256,192,96629,1,8,0:0:0:0:
256,192,96677,1,8,0:0:0:0:
256,192,96725,1,8,0:0:0:0:
256,192,96773,1,0,0:0:0:0:
256,192,96821,1,0,0:0:0:0:
256,192,96869,1,0,0:0:0:0:
256,192,96917,1,0,0:0:0:0:
256,192,96965,1,8,0:0:0:0:
256,192,97061,1,0,0:0:0:0:
256,192,97158,1,8,0:0:0:0:
256,192,97350,1,12,0:0:0:0:
256,192,97542,1,8,0:0:0:0:
256,192,97590,1,8,0:0:0:0:
256,192,97638,1,0,0:0:0:0:
256,192,97734,1,8,0:0:0:0:
256,192,97831,1,0,0:0:0:0:
256,192,97927,1,8,0:0:0:0:
256,192,98023,1,8,0:0:0:0:
256,192,98071,1,8,0:0:0:0:
256,192,98119,1,0,0:0:0:0:
256,192,98215,1,0,0:0:0:0:
256,192,98311,1,8,0:0:0:0:
256,192,98408,1,0,0:0:0:0:
256,192,98504,1,8,0:0:0:0:
256,192,98600,1,8,0:0:0:0:
256,192,98696,1,0,0:0:0:0:
256,192,98792,1,0,0:0:0:0:
256,192,98888,1,8,0:0:0:0:
256,192,98936,1,0,0:0:0:0:
256,192,98984,1,0,0:0:0:0:
256,192,99081,1,8,0:0:0:0:
256,192,99177,1,8,0:0:0:0:
256,192,99273,1,0,0:0:0:0:
256,192,99369,1,0,0:0:0:0:
256,192,99465,1,8,0:0:0:0:
256,192,99561,1,8,0:0:0:0:
256,192,99609,1,8,0:0:0:0:
256,192,99658,1,0,0:0:0:0:
256,192,99754,1,8,0:0:0:0:
256,192,99850,1,0,0:0:0:0:
256,192,99946,1,8,0:0:0:0:
256,192,100042,1,8,0:0:0:0:
256,192,100090,1,0,0:0:0:0:
256,192,100138,1,0,0:0:0:0:
256,192,100186,1,0,0:0:0:0:
256,192,100234,1,8,0:0:0:0:
256,192,100331,1,0,0:0:0:0:
256,192,100427,1,8,0:0:0:0:
256,192,100475,1,8,0:0:0:0:
256,192,100523,1,0,0:0:0:0:
256,192,100619,1,0,0:0:0:0:
256,192,100715,1,8,0:0:0:0:
256,192,100763,1,8,0:0:0:0:
256,192,100811,1,0,0:0:0:0:
256,192,100908,1,0,0:0:0:0:
256,192,101004,1,8,0:0:0:0:
256,192,101052,1,8,0:0:0:0:
256,192,101100,1,0,0:0:0:0:
256,192,101196,1,8,0:0:0:0:
256,192,101292,1,0,0:0:0:0:
256,192,101388,1,8,0:0:0:0:
256,192,101484,1,0,0:0:0:0:
256,192,101581,1,8,0:0:0:0:
256,192,101629,1,8,0:0:0:0:
256,192,101677,1,0,0:0:0:0:
256,192,101773,1,8,0:0:0:0:
256,192,101869,1,0,0:0:0:0:
256,192,101965,1,8,0:0:0:0:
256,192,102013,1,8,0:0:0:0:
256,192,102061,1,0,0:0:0:0:
256,192,102254,1,8,0:0:0:0:
256,192,102302,1,8,0:0:0:0:
256,192,102350,1,0,0:0:0:0:
256,192,102542,1,8,0:0:0:0:
256,192,102590,1,8,0:0:0:0:
256,192,102638,1,0,0:0:0:0:
256,192,102734,1,8,0:0:0:0:
256,192,102783,1,8,0:0:0:0:
256,192,102831,1,8,0:0:0:0:
256,192,102879,1,8,0:0:0:0:
256,192,102927,1,0,0:0:0:0:
256,192,102975,1,0,0:0:0:0:
256,192,103023,1,0,0:0:0:0:
256,192,103071,1,0,0:0:0:0:
256,192,103119,1,8,0:0:0:0:
256,192,103215,1,8,0:0:0:0:
256,192,103311,1,0,0:0:0:0:
256,192,103408,1,0,0:0:0:0:
256,192,103504,1,12,0:0:0:0:
256,192,103696,1,0,0:0:0:0:
256,192,103792,1,0,0:0:0:0:
256,192,103889,1,8,0:0:0:0:
256,192,103985,1,0,0:0:0:0:
256,192,104081,1,8,0:0:0:0:
256,192,104177,1,8,0:0:0:0:
256,192,104225,1,8,0:0:0:0:
256,192,104273,1,0,0:0:0:0:
256,192,104369,1,0,0:0:0:0:
256,192,104466,1,8,0:0:0:0:
256,192,104562,1,0,0:0:0:0:
256,192,104658,1,8,0:0:0:0:
256,192,104754,1,8,0:0:0:0:
256,192,104850,1,0,0:0:0:0:
256,192,104946,1,0,0:0:0:0:
256,192,105042,1,8,0:0:0:0:
256,192,105091,1,8,0:0:0:0:
256,192,105139,1,0,0:0:0:0:
256,192,105235,1,8,0:0:0:0:
256,192,105331,1,0,0:0:0:0:
256,192,105427,1,8,0:0:0:0:
256,192,105523,1,0,0:0:0:0:
256,192,105619,1,8,0:0:0:0:
256,192,105716,1,8,0:0:0:0:
256,192,105764,1,8,0:0:0:0:
256,192,105812,1,0,0:0:0:0:
256,192,105908,1,8,0:0:0:0:
256,192,106004,1,0,0:0:0:0:
256,192,106100,1,8,0:0:0:0:
256,192,106196,1,8,0:0:0:0:
256,192,106244,1,8,0:0:0:0:
256,192,106292,1,0,0:0:0:0:
256,192,106389,1,8,0:0:0:0:
256,192,106485,1,0,0:0:0:0:
256,192,106581,1,8,0:0:0:0:
256,192,106629,1,8,0:0:0:0:
256,192,106677,1,0,0:0:0:0:
256,192,106773,1,0,0:0:0:0:
256,192,106869,1,8,0:0:0:0:
256,192,106917,1,8,0:0:0:0:
256,192,106966,1,0,0:0:0:0:
256,192,107062,1,0,0:0:0:0:
256,192,107158,1,8,0:0:0:0:
256,192,107206,1,8,0:0:0:0:
256,192,107254,1,0,0:0:0:0:
256,192,107350,1,8,0:0:0:0:
256,192,107446,1,0,0:0:0:0:
256,192,107542,1,8,0:0:0:0:
256,192,107639,1,0,0:0:0:0:
256,192,107735,1,8,0:0:0:0:
256,192,107783,1,8,0:0:0:0:
256,192,107831,1,0,0:0:0:0:
256,192,107927,1,8,0:0:0:0:
256,192,108023,1,0,0:0:0:0:
256,192,108071,1,0,0:0:0:0:
256,192,108119,1,8,0:0:0:0:
256,192,108167,1,8,0:0:0:0:
256,192,108216,1,0,0:0:0:0:
256,192,108408,1,8,0:0:0:0:
256,192,108456,1,8,0:0:0:0:
256,192,108504,1,0,0:0:0:0:
256,192,108696,1,8,0:0:0:0:
256,192,108744,1,8,0:0:0:0:
256,192,108792,1,0,0:0:0:0:
256,192,108889,1,8,0:0:0:0:
256,192,108937,1,8,0:0:0:0:
256,192,108985,1,8,0:0:0:0:
256,192,109033,1,8,0:0:0:0:
256,192,109081,1,0,0:0:0:0:
256,192,109129,1,0,0:0:0:0:
256,192,109177,1,0,0:0:0:0:
256,192,109225,1,0,0:0:0:0:
256,192,109273,1,8,0:0:0:0:
256,192,109369,1,0,0:0:0:0:
256,192,109466,1,8,0:0:0:0:
256,192,109658,1,12,0:0:0:0:
256,192,109850,1,8,0:0:0:0:
256,192,109898,1,8,0:0:0:0:
256,192,109946,1,0,0:0:0:0:
256,192,110042,1,8,0:0:0:0:
256,192,110139,1,0,0:0:0:0:
256,192,110235,1,8,0:0:0:0:
256,192,110331,1,8,0:0:0:0:
256,192,110379,1,8,0:0:0:0:
256,192,110427,1,0,0:0:0:0:
256,192,110523,1,0,0:0:0:0:
256,192,110619,1,8,0:0:0:0:
256,192,110716,1,0,0:0:0:0:
256,192,110812,1,8,0:0:0:0:
256,192,110908,1,8,0:0:0:0:
256,192,111004,1,0,0:0:0:0:
256,192,111100,1,0,0:0:0:0:
256,192,111196,1,8,0:0:0:0:
256,192,111244,1,8,0:0:0:0:
256,192,111292,1,0,0:0:0:0:
256,192,111389,1,8,0:0:0:0:
256,192,111485,1,8,0:0:0:0:
256,192,111581,1,0,0:0:0:0:
256,192,111677,1,0,0:0:0:0:
256,192,111773,1,8,0:0:0:0:
256,192,111869,1,8,0:0:0:0:
256,192,111917,1,8,0:0:0:0:
256,192,111966,1,0,0:0:0:0:
256,192,112062,1,8,0:0:0:0:
256,192,112158,1,0,0:0:0:0:
256,192,112254,1,8,0:0:0:0:
256,192,112350,1,8,0:0:0:0:
256,192,112398,1,8,0:0:0:0:
256,192,112446,1,0,0:0:0:0:
256,192,112542,1,8,0:0:0:0:
256,192,112639,1,0,0:0:0:0:
256,192,112735,1,8,0:0:0:0:
256,192,112783,1,8,0:0:0:0:
256,192,112831,1,0,0:0:0:0:
256,192,112927,1,0,0:0:0:0:
256,192,113023,1,8,0:0:0:0:
256,192,113071,1,8,0:0:0:0:
256,192,113119,1,0,0:0:0:0:
256,192,113216,1,0,0:0:0:0:
256,192,113312,1,8,0:0:0:0:
256,192,113360,1,8,0:0:0:0:
256,192,113408,1,0,0:0:0:0:
256,192,113504,1,8,0:0:0:0:
256,192,113600,1,0,0:0:0:0:
256,192,113696,1,8,0:0:0:0:
256,192,113792,1,0,0:0:0:0:
256,192,113889,1,8,0:0:0:0:
256,192,113937,1,8,0:0:0:0:
256,192,113985,1,0,0:0:0:0:
256,192,114081,1,8,0:0:0:0:
256,192,114177,1,0,0:0:0:0:
256,192,114273,1,8,0:0:0:0:
256,192,114321,1,8,0:0:0:0:
256,192,114369,1,0,0:0:0:0:
256,192,114562,1,8,0:0:0:0:
256,192,114610,1,8,0:0:0:0:
256,192,114658,1,0,0:0:0:0:
256,192,114850,1,8,0:0:0:0:
256,192,114898,1,8,0:0:0:0:
256,192,114946,1,0,0:0:0:0:
256,192,115042,1,8,0:0:0:0:
256,192,115091,1,8,0:0:0:0:
256,192,115139,1,8,0:0:0:0:
256,192,115187,1,8,0:0:0:0:
256,192,115235,1,0,0:0:0:0:
256,192,115283,1,0,0:0:0:0:
256,192,115331,1,0,0:0:0:0:
256,192,115379,1,0,0:0:0:0:
256,192,115427,1,8,0:0:0:0:
256,192,115523,1,8,0:0:0:0:
256,192,115619,1,0,0:0:0:0:
256,192,115715,1,0,0:0:0:0:
256,192,115811,1,12,0:0:0:0:
256,192,116004,1,0,0:0:0:0:
256,192,116100,1,0,0:0:0:0:
256,192,116148,1,0,0:0:0:0:
256,192,116196,1,8,0:0:0:0:
256,192,116388,1,0,0:0:0:0:
256,192,116484,1,0,0:0:0:0:
256,192,116533,1,0,0:0:0:0:
256,192,116580,1,8,0:0:0:0:
256,192,116677,1,8,0:0:0:0:
256,192,116773,1,0,0:0:0:0:
256,192,116869,1,8,0:0:0:0:
256,192,116965,1,8,0:0:0:0:
256,192,117061,1,0,0:0:0:0:
256,192,117109,1,0,0:0:0:0:
256,192,117157,1,8,0:0:0:0:
256,192,117350,1,0,0:0:0:0:
256,192,117542,1,8,0:0:0:0:
256,192,117638,1,0,0:0:0:0:
256,192,117686,1,0,0:0:0:0:
256,192,117734,1,8,0:0:0:0:
256,192,117927,1,0,0:0:0:0:
256,192,118023,1,0,0:0:0:0:
256,192,118071,1,0,0:0:0:0:
256,192,118119,1,8,0:0:0:0:
256,192,118215,1,0,0:0:0:0:
256,192,118311,1,0,0:0:0:0:
256,192,118359,1,0,0:0:0:0:
256,192,118407,1,8,0:0:0:0:
256,192,118504,1,8,0:0:0:0:
256,192,118696,1,0,0:0:0:0:
256,192,118888,1,8,0:0:0:0:
256,192,119080,1,0,0:0:0:0:
256,192,119176,1,0,0:0:0:0:
256,192,119224,1,0,0:0:0:0:
256,192,119272,1,8,0:0:0:0:
256,192,119464,1,0,0:0:0:0:
256,192,119561,1,0,0:0:0:0:
256,192,119609,1,0,0:0:0:0:
256,192,119656,1,8,0:0:0:0:
256,192,119753,1,8,0:0:0:0:
256,192,119849,1,0,0:0:0:0:
256,192,119945,1,8,0:0:0:0:
256,192,120041,1,8,0:0:0:0:
256,192,120137,1,0,0:0:0:0:
256,192,120185,1,0,0:0:0:0:
256,192,120233,1,8,0:0:0:0:
256,192,120426,1,0,0:0:0:0:
256,192,120618,1,8,0:0:0:0:
256,192,120714,1,0,0:0:0:0:
256,192,120762,1,0,0:0:0:0:
256,192,120810,1,8,0:0:0:0:
256,192,121003,1,0,0:0:0:0:
256,192,121099,1,0,0:0:0:0:
256,192,121147,1,0,0:0:0:0:
256,192,121195,1,8,0:0:0:0:
256,192,121292,1,0,0:0:0:0:
256,192,121387,1,0,0:0:0:0:
256,192,121435,1,0,0:0:0:0:
256,192,121483,1,8,0:0:0:0:
256,192,121580,1,8,0:0:0:0:
256,192,121677,1,0,0:0:0:0:
256,192,121725,1,0,0:0:0:0:
256,192,121772,1,8,0:0:0:0:
256,192,121965,1,12,0:0:0:0:
256,192,122157,1,0,0:0:0:0:
256,192,122253,1,0,0:0:0:0:
256,192,122349,1,8,0:0:0:0:
256,192,122446,1,0,0:0:0:0:
256,192,122541,1,0,0:0:0:0:
256,192,122638,1,8,0:0:0:0:
256,192,122733,1,8,0:0:0:0:
256,192,122831,1,8,0:0:0:0:
256,192,122926,1,0,0:0:0:0:
256,192,122975,1,8,0:0:0:0:
256,192,123022,1,8,0:0:0:0:
256,192,123118,1,8,0:0:0:0:
256,192,123167,1,0,0:0:0:0:
256,192,123215,1,8,0:0:0:0:
256,192,123263,1,8,0:0:0:0:
256,192,123311,1,8,0:0:0:0:
256,192,123359,1,0,0:0:0:0:
256,192,123408,1,8,0:0:0:0:
256,192,123456,1,0,0:0:0:0:
256,192,123504,1,8,0:0:0:0:
256,192,123552,1,8,0:0:0:0:
256,192,123600,1,8,0:0:0:0:
256,192,123648,1,0,0:0:0:0:
256,192,123696,1,8,0:0:0:0:
256,192,123744,1,8,0:0:0:0:
256,192,123792,1,0,0:0:0:0:
256,192,123888,1,8,0:0:0:0:
256,192,123952,1,8,0:0:0:0:
256,192,124016,1,0,0:0:0:0:
256,192,124081,1,8,0:0:0:0:
256,192,124145,1,8,0:0:0:0:
256,192,124209,1,0,0:0:0:0:
256,192,124272,1,8,0:0:0:0:
256,192,124337,1,8,0:0:0:0:
256,192,124401,1,8,0:0:0:0:
256,192,124464,1,0,0:0:0:0:
256,192,124529,1,0,0:0:0:0:
256,192,124593,1,0,0:0:0:0:
256,192,124657,1,8,0:0:0:0:
256,192,124722,1,0,0:0:0:0:
256,192,124786,1,0,0:0:0:0:
256,192,124850,1,8,0:0:0:0:
256,192,124946,1,0,0:0:0:0:
256,192,125041,1,8,0:0:0:0:
256,192,125138,1,8,0:0:0:0:
256,192,125233,1,0,0:0:0:0:
256,192,125329,1,0,0:0:0:0:
256,192,125425,1,8,0:0:0:0:
256,192,125523,1,0,0:0:0:0:
256,192,125617,1,0,0:0:0:0:
256,192,125715,1,0,0:0:0:0:
256,192,125809,1,8,0:0:0:0:
256,192,125906,1,8,0:0:0:0:
256,192,126002,1,0,0:0:0:0:
256,192,126098,1,8,0:0:0:0:
256,192,126194,1,8,0:0:0:0:
256,192,126292,1,0,0:0:0:0:
256,192,126386,1,8,0:0:0:0:
256,192,126436,1,8,0:0:0:0:
256,192,126484,1,0,0:0:0:0:
256,192,126533,1,0,0:0:0:0:
256,192,126579,1,8,0:0:0:0:
256,192,126677,1,0,0:0:0:0:
256,192,126771,1,8,0:0:0:0:
256,192,126867,1,0,0:0:0:0:
256,192,126963,1,8,0:0:0:0:
256,192,127061,1,8,0:0:0:0:
256,192,127156,1,0,0:0:0:0:
256,192,127204,1,0,0:0:0:0:
256,192,127252,1,0,0:0:0:0:
256,192,127300,1,0,0:0:0:0:
256,192,127348,1,8,0:0:0:0:
256,192,127446,1,8,0:0:0:0:
256,192,127540,1,0,0:0:0:0:
256,192,127588,1,0,0:0:0:0:
256,192,127636,1,8,0:0:0:0:
256,192,127733,1,8,0:0:0:0:
256,192,127830,1,0,0:0:0:0:
256,192,127925,1,0,0:0:0:0:
256,192,128023,1,0,0:0:0:0:
256,192,128119,1,8,0:0:0:0:
256,192,128504,1,8,0:0:0:0:
256,192,128888,1,8,0:0:0:0:
256,192,129177,1,8,0:0:0:0:
256,192,129465,1,8,0:0:0:0:
256,192,129850,1,8,0:0:0:0:
256,192,130042,1,8,0:0:0:0:
256,192,130427,1,8,0:0:0:0:
256,192,130715,1,8,0:0:0:0:
256,192,130811,2,0,L|256:288,4,65
256,192,131484,2,0,L|256:256,2,65
256,192,132752,1,8,0:0:0:0:
256,192,132817,1,8,0:0:0:0:
256,192,132882,1,8,0:0:0:0:
256,192,132947,1,8,0:0:0:0:
256,192,133012,1,0,0:0:0:0:
256,192,133078,1,0,0:0:0:0:
256,192,133143,1,8,0:0:0:0:
256,192,133208,1,0,0:0:0:0:
256,192,133273,1,8,0:0:0:0:
256,192,133534,1,8,0:0:0:0:
256,192,133599,1,0,0:0:0:0:
256,192,133665,1,8,0:0:0:0:
256,192,133730,1,0,0:0:0:0:
256,192,133795,1,8,0:0:0:0:
256,192,134056,1,8,0:0:0:0:
256,192,134121,1,8,0:0:0:0:
256,192,134186,1,0,0:0:0:0:
256,192,134252,1,0,0:0:0:0:
256,192,134317,1,8,0:0:0:0:
256,192,134578,1,0,0:0:0:0:
256,192,134643,1,0,0:0:0:0:
256,192,134708,1,8,0:0:0:0:
256,192,134773,1,8,0:0:0:0:
256,192,134838,1,0,0:0:0:0:
256,192,134904,1,0,0:0:0:0:
256,192,134969,1,8,0:0:0:0:
256,192,135034,1,0,0:0:0:0:
256,192,135099,1,8,0:0:0:0:
256,192,135165,1,0,0:0:0:0:
256,192,135230,1,0,0:0:0:0:
256,192,135295,1,0,0:0:0:0:
256,192,135360,1,8,0:0:0:0:
256,192,135491,1,0,0:0:0:0:
256,192,135621,1,8,0:0:0:0:
256,192,135752,1,0,0:0:0:0:
256,192,135882,1,8,0:0:0:0:
256,192,136143,1,0,0:0:0:0:
256,192,136208,1,0,0:0:0:0:
256,192,136273,1,8,0:0:0:0:
256,192,136338,1,0,0:0:0:0:
256,192,136404,1,8,0:0:0:0:
256,192,136665,1,8,0:0:0:0:
256,192,136795,1,0,0:0:0:0:
256,192,136925,1,8,0:0:0:0:
256,192,137186,1,8,0:0:0:0:
256,192,137252,1,8,0:0:0:0:
256,192,137317,1,0,0:0:0:0:
256,192,137382,1,0,0:0:0:0:
256,192,137447,1,8,0:0:0:0:
256,192,137708,1,8,0:0:0:0:
256,192,137773,1,0,0:0:0:0:
256,192,137838,1,8,0:0:0:0:
256,192,137904,1,0,0:0:0:0:
256,192,137969,1,8,0:0:0:0:
256,192,138230,1,8,0:0:0:0:
256,192,138295,1,0,0:0:0:0:
256,192,138360,1,0,0:0:0:0:
256,192,138425,1,0,0:0:0:0:
256,192,138491,1,8,0:0:0:0:
256,192,138621,1,0,0:0:0:0:
256,192,138752,1,8,0:0:0:0:
256,192,138817,1,8,0:0:0:0:
256,192,138882,1,0,0:0:0:0:
256,192,138947,1,0,0:0:0:0:
256,192,139012,1,8,0:0:0:0:
256,192,139078,1,0,0:0:0:0:
256,192,139143,1,0,0:0:0:0:
256,192,139208,1,0,0:0:0:0:
256,192,139273,1,8,0:0:0:0:
256,192,139338,1,0,0:0:0:0:
256,192,139404,1,8,0:0:0:0:
256,192,139534,1,8,0:0:0:0:
256,192,139665,1,0,0:0:0:0:
256,192,139795,1,8,0:0:0:0:
256,192,139925,1,0,0:0:0:0:
256,192,140056,1,8,0:0:0:0:
256,192,140317,1,8,0:0:0:0:
256,192,140382,1,8,0:0:0:0:
256,192,140447,1,0,0:0:0:0:
256,192,140512,1,0,0:0:0:0:
256,192,140578,1,8,0:0:0:0:
256,192,140838,1,8,0:0:0:0:
256,192,140904,1,8,0:0:0:0:
256,192,140969,1,8,0:0:0:0:
256,192,141099,1,8,0:0:0:0:
256,192,141165,1,8,0:0:0:0:
256,192,141230,1,8,0:0:0:0:
256,192,141295,1,0,0:0:0:0:
256,192,141360,1,8,0:0:0:0:
256,192,141425,1,8,0:0:0:0:
256,192,141491,1,0,0:0:0:0:
256,192,141556,1,0,0:0:0:0:
256,192,141621,1,8,0:0:0:0:
256,192,141686,1,8,0:0:0:0:
256,192,141752,1,0,0:0:0:0:
256,192,141882,1,8,0:0:0:0:
256,192,141947,1,0,0:0:0:0:
256,192,142012,1,0,0:0:0:0:
256,192,142078,1,0,0:0:0:0:
256,192,142143,1,8,0:0:0:0:
256,192,142208,1,8,0:0:0:0:
256,192,142273,1,0,0:0:0:0:
256,192,142404,1,0,0:0:0:0:
256,192,142469,1,0,0:0:0:0:
256,192,142534,1,8,0:0:0:0:
256,192,142599,1,0,0:0:0:0:
256,192,142665,1,8,0:0:0:0:
256,192,142730,1,8,0:0:0:0:
256,192,142795,1,0,0:0:0:0:
256,192,142925,1,8,0:0:0:0:
256,192,142991,1,0,0:0:0:0:
256,192,143056,1,0,0:0:0:0:
256,192,143121,1,0,0:0:0:0:
256,192,143186,1,8,0:0:0:0:
256,192,143252,1,8,0:0:0:0:
256,192,143317,1,0,0:0:0:0:
256,192,143382,1,0,0:0:0:0:
256,192,143447,1,8,0:0:0:0:
256,192,143512,1,0,0:0:0:0:
256,192,143578,1,0,0:0:0:0:
256,192,143643,1,0,0:0:0:0:
256,192,143708,1,8,0:0:0:0:
256,192,143773,1,8,0:0:0:0:
256,192,143838,1,0,0:0:0:0:
256,192,143969,1,8,0:0:0:0:
256,192,144034,1,8,0:0:0:0:
256,192,144099,1,0,0:0:0:0:
256,192,144230,1,8,0:0:0:0:
256,192,144360,1,0,0:0:0:0:
256,192,144491,1,0,0:0:0:0:
256,192,144556,1,0,0:0:0:0:
256,192,144621,1,8,0:0:0:0:
256,192,144686,1,0,0:0:0:0:
256,192,144752,1,8,0:0:0:0:
256,192,144817,1,8,0:0:0:0:
256,192,144882,1,0,0:0:0:0:
256,192,145012,1,0,0:0:0:0:
256,192,145143,1,8,0:0:0:0:
256,192,145273,1,8,0:0:0:0:
256,192,145338,1,8,0:0:0:0:
256,192,145404,1,0,0:0:0:0:
256,192,145534,1,8,0:0:0:0:
256,192,145599,1,8,0:0:0:0:
256,192,145665,1,0,0:0:0:0:
256,192,145730,1,0,0:0:0:0:
256,192,145795,1,8,0:0:0:0:
256,192,145860,1,8,0:0:0:0:
256,192,145925,1,0,0:0:0:0:
256,192,146056,1,8,0:0:0:0:
256,192,146121,1,0,0:0:0:0:
256,192,146186,1,8,0:0:0:0:
256,192,146252,1,0,0:0:0:0:
256,192,146317,1,8,0:0:0:0:
256,192,146447,1,0,0:0:0:0:
256,192,146578,1,8,0:0:0:0:
256,192,146643,1,0,0:0:0:0:
256,192,146708,1,0,0:0:0:0:
256,192,146773,1,0,0:0:0:0:
256,192,146838,1,8,0:0:0:0:
256,192,146969,1,0,0:0:0:0:
256,192,147099,1,8,0:0:0:0:
256,192,147165,1,0,0:0:0:0:
256,192,147230,1,8,0:0:0:0:
256,192,147295,1,0,0:0:0:0:
256,192,147360,1,8,0:0:0:0:
256,192,147425,1,8,0:0:0:0:
256,192,147491,1,0,0:0:0:0:
256,192,147556,1,0,0:0:0:0:
256,192,147621,1,8,0:0:0:0:
256,192,147752,1,0,0:0:0:0:
256,192,147882,1,8,0:0:0:0:
256,192,147947,1,8,0:0:0:0:
256,192,148012,1,0,0:0:0:0:
256,192,148143,1,8,0:0:0:0:
256,192,148273,1,0,0:0:0:0:
256,192,148404,1,8,0:0:0:0:
256,192,148534,1,0,0:0:0:0:
256,192,148665,1,8,0:0:0:0:
256,192,148730,1,0,0:0:0:0:
256,192,148795,1,0,0:0:0:0:
256,192,148860,1,0,0:0:0:0:
256,192,148925,1,8,0:0:0:0:
256,192,149056,1,8,0:0:0:0:
256,192,149186,1,8,0:0:0:0:
256,192,149317,1,0,0:0:0:0:
256,192,149447,1,12,0:0:0:0:
256,192,149708,1,8,0:0:0:0:
256,192,149838,1,0,0:0:0:0:
256,192,149969,1,0,0:0:0:0:
256,192,150099,1,0,0:0:0:0:
256,192,150165,1,0,0:0:0:0:
256,192,150230,1,8,0:0:0:0:
256,192,150360,1,0,0:0:0:0:
256,192,150491,1,8,0:0:0:0:
256,192,150621,1,8,0:0:0:0:
256,192,150752,1,0,0:0:0:0:
256,192,150817,1,0,0:0:0:0:
256,192,150882,1,0,0:0:0:0:
256,192,151012,1,8,0:0:0:0:
256,192,151143,1,0,0:0:0:0:
256,192,151208,1,0,0:0:0:0:
256,192,151273,1,8,0:0:0:0:
256,192,151404,1,0,0:0:0:0:
256,192,151534,1,8,0:0:0:0:
256,192,151795,1,0,0:0:0:0:
256,192,152056,1,8,0:0:0:0:
256,192,152186,1,0,0:0:0:0:
256,192,152317,1,8,0:0:0:0:
256,192,152382,1,8,0:0:0:0:
256,192,152447,1,0,0:0:0:0:
256,192,152512,1,0,0:0:0:0:
256,192,152578,1,8,0:0:0:0:
256,192,152708,1,8,0:0:0:0:
256,192,152969,1,0,0:0:0:0:
256,192,153034,1,0,0:0:0:0:
256,192,153099,1,8,0:0:0:0:
256,192,153491,1,0,0:0:0:0:
256,192,153556,1,0,0:0:0:0:
256,192,153621,1,8,0:0:0:0:
256,192,154012,1,0,0:0:0:0:
256,192,154143,1,8,0:0:0:0:
256,192,154208,1,8,0:0:0:0:
256,192,154273,1,0,0:0:0:0:
256,192,154338,1,0,0:0:0:0:
256,192,154404,1,8,0:0:0:0:
256,192,154534,1,8,0:0:0:0:
256,192,154665,1,8,0:0:0:0:
256,192,154795,1,0,0:0:0:0:
256,192,154860,1,0,0:0:0:0:
256,192,154925,1,8,0:0:0:0:
256,192,154991,1,8,0:0:0:0:
256,192,155056,1,0,0:0:0:0:
256,192,155186,1,8,0:0:0:0:
256,192,155317,1,0,0:0:0:0:
256,192,155447,1,8,0:0:0:0:
256,192,155578,1,8,0:0:0:0:
256,192,155708,1,0,0:0:0:0:
256,192,155773,1,0,0:0:0:0:
256,192,155838,1,8,0:0:0:0:
256,192,155969,1,8,0:0:0:0:
256,192,156099,1,0,0:0:0:0:
256,192,156165,1,0,0:0:0:0:
256,192,156230,1,8,0:0:0:0:
256,192,156360,1,0,0:0:0:0:
256,192,156491,1,8,0:0:0:0:
256,192,156556,1,8,0:0:0:0:
256,192,156621,1,0,0:0:0:0:
256,192,156686,1,0,0:0:0:0:
256,192,156752,1,8,0:0:0:0:
256,192,156882,1,0,0:0:0:0:
256,192,157143,1,0,0:0:0:0:
256,192,157208,1,0,0:0:0:0:
256,192,157273,1,8,0:0:0:0:
256,192,157404,1,0,0:0:0:0:
256,192,157534,1,8,0:0:0:0:
256,192,157599,1,0,0:0:0:0:
256,192,157665,1,8,0:0:0:0:
256,192,157730,1,0,0:0:0:0:
256,192,157795,1,8,0:0:0:0:
256,192,158056,1,8,0:0:0:0:
256,192,158186,1,8,0:0:0:0:
256,192,158317,1,0,0:0:0:0:
256,192,158447,1,0,0:0:0:0:
256,192,158512,1,0,0:0:0:0:
256,192,158578,1,8,0:0:0:0:
256,192,158708,1,0,0:0:0:0:
256,192,158838,1,8,0:0:0:0:
256,192,158969,1,8,0:0:0:0:
256,192,159034,1,0,0:0:0:0:
256,192,159099,1,0,0:0:0:0:
256,192,159230,1,0,0:0:0:0:
256,192,159360,1,8,0:0:0:0:
256,192,159491,1,0,0:0:0:0:
256,192,159556,1,0,0:0:0:0:
256,192,159621,1,8,0:0:0:0:
256,192,159752,1,0,0:0:0:0:
256,192,159817,1,0,0:0:0:0:
256,192,159882,1,8,0:0:0:0:
256,192,159947,1,8,0:0:0:0:
256,192,160012,1,0,0:0:0:0:
256,192,160143,1,0,0:0:0:0:
256,192,160273,1,8,0:0:0:0:
256,192,160404,1,8,0:0:0:0:
256,192,160469,1,8,0:0:0:0:
256,192,160534,1,0,0:0:0:0:
256,192,160599,1,0,0:0:0:0:
256,192,160665,1,8,0:0:0:0:
256,192,160730,1,8,0:0:0:0:
256,192,160795,1,8,0:0:0:0:
256,192,160860,1,0,0:0:0:0:
256,192,160925,1,8,0:0:0:0:
256,192,161056,1,0,0:0:0:0:
256,192,161317,1,0,0:0:0:0:
256,192,161382,1,0,0:0:0:0:
256,192,161447,1,8,0:0:0:0:
256,192,161838,1,0,0:0:0:0:
256,192,161904,1,0,0:0:0:0:
256,192,161969,1,8,0:0:0:0:
256,192,162360,1,0,0:0:0:0:
256,192,162491,1,8,0:0:0:0:
256,192,162556,1,8,0:0:0:0:
256,192,162621,1,0,0:0:0:0:
256,192,162686,1,0,0:0:0:0:
256,192,162752,1,8,0:0:0:0:
256,192,162882,1,8,0:0:0:0:
256,192,163012,1,8,0:0:0:0:
256,192,163143,1,0,0:0:0:0:
256,192,163208,1,0,0:0:0:0:
256,192,163273,1,8,0:0:0:0:
256,192,163338,1,8,0:0:0:0:
256,192,163404,1,0,0:0:0:0:
256,192,163534,1,8,0:0:0:0:
256,192,163665,1,8,0:0:0:0:
256,192,163730,1,0,0:0:0:0:
256,192,163795,1,0,0:0:0:0:
256,192,163925,1,0,0:0:0:0:
256,192,164056,1,8,0:0:0:0:
256,192,164447,1,0,0:0:0:0:
256,192,164512,1,0,0:0:0:0:
256,192,164578,1,0,0:0:0:0:
256,192,164708,1,0,0:0:0:0:
256,192,164838,1,8,0:0:0:0:
256,192,164969,1,8,0:0:0:0:
256,192,165230,1,8,0:0:0:0:
256,192,165360,1,0,0:0:0:0:
256,192,165491,1,0,0:0:0:0:
256,192,165621,1,8,0:0:0:0:
256,192,166143,1,8,0:0:0:0:
256,192,166208,1,8,0:0:0:0:
256,192,166273,1,8,0:0:0:0:
256,192,166338,1,8,0:0:0:0:
256,192,166403,1,0,0:0:0:0:
256,192,166469,1,0,0:0:0:0:
256,192,166534,1,8,0:0:0:0:
256,192,166599,1,0,0:0:0:0:
256,192,166664,1,8,0:0:0:0:
256,192,166925,1,8,0:0:0:0:
256,192,166990,1,0,0:0:0:0:
256,192,167056,1,8,0:0:0:0:
256,192,167121,1,0,0:0:0:0:
256,192,167186,1,8,0:0:0:0:
256,192,167447,1,8,0:0:0:0:
256,192,167512,1,8,0:0:0:0:
256,192,167577,1,0,0:0:0:0:
256,192,167643,1,0,0:0:0:0:
256,192,167708,1,8,0:0:0:0:
256,192,167969,1,0,0:0:0:0:
256,192,168034,1,0,0:0:0:0:
256,192,168099,1,8,0:0:0:0:
256,192,168164,1,8,0:0:0:0:
256,192,168229,1,0,0:0:0:0:
256,192,168295,1,0,0:0:0:0:
256,192,168360,1,8,0:0:0:0:
256,192,168425,1,0,0:0:0:0:
256,192,168490,1,8,0:0:0:0:
256,192,168556,1,0,0:0:0:0:
256,192,168621,1,0,0:0:0:0:
256,192,168686,1,0,0:0:0:0:
256,192,168751,1,8,0:0:0:0:
256,192,168882,1,0,0:0:0:0:
256,192,169012,1,8,0:0:0:0:
256,192,169143,1,0,0:0:0:0:
256,192,169273,1,8,0:0:0:0:
256,192,169534,1,0,0:0:0:0:
256,192,169599,1,0,0:0:0:0:
256,192,169664,1,8,0:0:0:0:
256,192,169729,1,0,0:0:0:0:
256,192,169795,1,8,0:0:0:0:
256,192,170056,1,8,0:0:0:0:
256,192,170186,1,0,0:0:0:0:
256,192,170316,1,8,0:0:0:0:
256,192,170577,1,8,0:0:0:0:
256,192,170643,1,8,0:0:0:0:
256,192,170708,1,0,0:0:0:0:
256,192,170773,1,0,0:0:0:0:
256,192,170838,1,8,0:0:0:0:
256,192,171099,1,8,0:0:0:0:
256,192,171164,1,0,0:0:0:0:
256,192,171229,1,8,0:0:0:0:
256,192,171295,1,0,0:0:0:0:
256,192,171360,1,8,0:0:0:0:
256,192,171621,1,8,0:0:0:0:
256,192,171686,1,0,0:0:0:0:
256,192,171751,1,0,0:0:0:0:
256,192,171816,1,0,0:0:0:0:
256,192,171882,1,8,0:0:0:0:
256,192,172012,1,0,0:0:0:0:
256,192,172143,1,8,0:0:0:0:
256,192,172208,1,8,0:0:0:0:
256,192,172273,1,0,0:0:0:0:
256,192,172338,1,0,0:0:0:0:
256,192,172403,1,8,0:0:0:0:
256,192,172469,1,0,0:0:0:0:
256,192,172534,1,0,0:0:0:0:
256,192,172599,1,0,0:0:0:0:
256,192,172664,1,8,0:0:0:0:
256,192,172729,1,0,0:0:0:0:
256,192,172795,1,8,0:0:0:0:
256,192,172925,1,8,0:0:0:0:
256,192,173056,1,0,0:0:0:0:
256,192,173186,1,8,0:0:0:0:
256,192,173316,1,0,0:0:0:0:
256,192,173447,1,8,0:0:0:0:
256,192,173708,1,8,0:0:0:0:
256,192,173773,1,8,0:0:0:0:
256,192,173838,1,0,0:0:0:0:
256,192,173903,1,0,0:0:0:0:
256,192,173969,1,8,0:0:0:0:
256,192,174229,1,8,0:0:0:0:
256,192,174295,1,8,0:0:0:0:
256,192,174360,1,8,0:0:0:0:
256,192,174490,1,8,0:0:0:0:
256,192,174556,1,8,0:0:0:0:
256,192,174621,1,8,0:0:0:0:
256,192,174686,1,0,0:0:0:0:
256,192,174751,1,8,0:0:0:0:
256,192,174816,1,8,0:0:0:0:
256,192,174882,1,0,0:0:0:0:
256,192,174947,1,0,0:0:0:0:
256,192,175012,1,8,0:0:0:0:
256,192,175077,1,8,0:0:0:0:
256,192,175143,1,0,0:0:0:0:
256,192,175273,1,8,0:0:0:0:
256,192,175338,1,0,0:0:0:0:
256,192,175403,1,0,0:0:0:0:
256,192,175469,1,0,0:0:0:0:
256,192,175534,1,8,0:0:0:0:
256,192,175599,1,8,0:0:0:0:
256,192,175664,1,0,0:0:0:0:
256,192,175795,1,0,0:0:0:0:
256,192,175860,1,0,0:0:0:0:
256,192,175925,1,8,0:0:0:0:
256,192,175990,1,0,0:0:0:0:
256,192,176056,1,8,0:0:0:0:
256,192,176121,1,8,0:0:0:0:
256,192,176186,1,0,0:0:0:0:
256,192,176316,1,8,0:0:0:0:
256,192,176382,1,0,0:0:0:0:
256,192,176447,1,0,0:0:0:0:
256,192,176512,1,0,0:0:0:0:
256,192,176577,1,8,0:0:0:0:
256,192,176643,1,8,0:0:0:0:
256,192,176708,1,0,0:0:0:0:
256,192,176773,1,0,0:0:0:0:
256,192,176838,1,8,0:0:0:0:
256,192,176903,1,0,0:0:0:0:
256,192,176969,1,0,0:0:0:0:
256,192,177034,1,0,0:0:0:0:
256,192,177099,1,8,0:0:0:0:
256,192,177164,1,8,0:0:0:0:
256,192,177229,1,0,0:0:0:0:
256,192,177360,1,8,0:0:0:0:
256,192,177425,1,8,0:0:0:0:
256,192,177490,1,0,0:0:0:0:
256,192,177621,1,8,0:0:0:0:
256,192,177751,1,0,0:0:0:0:
256,192,177882,1,0,0:0:0:0:
256,192,177947,1,0,0:0:0:0:
256,192,178012,1,8,0:0:0:0:
256,192,178077,1,0,0:0:0:0:
256,192,178143,1,8,0:0:0:0:
256,192,178208,1,8,0:0:0:0:
256,192,178273,1,0,0:0:0:0:
256,192,178403,1,0,0:0:0:0:
256,192,178534,1,8,0:0:0:0:
256,192,178664,1,8,0:0:0:0:
256,192,178729,1,8,0:0:0:0:
256,192,178795,1,0,0:0:0:0:
256,192,178925,1,8,0:0:0:0:
256,192,178990,1,8,0:0:0:0:
256,192,179056,1,0,0:0:0:0:
256,192,179121,1,0,0:0:0:0:
256,192,179186,1,8,0:0:0:0:
256,192,179251,1,8,0:0:0:0:
256,192,179316,1,0,0:0:0:0:
256,192,179447,1,8,0:0:0:0:
256,192,179512,1,0,0:0:0:0:
256,192,179577,1,8,0:0:0:0:
256,192,179643,1,0,0:0:0:0:
256,192,179708,1,8,0:0:0:0:
256,192,179838,1,0,0:0:0:0:
256,192,179969,1,8,0:0:0:0:
256,192,180034,1,0,0:0:0:0:
256,192,180099,1,0,0:0:0:0:
256,192,180164,1,0,0:0:0:0:
256,192,180229,1,8,0:0:0:0:
256,192,180360,1,0,0:0:0:0:
256,192,180490,1,8,0:0:0:0:
256,192,180556,1,0,0:0:0:0:
256,192,180621,1,8,0:0:0:0:
256,192,180686,1,0,0:0:0:0:
256,192,180751,1,8,0:0:0:0:
256,192,180816,1,8,0:0:0:0:
256,192,180882,1,0,0:0:0:0:
256,192,180947,1,0,0:0:0:0:
256,192,181012,1,8,0:0:0:0:
256,192,181143,1,0,0:0:0:0:
256,192,181273,1,8,0:0:0:0:
256,192,181338,1,8,0:0:0:0:
256,192,181403,1,0,0:0:0:0:
256,192,181534,1,8,0:0:0:0:
256,192,181664,1,0,0:0:0:0:
256,192,181795,1,8,0:0:0:0:
256,192,181925,1,0,0:0:0:0:
256,192,182056,1,8,0:0:0:0:
256,192,182121,1,0,0:0:0:0:
256,192,182186,1,0,0:0:0:0:
256,192,182251,1,0,0:0:0:0:
256,192,182316,1,8,0:0:0:0:
256,192,182447,1,8,0:0:0:0:
256,192,182577,1,8,0:0:0:0:
256,192,182708,1,0,0:0:0:0:
