osu file format v14

[General]
AudioFilename: audio.mp3
AudioLeadIn: 0
PreviewTime: -1
Countdown: 1
SampleSet: Normal
StackLeniency: 0.7
Mode: 0
LetterboxInBreaks: 0
SkinPreference:User
WidescreenStoryboard: 1

[Editor]
DistanceSpacing: 1
BeatDivisor: 4
GridSize: 4
TimelineZoom: 1

[Metadata]
Title:Teen Pregnancy
TitleUnicode:Teen Pregnancy
Artist:Blank Banshee
ArtistUnicode:Blank Banshee
Creator:victorfernando
Version:Normal
Source:
Tags:v a p o r w a v e sunday school teen pregnancy vaporwave
BeatmapID:1179045
BeatmapSetID:556585

[Difficulty]
HPDrainRate:4
CircleSize:3
OverallDifficulty:4
ApproachRate:4
SliderMultiplier:1.1
SliderTickRate:1

[Events]
//Background and Video events
0,0,"blank banshee.jpg",0,0
Video,0,"Blank Banshee Teen Pregnancy.mp4"
//Break Periods
//Storyboard Layer 0 (Background)
//Storyboard Layer 1 (Fail)
//Storyboard Layer 2 (Pass)
//Storyboard Layer 3 (Foreground)
//Storyboard Sound Samples

[TimingPoints]
1621,540.540540540541,4,2,1,100,1,0
2702,-100,4,2,1,100,0,0
9729,-100,4,1,0,100,0,0
27556,-83.3333333333333,4,1,0,100,0,0
29729,-66.6666666666667,4,1,0,100,0,0
31909,-83.3333333333333,4,1,0,100,0,0
34593,-58.8235294117647,4,1,0,100,0,0
36215,-83.3333333333333,4,1,0,100,0,0
39738,-100,4,1,0,100,0,0
48236,-133.333333333333,4,1,0,100,0,0
49729,-200,4,1,0,100,0,0
51350,-100,4,1,0,100,0,0
71350,-80,4,1,0,100,0,0
72972,-66.6666666666667,4,1,0,100,0,0
75635,-83.3333333333333,4,1,0,100,0,0
88859,-100,4,1,0,100,0,0
92452,-80,4,1,0,100,0,0
100269,-66.6666666666667,4,1,0,100,0,0
105675,-100,4,2,1,100,0,0
114053,-111.111111111111,4,1,0,100,0,0
115675,-125,4,1,0,100,0,0
117837,-133.333333333333,4,1,0,100,0,0
119999,-100,4,1,0,100,0,0
139729,-83.3333333333333,4,1,0,100,0,0
142161,-66.6666666666667,4,1,0,100,0,0
144864,-83.3333333333333,4,1,0,100,0,0

[Colours]
Combo1 : 0,255,0
Combo2 : 102,102,255
Combo3 : 255,128,128
Combo4 : 255,255,128
Combo5 : 255,0,0

[HitObjects]
96,100,1621,5,0,0:0:0:0:
136,152,2161,2,0,P|196:204|236:204,1,110
320,160,3242,1,0,0:0:0:0:
404,116,3783,2,0,P|440:68|408:44,2,110
400,296,5945,5,0,0:0:0:0:
292,288,6485,2,0,P|220:284|176:300,1,110
144,252,7566,1,0,0:0:0:0:
116,168,8107,2,0,P|164:104|300:144,1,220
76,136,10269,5,0,0:0:0:0:
160,204,10810,2,0,L|276:204,1,110,8|0,0:0|0:0,0:0:0:0:
348,128,11891,1,8,0:0:0:0:
424,160,12296,2,0,L|488:108,1,82.5,0|8,0:0|0:0,0:0:0:0:
412,68,12972,5,8,0:0:0:0:
324,72,13512,2,0,P|244:80|216:96,1,110,0|8,0:0|0:0,0:0:0:0:
140,112,14458,2,0,L|52:124,1,82.5,0|8,0:0|0:0,0:0:0:0:
48,192,15134,1,8,0:0:0:0:
84,296,15675,6,0,P|160:308|200:296,1,110,0|8,0:0|0:0,0:0:0:0:
272,284,16621,2,0,L|364:280,1,82.5,0|8,0:0|0:0,0:0:0:0:
408,264,17296,1,8,0:0:0:0:
412,176,17837,6,0,P|420:140|372:80,1,110,0|8,0:0|0:0,0:0:0:0:
296,88,18783,2,0,L|200:88,1,82.5,0|8,0:0|0:0,0:0:0:0:
140,96,19458,1,8,0:0:0:0:
56,168,19999,6,0,P|44:216|92:252,1,110,0|8,0:0|0:0,0:0:0:0:
152,276,20945,2,0,L|244:276,1,82.5,0|8,0:0|0:0,0:0:0:0:
320,272,21621,5,8,0:0:0:0:
408,264,22161,2,0,P|456:232|448:172,1,110,0|8,0:0|0:0,0:0:0:0:
424,112,23107,2,0,P|384:72|356:72,1,82.5,0|8,0:0|0:0,0:0:0:0:
280,72,23783,5,8,0:0:0:0:
184,84,24323,2,0,P|108:96|84:140,1,110,0|8,0:0|0:0,0:0:0:0:
112,212,25269,2,0,P|124:272|156:292,1,82.5,0|8,0:0|0:0,0:0:0:0:
248,292,25945,5,8,0:0:0:0:
340,288,26485,2,0,P|376:288|444:244,1,110,0|8,0:0|0:0,0:0:0:0:
424,160,27566,2,0,L|284:160,2,131.99999597168,0|8|0,0:0|0:0|0:0,0:0:0:0:
408,64,29188,5,8,0:0:0:0:
224,68,29729,2,0,L|316:64,2,82.5000031471254,8|0|8,0:0|0:0|0:0,0:0:0:0:
152,128,30539,1,0,0:0:0:0:
88,200,30810,2,0,P|104:252|208:256,1,165.000006294251,0|8,0:0|0:0,0:0:0:0:
364,240,31891,6,0,L|364:136,2,82.5000031471254,0|0|8,0:0|0:0|0:0,0:0:0:0:
452,236,32972,2,0,L|452:144,2,65.9999979858399,0|0|8,0:0|0:0|0:0,0:0:0:0:
448,316,34053,2,0,P|400:332|356:320,2,65.9999979858399,0|0|8,0:0|0:0|0:0,0:0:0:0:
388,260,35134,2,0,P|320:252|288:260,2,93.500001783371,0|0|8,0:0|0:0|0:0,0:0:0:0:
460,200,36215,2,0,B|484:120|392:96,1,131.99999597168,0|8,0:0|0:0,0:0:0:0:
272,76,37296,5,0,0:0:0:0:
180,168,37837,1,8,0:0:0:0:
320,292,38377,2,0,L|320:200,2,65.9999979858399,0|0|8,0:0|0:0|0:0,0:0:0:0:
452,296,39458,1,0,0:0:0:0:
476,188,39999,2,0,P|460:108|440:104,1,110,8|0,0:0|0:0,0:0:0:0:
304,80,41080,1,8,0:0:0:0:
192,112,41621,2,0,P|128:144|96:188,1,110,8|8,0:0|0:0,0:0:0:0:
112,260,42702,2,0,P|172:320|208:320,1,110,8|8,0:0|0:0,0:0:0:0:
276,320,43783,2,0,L|392:320,1,110,8|8,0:0|0:0,0:0:0:0:
440,252,44864,2,0,P|452:184|432:132,1,110,8|8,0:0|0:0,0:0:0:0:
408,60,45945,1,8,0:0:0:0:
332,72,46485,2,0,B|280:96|264:120|232:144|144:152|112:132,1,220,8|8,0:0|0:0,0:0:0:0:
76,208,48107,2,0,B|84:280|128:288|192:280|220:284|260:292|264:304,1,220,8|0,0:0|0:0,0:0:0:0:
360,308,49729,2,0,B|396:260|424:256|444:248|472:228|480:192,1,165
416,128,51891,2,0,B|368:92|328:96|300:104|252:128|220:128|184:116,1,220
84,164,53512,5,0,0:0:0:0:
112,296,54053,1,0,0:0:0:0:
248,312,54593,1,0,0:0:0:0:
360,308,55134,6,0,L|360:184,2,110
444,316,56756,2,0,P|456:256|480:204,1,110
444,136,57837,2,0,P|408:108|352:132,1,110
324,208,58918,2,0,P|288:236|236:184,1,110
160,132,59999,5,0,0:0:0:0:
80,244,60539,1,0,0:0:0:0:
172,304,61080,2,0,L|288:304,1,110
384,296,62161,1,0,0:0:0:0:
416,192,62702,2,0,P|420:136|364:112,1,110,8|0,0:0|0:0,0:0:0:0:
296,108,63783,5,8,0:0:0:0:
296,108,64188,2,0,L|208:104,1,82.5,0|8,0:0|0:0,0:0:0:0:
128,104,64864,1,8,0:0:0:0:
88,168,65404,6,0,P|72:224|108:256,1,110,0|8,0:0|0:0,0:0:0:0:
196,260,66350,2,0,L|292:256,1,82.5,0|8,0:0|0:0,0:0:0:0:
364,256,67026,1,8,0:0:0:0:
444,224,67566,2,0,P|456:188|408:128,1,110,0|8,0:0|0:0,0:0:0:0:
320,124,68512,6,0,L|232:112,1,82.5,0|8,0:0|0:0,0:0:0:0:
160,112,69188,1,8,0:0:0:0:
88,184,69729,2,0,P|76:256|96:280,1,110,0|8,0:0|0:0,0:0:0:0:
180,304,70675,2,0,L|268:304,1,82.5,0|8,0:0|0:0,0:0:0:0:
360,304,71350,2,0,L|360:208,2,68.75,8|0|0,0:0|0:0|0:0,0:0:0:0:
448,300,72431,5,8,0:0:0:0:
460,208,72702,2,0,L|460:128,1,68.75,0|8,0:0|0:0,0:0:0:0:
452,68,73242,2,0,L|360:68,1,82.5000031471254,0|8,0:0|0:0,0:0:0:0:
300,68,73783,2,0,L|212:68,1,82.5000031471254,0|8,0:0|0:0,0:0:0:0:
80,160,74593,6,0,B|132:160|132:160|168:224|224:228,1,165.000006294251,8|8,0:0|0:0,0:0:0:0:
324,308,75675,2,0,L|460:308,2,131.99999597168,8|0|8,0:0|0:0|0:0,0:0:0:0:
320,176,77296,2,0,L|404:176,2,65.9999979858399,0|0|8,0:0|0:0|0:0,0:0:0:0:
404,72,78377,2,0,L|316:72,2,65.9999979858399,0|0|8,0:0|0:0|0:0,0:0:0:0:
432,200,79458,5,0,0:0:0:0:
400,328,79999,2,0,P|316:272|280:276,1,131.99999597168,8|0,0:0|0:0,0:0:0:0:
160,252,81080,2,0,L|24:252,2,131.99999597168,8|0|8,0:0|0:0|0:0,0:0:0:0:
164,120,82702,5,0,0:0:0:0:
292,96,83242,2,0,L|356:80,2,65.9999979858399,8|0|0,0:0|0:0|0:0,0:0:0:0:
412,152,84323,1,8,0:0:0:0:
464,272,84864,2,0,B|420:280|420:332|344:348,1,131.99999597168,0|8,0:0|0:0,0:0:0:0:
224,336,85945,5,0,0:0:0:0:
108,276,86485,2,0,L|112:136,2,131.99999597168,8|0|8,0:0|0:0|0:0,0:0:0:0:
220,204,88107,1,0,0:0:0:0:
304,100,88648,2,0,P|404:96|456:120,1,131.99999597168,8|0,0:0|0:0,0:0:0:0:
452,216,89729,5,8,0:0:0:0:
428,324,90269,2,0,L|352:324,2,55,0|0|8,0:0|0:0|0:0,0:0:0:0:
392,220,91350,1,0,0:0:0:0:
304,152,91891,2,0,P|228:108|200:120,1,110,8|0,0:0|0:0,0:0:0:0:
84,152,92972,5,8,0:0:0:0:
116,284,93512,1,8,0:0:0:0:
252,292,94053,2,0,P|316:280|408:292,1,137.5,8|8,0:0|0:0,0:0:0:0:
420,152,95134,2,0,P|400:68|352:68,1,137.5,8|8,0:0|0:0,0:0:0:0:
268,164,96215,1,8,0:0:0:0:
132,176,96756,6,0,P|96:224|148:288,1,137.5,8|8,0:0|0:0,0:0:0:0:
268,288,97837,2,0,L|340:288,2,68.75,0|0|8,0:0|0:0|0:0,0:0:0:0:
276,152,98918,1,0,0:0:0:0:
276,152,99458,6,0,P|352:132|412:148,1,137.5,8|0,0:0|0:0,0:0:0:0:
424,312,100539,2,0,P|368:236|296:244,1,165.000006294251,8|0,0:0|0:0,0:0:0:0:
140,240,101621,1,8,0:0:0:0:
140,240,102161,6,0,P|136:168|200:92,1,165.000006294251,0|8,0:0|0:0,0:0:0:0:
316,112,103242,1,0,0:0:0:0:
480,144,103783,2,0,B|428:148|428:148|400:208|400:208|336:216,1,165.000006294251,8|0,0:0|0:0,0:0:0:0:
208,292,104864,2,0,B|156:252|224:160|192:132,1,165.000006294251,8|0,0:0|0:0,0:0:0:0:
84,124,105945,6,0,P|144:68|184:64,1,110,8|0,0:0|0:0,0:0:0:0:
276,84,107026,1,8,0:0:0:0:
376,132,107566,2,0,P|432:156|460:220,1,110,0|8,0:0|0:0,0:0:0:0:
132,252,109729,5,0,0:0:0:0:
132,252,110269,2,0,P|128:188|176:172,1,110
272,172,111350,5,0,0:0:0:0:
380,176,111891,1,0,0:0:0:0:
452,260,112431,1,0,0:0:0:0:
188,120,114053,6,0,B|252:120|252:120|288:168|288:168|380:168,1,197.99999395752
444,192,115675,2,0,L|444:248,1,44
440,308,116215,2,0,L|380:308,1,44
320,312,116756,2,0,B|260:312|260:312|260:256|260:256|184:256,1,176
100,216,118377,2,0,P|132:136|204:108,1,165.000006294251
312,112,119999,6,0,L|432:112,2,110
124,300,122702,5,0,0:0:0:0:
116,196,123242,2,0,P|136:144|188:120,1,110,8|0,0:0|0:0,0:0:0:0:
320,120,124323,6,0,P|392:120|440:132,1,110
364,224,125404,1,8,0:0:0:0:
444,284,125945,2,0,P|400:316|324:316,1,110,0|8,0:0|0:0,0:0:0:0:
272,292,127026,2,0,P|256:236|192:212,1,110,0|8,0:0|0:0,0:0:0:0:
100,204,128107,1,0,0:0:0:0:
100,204,128648,2,0,P|104:132|140:112,1,110,8|0,0:0|0:0,0:0:0:0:
228,108,129729,1,8,0:0:0:0:
352,112,130269,1,0,0:0:0:0:
352,112,130810,2,0,P|408:148|384:192,2,110,8|0|8,0:0|0:0|0:0,0:0:0:0:
424,160,132296,2,0,L|488:108,1,82.5,0|8,0:0|0:0,0:0:0:0:
412,68,132972,5,8,0:0:0:0:
324,72,133512,2,0,P|244:80|216:96,1,110,0|8,0:0|0:0,0:0:0:0:
140,112,134458,2,0,L|52:124,1,82.5,0|8,0:0|0:0,0:0:0:0:
48,192,135134,1,8,0:0:0:0:
84,296,135675,6,0,P|160:308|200:296,1,110,0|8,0:0|0:0,0:0:0:0:
272,284,136621,2,0,L|364:280,1,82.5,0|8,0:0|0:0,0:0:0:0:
408,264,137296,1,8,0:0:0:0:
412,176,137837,6,0,P|420:140|372:80,1,110,0|8,0:0|0:0,0:0:0:0:
296,88,138783,2,0,L|200:88,1,82.5,0|8,0:0|0:0,0:0:0:0:
140,96,139458,1,8,0:0:0:0:
56,168,139999,6,0,P|44:216|116:260,1,131.99999597168,0|8,0:0|0:0,0:0:0:0:
176,304,140945,2,0,L|296:296,1,98.9999969787599,0|8,0:0|0:0,0:0:0:0:
360,292,141621,5,8,0:0:0:0:
432,256,142161,2,0,L|432:156,1,82.5000031471254
432,92,142702,2,0,P|380:68|340:68,1,82.5000031471254,8|0,0:0|0:0,0:0:0:0:
276,72,143242,2,0,P|220:72|172:84,1,82.5000031471254
112,88,143783,1,8,0:0:0:0:
56,172,144323,6,0,L|56:272,2,82.5000031471254,0|0|8,0:0|0:0|0:0,0:0:0:0:
144,168,145134,2,0,L|144:88,2,65.9999979858399
140,256,145945,1,8,0:0:0:0:
224,256,146485,2,0,P|272:256|320:172,1,131.99999597168,0|8,0:0|0:0,0:0:0:0:
320,88,147566,5,0,0:0:0:0:
424,96,148107,2,0,P|456:152|424:212,2,131.99999597168,8|0|8,0:0|0:0|0:0,0:0:0:0:
324,72,149729,5,0,0:0:0:0:
232,72,150269,2,0,P|152:96|136:136,1,131.99999597168,8|0,0:0|0:0,0:0:0:0:
100,244,151350,2,0,P|176:304|224:304,2,131.99999597168,8|0|8,0:0|0:0|0:0,0:0:0:0:
112,148,152972,6,0,L|112:64,1,65.9999979858399
188,56,153512,2,0,P|248:48|272:56,1,65.9999979858399,8|0,0:0|0:0,0:0:0:0:
336,60,154053,2,0,L|420:60,1,65.9999979858399
464,144,154593,5,8,0:0:0:0:
452,228,155134,2,0,L|404:280,1,65.9999979858399
336,288,155675,2,0,L|248:288,1,65.9999979858399
192,280,156215,2,0,L|120:232,1,65.9999979858399
88,160,156756,5,8,0:0:0:0:
140,76,157296,2,0,P|216:64|280:104,1,131.99999597168,0|8,0:0|0:0,0:0:0:0:
356,140,158377,2,0,P|404:144|460:216,1,131.99999597168,0|8,0:0|0:0,0:0:0:0:
456,296,159458,2,0,B|376:292|376:292|324:328,1,131.99999597168,0|8,0:0|0:0,0:0:0:0:
244,328,160539,2,0,L|168:328,2,65.9999979858399,0|0|8,0:0|0:0|0:0,0:0:0:0:
240,244,161621,2,0,B|200:208|200:208|144:196|144:196|112:180,1,131.99999597168,0|8,0:0|0:0,0:0:0:0:
124,92,162702,2,0,L|200:92,2,65.9999979858399,8|0|8,0:0|0:0|0:0,0:0:0:0:
100,172,163783,2,0,P|88:224|140:292,1,131.99999597168,0|8,0:0|0:0,0:0:0:0:
244,288,164864,2,0,L|244:200,2,65.9999979858399,0|0|8,0:0|0:0|0:0,0:0:0:0:
340,300,165945,6,0,L|408:280,1,65.9999979858399,8|0,0:0|0:0,0:0:0:0:
452,212,166485,2,0,P|480:156|476:144,1,65.9999979858399,8|0,0:0|0:0,0:0:0:0:
452,88,167026,2,0,P|408:64|384:76,1,65.9999979858399,8|0,0:0|0:0,0:0:0:0:
320,80,167566,2,0,L|240:80,1,65.9999979858399,8|0,0:0|0:0,0:0:0:0:
172,88,168107,2,0,P|140:112|116:144,1,65.9999979858399,8|0,0:0|0:0,0:0:0:0:
100,204,168648,2,0,L|104:276,1,65.9999979858399,8|0,0:0|0:0,0:0:0:0:
176,324,169188,2,0,L|248:324,1,65.9999979858399,8|0,0:0|0:0,0:0:0:0:
328,324,169729,2,0,P|392:328|420:320,1,65.9999979858399
456,256,170269,2,0,L|456:184,3,65.9999979858399
432,104,171350,1,0,0:0:0:0:
344,80,171891,2,0,P|276:64|208:92,1,131.99999597168
116,112,172972,2,0,L|64:176,3,65.9999979858399
64,256,174053,1,0,0:0:0:0:
256,192,174593,12,0,177296,0:0:0:0:
