osu file format v14

[General]
AudioFilename: audio.mp3
AudioLeadIn: 0
PreviewTime: 1636
Countdown: 1
SampleSet: Soft
StackLeniency: 0.7
Mode: 3
LetterboxInBreaks: 0
SpecialStyle: 0
WidescreenStoryboard: 1

[Editor]
DistanceSpacing: 3.4
BeatDivisor: 4
GridSize: 4
TimelineZoom: 1

[Metadata]
Title:B:/ Shut down/Depression
TitleUnicode:B:/ Shut down/Depression
Artist:Blank Banshee
ArtistUnicode:Blank Banshee
Creator:JamesHappy
Version:8K Hopelessness
Source:
Tags:vaporwave depressed chill
BeatmapID:1551272
BeatmapSetID:734781

[Difficulty]
HPDrainRate:10
CircleSize:8
OverallDifficulty:10
ApproachRate:7.5
SliderMultiplier:2.90000000596046
SliderTickRate:2

[Events]
//Background and Video events
0,0,"BG.jpg",0,0
//Break Periods
//Storyboard Layer 0 (Background)
//Storyboard Layer 1 (Fail)
//Storyboard Layer 2 (Pass)
//Storyboard Layer 3 (Foreground)
//Storyboard Sound Samples

[TimingPoints]
1636,827.586206896552,4,2,1,30,1,0

[Colours]
Combo1 : 158,145,233
Combo2 : 62,102,233

[HitObjects]
160,192,1636,128,0,2670:0:0:0:0:
32,192,1636,128,0,3291:0:0:0:0:
480,192,2049,128,0,3291:0:0:0:0:
352,192,2049,128,0,2670:0:0:0:0:
96,192,2463,128,0,3291:0:0:0:0:
416,192,2463,128,0,3291:0:0:0:0:
160,192,2877,128,0,3291:0:0:0:0:
352,192,2877,128,0,3291:0:0:0:0:
224,192,3291,128,0,4118:0:0:0:0:
288,192,3291,128,0,4118:0:0:0:0:
32,192,4118,128,0,4532:0:0:0:0:
416,192,4532,128,0,4946:0:0:0:0:
480,192,4532,128,0,4946:0:0:0:0:
160,192,4946,128,0,5773:0:0:0:0:
288,192,4946,128,0,5360:0:0:0:0:
416,192,5360,128,0,5773:0:0:0:0:
32,192,5773,128,0,6601:0:0:0:0:
224,192,5773,128,0,6187:0:0:0:0:
96,192,5877,128,0,6601:0:0:0:0:
352,192,6187,128,0,6601:0:0:0:0:
160,192,6601,128,0,7429:0:0:0:0:
288,192,7429,128,0,8256:0:0:0:0:
32,192,8256,128,0,9911:0:0:0:0:
96,192,8256,128,0,9291:0:0:0:0:
416,192,8670,128,0,9291:0:0:0:0:
480,192,8670,128,0,9911:0:0:0:0:
224,192,9084,128,0,9911:0:0:0:0:
288,192,9084,128,0,9911:0:0:0:0:
96,192,9498,128,0,9911:0:0:0:0:
416,192,9498,128,0,9911:0:0:0:0:
160,192,9911,128,0,11153:0:0:0:0:
352,192,9911,128,0,11153:0:0:0:0:
96,192,11153,128,0,11567:0:0:0:0:
288,192,11153,128,0,11567:0:0:0:0:
32,192,11567,128,0,12394:0:0:0:0:
480,192,11567,128,0,12394:0:0:0:0:
160,192,11980,128,0,12394:0:0:0:0:
224,192,12394,128,0,12808:0:0:0:0:
480,192,12808,128,0,13636:0:0:0:0:
288,192,12808,128,0,13222:0:0:0:0:
96,192,13222,128,0,13636:0:0:0:0:
160,192,13636,128,0,14463:0:0:0:0:
352,192,13636,128,0,14463:0:0:0:0:
32,192,14463,128,0,14877:0:0:0:0:
480,192,14877,128,0,15498:0:0:0:0:
352,192,14877,128,0,15498:0:0:0:0:
160,192,15291,128,0,15911:0:0:0:0:
32,192,15291,128,0,15911:0:0:0:0:
352,192,15704,128,0,16532:0:0:0:0:
480,192,15704,128,0,16532:0:0:0:0:
160,192,16118,128,0,16532:0:0:0:0:
32,192,16118,128,0,16532:0:0:0:0:
96,192,16532,128,0,17360:0:0:0:0:
416,192,16532,128,0,17360:0:0:0:0:
288,192,17360,128,0,17773:0:0:0:0:
160,192,17773,128,0,18187:0:0:0:0:
352,192,17773,128,0,18187:0:0:0:0:
480,192,18187,128,0,19015:0:0:0:0:
32,192,18187,128,0,19015:0:0:0:0:
96,192,18601,128,0,19015:0:0:0:0:
416,192,19015,128,0,19429:0:0:0:0:
288,192,19015,128,0,19842:0:0:0:0:
224,192,19015,128,0,19842:0:0:0:0:
352,192,19429,128,0,19842:0:0:0:0:
32,192,19842,128,0,20670:0:0:0:0:
160,192,19842,128,0,20670:0:0:0:0:
288,192,20670,128,0,21084:0:0:0:0:
416,192,20670,128,0,21084:0:0:0:0:
480,192,21084,128,0,21498:0:0:0:0:
352,192,21084,128,0,21498:0:0:0:0:
160,192,21498,128,0,21911:0:0:0:0:
288,192,21498,128,0,21911:0:0:0:0:
32,192,21911,128,0,23567:0:0:0:0:
96,192,21911,128,0,23567:0:0:0:0:
160,192,22325,128,0,23567:0:0:0:0:
224,192,22739,128,0,23567:0:0:0:0:
288,192,23153,128,0,23567:0:0:0:0:
480,192,23567,128,0,24394:0:0:0:0:
416,192,23567,128,0,24394:0:0:0:0:
96,192,24394,128,0,24601:0:0:0:0:
32,192,24394,128,0,24601:0:0:0:0:
416,192,24601,128,0,24808:0:0:0:0:
480,192,24601,128,0,24808:0:0:0:0:
160,192,24808,128,0,26877:0:0:0:0:
352,192,24808,128,0,26877:0:0:0:0:
96,192,25222,128,0,26877:0:0:0:0:
416,192,25636,128,0,26877:0:0:0:0:
32,192,26049,128,0,26877:0:0:0:0:
480,192,26463,128,0,26877:0:0:0:0:
224,192,26877,128,0,28118:0:0:0:0:
288,192,26877,128,0,28118:0:0:0:0:
160,192,28118,128,0,29153:0:0:0:0:
32,192,28118,128,0,29773:0:0:0:0:
480,192,28532,128,0,29773:0:0:0:0:
352,192,28532,128,0,29153:0:0:0:0:
96,192,28946,128,0,29773:0:0:0:0:
416,192,28946,128,0,29773:0:0:0:0:
160,192,29360,128,0,29773:0:0:0:0:
352,192,29360,128,0,29773:0:0:0:0:
224,192,29773,128,0,30601:0:0:0:0:
288,192,29773,128,0,30601:0:0:0:0:
32,192,30601,128,0,31015:0:0:0:0:
416,192,31015,128,0,31429:0:0:0:0:
480,192,31015,128,0,31429:0:0:0:0:
160,192,31429,128,0,32256:0:0:0:0:
288,192,31429,128,0,31842:0:0:0:0:
416,192,31842,128,0,32256:0:0:0:0:
32,192,32256,128,0,33084:0:0:0:0:
224,192,32256,128,0,32670:0:0:0:0:
96,192,32360,128,0,33084:0:0:0:0:
352,192,32670,128,0,33084:0:0:0:0:
160,192,33084,128,0,33911:0:0:0:0:
288,192,33911,128,0,34739:0:0:0:0:
32,192,34739,128,0,36394:0:0:0:0:
96,192,34739,128,0,35773:0:0:0:0:
416,192,35153,128,0,35773:0:0:0:0:
480,192,35153,128,0,36394:0:0:0:0:
224,192,35567,128,0,36394:0:0:0:0:
288,192,35567,128,0,36394:0:0:0:0:
96,192,35980,128,0,36394:0:0:0:0:
416,192,35980,128,0,36394:0:0:0:0:
160,192,36394,128,0,37636:0:0:0:0:
352,192,36394,128,0,37636:0:0:0:0:
96,192,37636,128,0,38049:0:0:0:0:
288,192,37636,128,0,38049:0:0:0:0:
32,192,38049,128,0,38877:0:0:0:0:
480,192,38049,128,0,38877:0:0:0:0:
160,192,38463,128,0,38877:0:0:0:0:
224,192,38877,128,0,39291:0:0:0:0:
480,192,39291,128,0,40118:0:0:0:0:
288,192,39291,128,0,39704:0:0:0:0:
96,192,39704,128,0,40118:0:0:0:0:
160,192,40118,128,0,40946:0:0:0:0:
352,192,40118,128,0,40946:0:0:0:0:
32,192,40946,128,0,41360:0:0:0:0:
480,192,41360,128,0,41980:0:0:0:0:
352,192,41360,128,0,41980:0:0:0:0:
160,192,41773,128,0,42394:0:0:0:0:
32,192,41773,128,0,42394:0:0:0:0:
352,192,42187,128,0,43015:0:0:0:0:
480,192,42187,128,0,43015:0:0:0:0:
160,192,42601,128,0,43015:0:0:0:0:
32,192,42601,128,0,43015:0:0:0:0:
96,192,43015,128,0,43842:0:0:0:0:
416,192,43015,128,0,43842:0:0:0:0:
288,192,43842,128,0,44256:0:0:0:0:
160,192,44256,128,0,44670:0:0:0:0:
352,192,44256,128,0,44670:0:0:0:0:
480,192,44670,128,0,45498:0:0:0:0:
32,192,44670,128,0,45498:0:0:0:0:
96,192,45084,128,0,45498:0:0:0:0:
416,192,45498,128,0,45911:0:0:0:0:
288,192,45498,128,0,46325:0:0:0:0:
224,192,45498,128,0,46325:0:0:0:0:
352,192,45911,128,0,46325:0:0:0:0:
32,192,46325,128,0,47153:0:0:0:0:
160,192,46325,128,0,47153:0:0:0:0:
288,192,47153,128,0,47567:0:0:0:0:
416,192,47153,128,0,47567:0:0:0:0:
480,192,47567,128,0,47980:0:0:0:0:
352,192,47567,128,0,47980:0:0:0:0:
160,192,47980,128,0,48394:0:0:0:0:
288,192,47980,128,0,48394:0:0:0:0:
32,192,48394,128,0,50049:0:0:0:0:
96,192,48394,128,0,50049:0:0:0:0:
160,192,48808,128,0,50049:0:0:0:0:
224,192,49222,128,0,50049:0:0:0:0:
288,192,49636,128,0,50049:0:0:0:0:
480,192,50049,128,0,50877:0:0:0:0:
416,192,50049,128,0,50877:0:0:0:0:
96,192,50877,128,0,51084:0:0:0:0:
32,192,50877,128,0,51084:0:0:0:0:
416,192,51084,128,0,51291:0:0:0:0:
480,192,51084,128,0,51291:0:0:0:0:
160,192,51291,128,0,53360:0:0:0:0:
352,192,51291,128,0,53360:0:0:0:0:
96,192,51704,128,0,53360:0:0:0:0:
416,192,52118,128,0,53360:0:0:0:0:
32,192,52532,128,0,53360:0:0:0:0:
480,192,52946,128,0,53360:0:0:0:0:
224,192,53360,128,0,54187:0:0:0:0:
288,192,53360,128,0,54187:0:0:0:0:
