osu file format v14

[General]
AudioFilename: audio.mp3
AudioLeadIn: 0
PreviewTime: 1636
Countdown: 1
SampleSet: None
StackLeniency: 0.7
Mode: 3
LetterboxInBreaks: 0
SpecialStyle: 0
WidescreenStoryboard: 1

[Editor]
DistanceSpacing: 3.4
BeatDivisor: 4
GridSize: 4
TimelineZoom: 1

[Metadata]
Title:B:/ Shut down/Depression
TitleUnicode:B:/ Shut down/Depression
Artist:Blank Banshee
ArtistUnicode:Blank Banshee
Creator:JamesHappy
Version:6K Beginner
Source:
Tags:vaporwave depressed chill
BeatmapID:1551267
BeatmapSetID:734781

[Difficulty]
HPDrainRate:8
CircleSize:6
OverallDifficulty:8
ApproachRate:7.5
SliderMultiplier:2.90000000596046
SliderTickRate:2

[Events]
//Background and Video events
0,0,"BG.jpg",0,0
//Break Periods
//Storyboard Layer 0 (Background)
//Storyboard Layer 1 (Fail)
//Storyboard Layer 2 (Pass)
//Storyboard Layer 3 (Foreground)
//Storyboard Sound Samples

[TimingPoints]
1636,827.586206896552,4,2,1,30,1,0

[Colours]
Combo1 : 158,145,233
Combo2 : 62,102,233

[HitObjects]
128,192,1636,1,0,0:0:0:0:
384,192,2049,1,0,0:0:0:0:
42,192,2463,1,0,0:0:0:0:
469,192,2877,1,0,0:0:0:0:
213,192,3291,128,0,4118:0:0:0:0:
298,192,4118,1,0,0:0:0:0:
128,192,4532,1,0,0:0:0:0:
384,192,4946,128,0,5773:0:0:0:0:
42,192,5360,1,0,0:0:0:0:
213,192,5773,1,0,0:0:0:0:
384,192,6187,1,0,0:0:0:0:
128,192,6601,128,0,7429:0:0:0:0:
469,192,7429,128,0,8256:0:0:0:0:
298,192,8256,1,0,0:0:0:0:
469,192,8670,1,0,0:0:0:0:
213,192,9084,1,0,0:0:0:0:
42,192,9498,1,0,0:0:0:0:
384,192,9911,128,0,11153:0:0:0:0:
128,192,11153,1,0,0:0:0:0:
298,192,11567,1,0,0:0:0:0:
42,192,11980,1,0,0:0:0:0:
213,192,12394,1,0,0:0:0:0:
384,192,12808,1,0,0:0:0:0:
128,192,13222,1,0,0:0:0:0:
384,192,13636,128,0,14463:0:0:0:0:
42,192,14463,1,0,0:0:0:0:
469,192,14877,1,0,0:0:0:0:
298,192,15291,1,0,0:0:0:0:
42,192,15704,1,0,0:0:0:0:
213,192,16118,1,0,0:0:0:0:
384,192,16532,128,0,17360:0:0:0:0:
128,192,17360,1,0,0:0:0:0:
298,192,17773,1,0,0:0:0:0:
469,192,18187,128,0,19015:0:0:0:0:
42,192,18601,1,0,0:0:0:0:
298,192,19015,1,0,0:0:0:0:
128,192,19429,1,0,0:0:0:0:
384,192,19842,128,0,20670:0:0:0:0:
213,192,20670,1,0,0:0:0:0:
42,192,21084,1,0,0:0:0:0:
298,192,21498,1,0,0:0:0:0:
128,192,21911,1,0,0:0:0:0:
213,192,22325,1,0,0:0:0:0:
298,192,22739,1,0,0:0:0:0:
384,192,23153,1,0,0:0:0:0:
469,192,23567,128,0,24394:0:0:0:0:
384,192,24394,1,0,0:0:0:0:
213,192,24601,1,0,0:0:0:0:
42,192,24808,1,0,0:0:0:0:
128,192,25222,1,0,0:0:0:0:
213,192,25636,1,0,0:0:0:0:
298,192,26049,1,0,0:0:0:0:
384,192,26463,1,0,0:0:0:0:
469,192,26877,128,0,28118:0:0:0:0:
384,192,28118,1,0,0:0:0:0:
128,192,28532,1,0,0:0:0:0:
469,192,28946,1,0,0:0:0:0:
42,192,29360,1,0,0:0:0:0:
298,192,29773,128,0,30601:0:0:0:0:
213,192,30601,1,0,0:0:0:0:
384,192,31015,1,0,0:0:0:0:
128,192,31429,128,0,32256:0:0:0:0:
469,192,31842,1,0,0:0:0:0:
298,192,32256,1,0,0:0:0:0:
128,192,32670,1,0,0:0:0:0:
384,192,33084,128,0,33911:0:0:0:0:
42,192,33911,128,0,34739:0:0:0:0:
213,192,34739,1,0,0:0:0:0:
42,192,35153,1,0,0:0:0:0:
298,192,35567,1,0,0:0:0:0:
469,192,35980,1,0,0:0:0:0:
128,192,36394,128,0,37636:0:0:0:0:
384,192,37636,1,0,0:0:0:0:
213,192,38049,1,0,0:0:0:0:
469,192,38463,1,0,0:0:0:0:
298,192,38877,1,0,0:0:0:0:
128,192,39291,1,0,0:0:0:0:
384,192,39704,1,0,0:0:0:0:
128,192,40118,128,0,40946:0:0:0:0:
469,192,40946,1,0,0:0:0:0:
42,192,41360,1,0,0:0:0:0:
213,192,41773,1,0,0:0:0:0:
469,192,42187,1,0,0:0:0:0:
298,192,42601,1,0,0:0:0:0:
128,192,43015,128,0,43842:0:0:0:0:
384,192,43842,1,0,0:0:0:0:
213,192,44256,1,0,0:0:0:0:
42,192,44670,128,0,45498:0:0:0:0:
469,192,45084,1,0,0:0:0:0:
213,192,45498,1,0,0:0:0:0:
384,192,45911,1,0,0:0:0:0:
128,192,46325,128,0,47153:0:0:0:0:
298,192,47153,1,0,0:0:0:0:
469,192,47567,1,0,0:0:0:0:
213,192,47980,1,0,0:0:0:0:
384,192,48394,1,0,0:0:0:0:
298,192,48808,1,0,0:0:0:0:
213,192,49222,1,0,0:0:0:0:
128,192,49636,1,0,0:0:0:0:
42,192,50049,128,0,50877:0:0:0:0:
128,192,50877,1,0,0:0:0:0:
298,192,51084,1,0,0:0:0:0:
469,192,51291,1,0,0:0:0:0:
384,192,51704,1,0,0:0:0:0:
298,192,52118,1,0,0:0:0:0:
213,192,52532,1,0,0:0:0:0:
128,192,52946,1,0,0:0:0:0:
42,192,53360,128,0,53773:0:0:0:0:
