osu file format v14

[General]
AudioFilename: audio.mp3
AudioLeadIn: 0
PreviewTime: 1636
Countdown: 1
SampleSet: Soft
StackLeniency: 0.7
Mode: 2
LetterboxInBreaks: 0
WidescreenStoryboard: 0

[Editor]
DistanceSpacing: 1.3
BeatDivisor: 2
GridSize: 16
TimelineZoom: 1

[Metadata]
Title:B:/ Shut down/Depression
TitleUnicode:B:/ Shut down/Depression
Artist:Blank Banshee
ArtistUnicode:Blank Banshee
Creator:Guillotine
Version:Cup
Source:
Tags:vaporwave del chickenbible depressed chill
BeatmapID:1241836
BeatmapSetID:586384

[Difficulty]
HPDrainRate:3
CircleSize:2
OverallDifficulty:4
ApproachRate:4
SliderMultiplier:2.00000000596046
SliderTickRate:2

[Events]
//Background and Video events
0,0,"free wallpaper dot com.jpg",0,0
//Break Periods
//Storyboard Layer 0 (Background)
//Storyboard Layer 1 (Fail)
//Storyboard Layer 2 (Pass)
//Storyboard Layer 3 (Foreground)
//Storyboard Sound Samples

[TimingPoints]
1636,827.586206896552,4,2,0,60,1,0
20670,-76.9230769230769,4,2,0,60,0,0
24808,-100,4,2,0,60,0,0
43015,-100,4,2,0,50,0,0
44256,-100,4,2,0,40,0,0
47153,-100,4,2,0,30,0,0
48394,-100,4,2,0,5,0,0

[Colours]
Combo1 : 158,145,233
Combo2 : 62,102,233

[HitObjects]
384,96,1636,6,0,L|520:96,2,100.000000298023
256,96,2877,1,0,0:0:0:0:
384,96,3291,1,4,0:0:0:0:
32,192,4118,1,0,0:0:0:0:
160,192,4532,1,0,0:0:0:0:
32,96,4946,5,0,0:0:0:0:
160,96,5360,1,0,0:0:0:0:
288,96,5773,2,0,L|96:96,2,100.000000298023,0|0|4,0:0|0:0|0:0,0:0:0:0:
48,128,7429,1,4,0:0:0:0:
352,128,8256,6,0,L|192:128,1,100.000000298023
124,128,9084,1,0,0:0:0:0:
252,128,9498,1,0,0:0:0:0:
384,128,9911,2,0,B|448:208|448:208|352:260|224:208,1,300.000000894069
128,224,11567,6,0,P|96:192|32:128,1,100.000000298023
192,160,12394,1,0,0:0:0:0:
320,160,12808,1,0,0:0:0:0:
192,272,13222,2,0,P|160:304|96:368,1,100.000000298023,4|0,0:0|0:0,0:0:0:0:
288,288,14463,1,0,0:0:0:0:
416,288,14877,6,0,P|472:256|504:192,2,100.000000298023
320,288,16118,1,0,0:0:0:0:
112,288,16532,1,4,0:0:0:0:
96,192,17360,1,0,0:0:0:0:
224,192,17773,1,0,0:0:0:0:
352,112,18187,2,0,L|64:112,2,200.000000596046
480,128,20670,2,0,L|320:128,2,129.999994436502
352,128,21911,5,0,0:0:0:0:
224,128,22325,1,0,0:0:0:0:
96,128,22739,1,0,0:0:0:0:
224,128,23153,1,0,0:0:0:0:
96,128,23567,1,4,0:0:0:0:
320,256,24394,1,0,0:0:0:0:
432,320,24808,6,0,L|320:320,1,100.000000298023
208,320,25636,5,0,0:0:0:0:
336,272,26049,1,0,0:0:0:0:
208,224,26463,1,0,0:0:0:0:
80,192,26877,1,4,0:0:0:0:
0,96,28118,6,0,P|64:64|160:96,2,100.000000298023
128,96,29360,1,0,0:0:0:0:
256,96,29773,1,4,0:0:0:0:
384,144,30601,1,0,0:0:0:0:
512,224,31015,1,0,0:0:0:0:
384,224,31429,5,0,0:0:0:0:
256,224,31842,2,0,L|144:112,1,100.000000298023
320,160,32670,1,0,0:0:0:0:
448,160,33084,1,4,0:0:0:0:
160,96,33911,1,0,0:0:0:0:
320,192,34739,6,0,L|464:192,2,100.000000298023
192,192,35980,1,0,0:0:0:0:
320,192,36394,1,4,0:0:0:0:
128,192,37636,1,0,0:0:0:0:
0,128,38049,6,0,L|128:128,1,100.000000298023
240,32,38877,2,0,L|128:32,2,100.000000298023
368,32,40118,1,4,0:0:0:0:
256,192,40946,1,0,0:0:0:0:
384,192,41360,6,0,L|528:192,2,100.000000298023
256,112,42601,1,0,0:0:0:0:
128,112,43015,1,4,0:0:0:0:
256,192,43842,1,0,0:0:0:0:
128,192,44256,1,0,0:0:0:0:
0,192,44670,5,0,0:0:0:0:
128,112,45084,1,0,0:0:0:0:
0,48,45498,2,0,P|128:48|128:48,1,100.000000298023
232,48,46325,1,4,0:0:0:0:
480,192,47153,2,0,L|320:192,1,100.000000298023
256,192,47980,5,0,0:0:0:0:
256,192,48394,12,0,53360,0:0:0:0:
