osu file format v14

[General]
AudioFilename: audio.mp3
AudioLeadIn: 0
PreviewTime: 38637
Countdown: 0
SampleSet: Soft
StackLeniency: 0.7
Mode: 0
LetterboxInBreaks: 0
WidescreenStoryboard: 1

[Editor]
DistanceSpacing: 1.3
BeatDivisor: 8
GridSize: 4
TimelineZoom: 1.4

[Metadata]
Title:B:/ Infinite Login
TitleUnicode:B:/ Infinite Login
Artist:Blank Banshee
ArtistUnicode:Blank Banshee
Creator:Mismagius
Version:Welcome
Source:
Tags:vaporwave vaportrap windows blue dragon
BeatmapID:1304728
BeatmapSetID:618938

[Difficulty]
HPDrainRate:5
CircleSize:5.7
OverallDifficulty:7
ApproachRate:8
SliderMultiplier:1
SliderTickRate:1

[Events]
//Background and Video events
0,0,"wallhaven-377054.jpg",0,0
//Break Periods
//Storyboard Layer 0 (Background)
//Storyboard Layer 1 (Fail)
//Storyboard Layer 2 (Pass)
//Storyboard Layer 3 (Foreground)
//Storyboard Sound Samples

[TimingPoints]
2644,666.666666666667,4,2,0,50,1,0
6810,-100,4,2,0,60,0,0
7144,-100,4,2,0,70,0,0
7477,-100,4,2,0,80,0,0
7810,-100,4,2,0,50,0,0
30810,-100,4,2,0,5,0,0
31310,-100,4,2,0,50,0,0
31644,-100,4,2,0,5,0,0
31977,-100,4,2,0,50,0,0
48727,-100,4,2,0,25,0,0
49310,-100,4,2,0,50,0,0

[Colours]
Combo1 : 168,255,168
Combo2 : 255,168,255
Combo3 : 157,255,255
Combo4 : 255,255,179

[HitObjects]
256,192,143,12,2,2644,0:0:0:0:
256,304,3644,5,2,0:0:0:0:
256,304,3755,1,0,0:0:0:0:
256,304,3866,1,2,0:0:0:0:
436,80,5310,6,0,B|374:53|374:105|314:80,1,125,4|0,3:0|0:2,0:0:0:0:
256,56,6310,1,8,0:2:0:0:
196,80,6477,2,0,L|184:136,3,50
100,220,7810,1,0,0:0:0:0:
100,220,7977,6,0,P|52:216|8:256,1,100,2|8,0:0|0:0,0:0:0:0:
164,364,8977,1,0,0:0:0:0:
164,364,9144,2,0,L|244:340,1,75,2|0,0:0|0:0,0:0:0:0:
432,280,9977,1,8,0:0:0:0:
375,260,10144,1,0,0:0:0:0:
432,64,10644,5,0,0:0:0:0:
476,148,10977,1,2,0:0:0:0:
476,148,11060,1,0,0:0:0:0:
476,148,11144,1,2,0:0:0:0:
508,88,11310,1,8,0:0:0:0:
376,160,11810,2,0,L|385:234,2,75
224,116,13144,1,2,0:0:0:0:
224,116,13227,1,0,0:0:0:0:
224,116,13310,6,0,P|216:164|244:208,1,100,2|8,0:0|0:0,0:0:0:0:
376,160,14310,1,2,0:0:0:0:
376,160,14393,1,0,0:0:0:0:
376,160,14477,2,0,P|366:112|343:88,1,75,2|0,0:0|0:0,0:0:0:0:
280,24,15310,6,12,L|288:20,2,8.33333333333333,12|12|12,3:3|3:3|3:3,3:3:0:0:
268,36,15532,5,8,3:0:0:0:
259,50,15644,5,8,3:0:0:0:
257,66,15755,5,8,3:0:0:0:
260,82,15866,5,8,3:0:0:0:
266,97,15977,6,0,L|255:141,1,25,0|2,0:0|0:0,0:0:0:0:
63,200,16644,1,8,0:0:0:0:
63,200,16977,2,0,L|74:244,1,25,0|2,0:0|0:0,0:0:0:0:
104,384,17644,1,0,0:0:0:0:
104,384,18144,1,0,0:0:0:0:
220,320,18477,6,0,L|231:276,1,25,0|2,0:0|0:0,0:0:0:0:
280,104,19310,1,8,0:0:0:0:
280,104,19644,2,0,L|292:148,1,37.5,0|2,0:0|0:0,0:0:0:0:
328,316,20310,1,0,0:0:0:0:
440,224,20644,1,8,0:0:0:0:
440,224,20810,1,0,0:0:0:0:
108,164,21310,6,0,P|108:152|116:132,1,25,2|0,0:0|0:0,0:0:0:0:
184,80,21644,1,2,0:0:0:0:
184,80,21727,1,0,0:0:0:0:
184,80,21810,1,2,0:0:0:0:
104,52,21977,2,0,L|80:60,1,25,8|0,0:0|0:0,0:0:0:0:
184,80,22310,1,0,0:0:0:0:
184,80,22477,2,0,L|208:72,1,25,2|0,0:0|0:0,0:0:0:0:
280,184,22977,1,0,0:0:0:0:
280,184,23060,1,0,0:0:0:0:
280,184,23144,1,2,0:0:0:0:
352,28,23477,1,2,0:0:0:0:
488,256,23977,6,0,P|480:284|482:308,1,50,2|2,0:0|0:0,0:0:0:0:
489,316,24394,1,0,0:0:0:0:
468,332,24477,1,2,0:0:0:0:
376,384,24644,1,8,0:0:0:0:
344,168,25144,1,0,0:0:0:0:
344,168,25310,2,0,L|350:107,1,50,2|0,0:0|0:0,0:0:0:0:
360,32,25810,1,0,0:0:0:0:
412,112,25977,1,8,0:0:0:0:
348,16,26144,1,2,0:0:0:0:
168,120,26644,6,0,P|120:128|68:108,1,100,2|8,0:0|0:1,0:0:0:0:
120,336,27810,2,0,L|144:240,1,75,2|0,0:0|0:0,0:0:0:0:
156,196,28477,1,0,0:0:0:0:
264,284,28644,2,0,P|252:292|224:300,1,25,8|2,0:1|0:0,0:0:0:0:
24,168,29144,1,0,0:0:0:0:
24,168,29310,6,0,L|48:72,1,75,2|0,0:0|0:0,0:0:0:0:
196,56,29977,1,8,1:0:0:0:
236,216,30310,1,0,0:0:0:0:
236,216,30477,2,0,L|249:161,1,50,2|0,0:0|0:1,0:0:0:0:
269,77,30977,1,0,0:0:0:0:
188,136,31144,1,0,0:0:0:0:
340,68,31310,6,0,L|384:72,1,25,8|0,0:1|0:0,0:0:0:0:
464,132,31644,1,0,0:0:0:0:
508,16,31810,1,0,0:0:0:0:
340,68,31977,6,0,P|324:108|328:148,1,75,2|0,0:0|0:0,0:0:0:0:
416,260,32644,2,0,P|441:262|468:247,1,50,8|0,0:1|0:0,0:0:0:0:
416,128,33144,2,0,L|431:209,1,75,2|0,0:0|0:0,0:0:0:0:
512,292,33810,1,0,0:0:0:0:
488,140,33977,1,8,0:1:0:0:
430,202,34144,1,0,0:0:0:0:
430,202,34227,1,0,0:0:0:0:
430,202,34310,1,0,0:0:0:0:
411,100,34477,1,0,0:1:0:0:
320,168,34644,6,0,B|288:172|260:156|260:156|248:184|220:204|184:200,1,150,2|0,0:0|0:0,0:0:0:0:
68,100,35977,6,0,B|100:96|128:112|128:112|140:84|168:64|204:68,1,150,2|0,0:0|0:0,0:0:0:0:
380,20,37310,5,0,3:0:0:0:
376,32,37394,1,0,3:0:0:0:
372,44,37477,1,0,3:0:0:0:
368,56,37560,1,0,3:0:0:0:
364,68,37644,2,0,L|372:100,1,25,4|4,3:0|3:0,3:0:0:0:
420,208,37977,5,4,3:0:0:0:
288,164,38144,1,4,3:0:0:0:
491,111,38310,1,4,3:0:0:0:
496,126,38394,1,4,3:0:0:0:
501,141,38477,1,4,3:0:0:0:
506,156,38560,1,4,3:0:0:0:
511,171,38644,6,0,L|503:202,1,25,2|0,0:0|0:0,0:0:0:0:
452,288,38977,1,0,0:0:0:0:
420,208,39144,1,0,0:0:0:0:
364,348,39310,2,0,P|324:348|304:336,1,50,8|0,0:1|0:0,0:0:0:0:
272,268,39810,2,0,L|296:192,2,75,2|0|0,0:0|0:0|0:0,0:0:0:0:
56,200,41144,1,0,0:0:0:0:
56,200,41310,6,0,L|96:188,1,25,2|0,0:0|0:0,0:0:0:0:
148,172,41644,1,0,0:0:0:0:
48,136,41810,1,0,0:0:0:0:
128,260,41977,2,0,P|131:284|124:312,1,50,8|0,0:1|0:0,0:0:0:0:
148,172,42477,1,0,0:0:0:0:
212,204,42644,6,0,L|248:200,1,25,2|0,0:0|0:0,0:0:0:0:
308,192,42977,1,0,0:0:0:0:
188,32,43310,1,8,0:1:0:0:
168,100,43477,2,0,P|188:104|220:96,1,50
336,32,43977,6,0,L|356:96,1,50,2|2,0:0|0:0,0:0:0:0:
355,92,44394,1,0,0:0:0:0:
348,116,44477,1,2,0:0:0:0:
432,64,44644,1,8,0:1:0:0:
217,98,44977,1,0,0:0:0:0:
217,98,45144,6,0,P|177:94|145:110,2,75
264,152,46310,1,2,0:0:0:0:
264,152,46394,1,0,0:0:0:0:
264,152,46477,1,2,0:0:0:0:
200,224,46644,6,0,L|208:288,1,50
368,336,47310,1,8,0:1:0:0:
156,380,47644,1,2,0:0:0:0:
156,380,47728,1,0,0:0:0:0:
156,380,47811,1,2,0:0:0:0:
68,324,47977,6,0,L|76:260,1,50
84,204,48477,1,0,0:0:0:0:
144,304,48644,1,8,0:1:0:0:
154,314,48727,1,0,0:0:0:0:
166,323,48810,1,0,0:0:0:0:
180,329,48894,1,0,0:0:0:0:
194,333,48977,1,0,0:0:0:0:
209,333,49060,1,0,0:0:0:0:
224,331,49144,1,0,0:0:0:0:
238,327,49227,1,0,0:0:0:0:
252,320,49310,6,0,L|316:328,1,50,2|0,0:0|0:0,0:0:0:0:
384,336,49810,1,0,0:0:0:0:
292,256,49977,2,0,P|284:224|288:192,1,50,8|2,0:1|0:0,0:0:0:0:
320,120,50477,1,0,0:0:0:0:
240,144,50644,5,2,0:0:0:0:
227,140,50727,1,0,0:0:0:0:
214,136,50810,1,0,0:0:0:0:
201,133,50894,1,0,0:0:0:0:
188,130,50977,1,0,0:0:0:0:
100,144,51144,1,0,0:0:0:0:
136,64,51310,2,0,P|136:40|132:24,1,25
160,240,51810,1,0,0:0:0:0:
160,240,51977,6,0,P|164:280|152:320,1,75,2|0,0:0|0:0,0:0:0:0:
72,380,52644,2,0,L|60:332,1,50,8|0,0:1|0:0,0:0:0:0:
168,332,53144,2,0,B|203:340|203:340|242:332,1,75,2|0,0:0|0:0,0:0:0:0:
412,296,53977,1,8,0:1:0:0:
388,364,54144,1,0,0:0:0:0:
272,188,54644,6,0,L|280:128,1,50,2|2,0:0|0:0,0:0:0:0:
278,138,55060,1,0,0:0:0:0:
278,138,55144,1,2,0:0:0:0:
360,104,55310,2,0,P|358:91|352:76,1,25,8|0,0:1|0:0,0:0:0:0:
288,44,55644,1,0,0:0:0:0:
372,4,55810,6,0,B|456:16,2,75
288,44,56977,1,2,0:0:0:0:
288,44,57060,1,0,0:0:0:0:
288,44,57144,1,2,0:0:0:0:
185,93,57310,6,0,L|164:88,6,12.5,2|0|0|0|0|0|0,0:0|0:0|0:0|0:0|0:0|0:0|0:0,0:0:0:0:
264,116,57977,1,8,0:1:0:0:
160,168,58144,1,0,0:0:0:0:
240,204,58310,1,2,0:0:0:0:
240,204,58394,1,0,0:0:0:0:
240,204,58477,1,2,0:0:0:0:
132,248,58644,6,0,L|146:326,1,75,2|0,0:0|0:0,0:0:0:0:
208,292,59310,2,0,L|220:356,1,50,8|2,0:1|0:0,0:0:0:0:
