osu file format v14

[General]
AudioFilename: audio.mp3
AudioLeadIn: 0
PreviewTime: 38637
Countdown: 0
SampleSet: Soft
StackLeniency: 0.7
Mode: 0
LetterboxInBreaks: 0
WidescreenStoryboard: 1

[Editor]
DistanceSpacing: 3
BeatDivisor: 8
GridSize: 4
TimelineZoom: 1.4

[Metadata]
Title:B:/ Infinite Login
TitleUnicode:B:/ Infinite Login
Artist:Blank Banshee
ArtistUnicode:Blank Banshee
Creator:Mismagius
Version:Hard
Source:
Tags:vaporwave vaportrap windows blue dragon
BeatmapID:1306669
BeatmapSetID:618938

[Difficulty]
HPDrainRate:4
CircleSize:4.5
OverallDifficulty:5.5
ApproachRate:7
SliderMultiplier:1
SliderTickRate:1

[Events]
//Background and Video events
0,0,"wallhaven-377054.jpg",0,0
//Break Periods
//Storyboard Layer 0 (Background)
//Storyboard Layer 1 (Fail)
//Storyboard Layer 2 (Pass)
//Storyboard Layer 3 (Foreground)
//Storyboard Sound Samples

[TimingPoints]
2644,666.666666666667,4,2,0,50,1,0
6810,-100,4,2,0,60,0,0
7144,-100,4,2,0,70,0,0
7477,-100,4,2,0,80,0,0
7810,-100,4,2,0,50,0,0
30810,-100,4,2,0,5,0,0
31310,-100,4,2,0,50,0,0
31644,-100,4,2,0,5,0,0
31977,-100,4,2,0,50,0,0

[Colours]
Combo1 : 168,255,168
Combo2 : 255,168,255
Combo3 : 157,255,255
Combo4 : 255,255,179

[HitObjects]
256,192,143,12,2,2644,0:0:0:0:
256,64,3644,5,2,0:0:0:0:
256,64,3755,1,0,0:0:0:0:
256,64,3866,1,2,0:0:0:0:
256,312,5310,6,0,L|380:292,1,125,4|0,3:0|0:2,0:0:0:0:
452,280,6310,1,8,0:2:0:0:
452,280,6477,2,0,P|471:304|478:330,3,50,8|8|8|8,0:3|0:3|0:3|0:3,0:0:0:0:
376,204,7810,1,0,0:0:0:0:
376,204,7977,6,0,L|392:104,1,100,2|8,0:0|0:0,0:0:0:0:
256,32,8977,1,0,0:0:0:0:
256,32,9144,2,0,L|275:155,1,125,2|8,0:0|0:0,0:0:0:0:
288,228,10144,1,0,0:0:0:0:
476,292,10644,5,0,0:0:0:0:
336,348,10977,1,2,0:0:0:0:
336,348,11060,1,0,0:0:0:0:
336,348,11144,1,2,0:0:0:0:
368,280,11310,2,0,P|376:248|368:208,3,75,8|0|0|0,0:0|0:0|0:0|0:0,0:0:0:0:
232,140,13144,1,2,0:0:0:0:
232,140,13227,1,0,0:0:0:0:
232,140,13310,6,0,L|124:156,1,100,2|8,0:0|0:0,0:0:0:0:
60,288,14310,1,2,0:0:0:0:
60,288,14393,1,0,0:0:0:0:
60,288,14476,2,0,L|138:299,1,75,2|0,0:0|0:0,0:0:0:0:
284,320,15310,2,0,B|300:324|300:324|320:320,1,33.3333333333333,12|0,3:3|0:0,0:0:0:0:
340,316,15644,2,0,B|356:312|356:312|376:316,1,33.3333333333333,12|0,3:3|0:0,0:0:0:0:
388,320,15977,6,0,L|424:320,1,25,0|2,0:0|0:0,0:0:0:0:
508,72,16644,1,8,0:0:0:0:
376,140,16977,2,0,L|340:140,1,25,0|2,0:0|0:0,0:0:0:0:
84,52,18477,6,0,L|120:52,1,25,0|2,0:0|0:0,0:0:0:0:
196,260,19310,1,8,0:0:0:0:
64,192,19644,2,0,L|16:192,1,37.5,0|2,0:0|0:0,0:0:0:0:
256,32,20644,1,8,0:0:0:0:
256,32,20810,1,0,0:0:0:0:
320,248,21310,5,2,0:0:0:0:
180,196,21644,1,2,0:0:0:0:
180,196,21727,1,0,0:0:0:0:
180,196,21810,1,2,0:0:0:0:
244,156,21977,2,0,P|240:128|232:104,1,50,8|0,0:0|0:0,0:0:0:0:
192,44,22477,1,2,0:0:0:0:
416,8,22977,1,0,0:0:0:0:
416,8,23060,1,0,0:0:0:0:
416,8,23144,2,0,L|408:64,1,50,2|2,0:0|0:0,0:0:0:0:
492,268,23977,5,2,0:0:0:0:
372,180,24310,1,2,0:0:0:0:
372,180,24394,1,0,0:0:0:0:
372,180,24477,1,2,0:0:0:0:
400,248,24644,2,0,L|384:327,1,75,8|0,0:0|0:0,0:0:0:0:
316,353,25310,2,0,L|306:303,1,50,2|0,0:0|0:0,0:0:0:0:
294,229,25810,1,0,0:0:0:0:
224,256,25977,2,0,P|211:253|199:249,1,25,8|2,0:0|0:0,0:0:0:0:
16,116,26644,6,0,L|36:224,1,100,2|8,0:0|0:1,0:0:0:0:
248,148,27810,2,0,P|264:112|262:70,1,75,2|0,0:0|0:0,0:0:0:0:
236,8,28477,1,0,0:0:0:0:
312,16,28644,2,0,L|344:0,1,25,8|2,0:1|0:0,0:0:0:0:
468,76,29144,1,0,0:0:0:0:
468,76,29310,6,0,L|460:152,1,75,2|0,0:0|0:0,0:0:0:0:
452,224,29977,1,8,1:0:0:0:
312,280,30310,1,0,0:0:0:0:
312,280,30477,1,2,0:0:0:0:
184,184,30810,5,0,0:1:0:0:
112,164,30977,1,0,0:0:0:0:
92,236,31144,1,0,0:0:0:0:
164,256,31310,2,0,L|169:288,1,25,8|0,0:1|0:0,0:0:0:0:
240,300,31644,1,0,0:0:0:0:
312,280,31811,1,0,0:0:0:0:
384,260,31977,6,0,P|393:223|384:182,1,75,2|0,0:0|0:0,0:0:0:0:
332,132,32644,2,0,L|352:76,1,50,8|0,0:1|0:0,0:0:0:0:
376,16,33144,1,2,0:0:0:0:
500,204,33644,2,0,L|496:232,1,25,0|0,0:0|0:0,0:0:0:0:
452,288,33977,2,0,L|456:316,1,25,8|0,0:1|0:0,0:0:0:0:
252,212,34644,6,0,B|212:216|180:192|180:192|160:228|116:240,1,150,2|0,0:0|0:0,0:0:0:0:
232,344,35977,6,0,B|272:340|304:364|304:364|324:328|368:316,1,150,2|0,0:0|0:0,0:0:0:0:
480,232,37310,6,0,L|486:211,3,12.5
504,156,37644,2,0,L|512:132,1,25,4|4,3:0|3:0,0:0:0:0:
448,72,37977,6,0,L|440:96,1,25,4|4,3:0|3:0,0:0:0:0:
372,132,38310,1,4,3:0:0:0:
372,132,38394,1,4,3:0:0:0:
372,132,38477,1,4,3:0:0:0:
372,132,38560,1,4,3:0:0:0:
372,132,38644,6,0,L|296:124,1,75,2|0,0:0|0:0,0:0:0:0:
248,180,39310,2,0,L|221:182,1,25,8|0,0:1|0:0,0:0:0:0:
160,144,39644,1,0,0:0:0:0:
108,196,39810,6,0,P|100:224|112:268,2,75,2|0|0,0:0|0:0|0:0,0:0:0:0:
240,104,41144,1,0,0:0:0:0:
240,104,41310,6,0,L|316:112,1,75,2|0,0:0|0:0,0:0:0:0:
388,120,41977,1,8,0:1:0:0:
448,256,42310,1,0,0:0:0:0:
448,256,42477,2,0,L|346:266,1,100,2|0,0:0|0:0,0:0:0:0:
272,276,43310,2,0,P|263:291|260:308,1,25,8|0,0:1|0:0,0:0:0:0:
44,356,43977,5,2,0:0:0:0:
160,260,44310,1,0,0:0:0:0:
160,260,44394,1,0,0:0:0:0:
160,260,44477,1,2,0:0:0:0:
100,212,44644,2,0,P|94:186|100:161,1,50,8|0,0:1|0:0,0:0:0:0:
140,100,45144,6,0,L|220:84,2,75
76,60,46310,1,2,0:0:0:0:
76,60,46394,1,0,0:0:0:0:
76,60,46477,1,2,0:0:0:0:
28,120,46644,2,0,P|18:156|28:193,1,75,0|0,0:0|0:0,0:0:0:0:
68,256,47310,1,8,0:1:0:0:
208,200,47644,1,2,0:0:0:0:
208,200,47727,1,0,0:0:0:0:
208,200,47810,1,2,0:0:0:0:
256,260,47977,6,0,P|262:286|256:313,1,50,0|0,0:0|0:0,0:0:0:0:
200,356,48477,1,0,0:0:0:0:
136,316,48644,2,0,L|108:316,1,25,8|0,0:1|0:0,0:0:0:0:
24,108,49310,6,0,L|80:96,1,50,2|0,0:0|0:0,0:0:0:0:
120,40,49810,1,0,0:0:0:0:
188,72,49977,2,0,P|196:100|196:124,1,50,8|2,0:1|0:0,0:0:0:0:
176,192,50477,6,0,L|256:216,2,75
40,252,51810,1,0,0:0:0:0:
40,252,51977,2,0,P|36:288|48:324,1,75,2|0,0:0|0:0,0:0:0:0:
104,380,52644,1,8,0:1:0:0:
240,320,52977,1,0,0:0:0:0:
240,320,53144,2,0,P|288:316|336:344,1,100,2|0,0:0|0:0,0:0:0:0:
396,380,53977,2,0,L|408:352,1,25,8|0,0:1|0:0,0:0:0:0:
488,136,54644,5,2,0:0:0:0:
348,192,54977,1,2,0:0:0:0:
348,192,55060,1,0,0:0:0:0:
348,192,55144,1,2,0:0:0:0:
288,144,55310,2,0,P|259:142|236:148,1,50,8|0,0:1|0:0,0:0:0:0:
188,204,55810,6,0,L|212:284,2,75
124,168,56977,1,2,0:0:0:0:
124,168,57060,1,0,0:0:0:0:
124,168,57144,1,2,0:0:0:0:
60,132,57310,6,0,L|40:140,6,12.5,2|0|0|0|0|0|0,0:0|0:0|0:0|0:0|0:0|0:0|0:0,0:0:0:0:
96,64,57977,2,0,L|124:68,1,25,8|0,0:1|0:0,0:0:0:0:
196,80,58310,1,2,0:0:0:0:
196,80,58394,1,0,0:0:0:0:
196,80,58477,1,2,0:0:0:0:
272,92,58644,6,0,P|304:96|328:88,1,50,2|0,0:0|0:0,0:0:0:0:
376,44,59144,1,0,0:0:0:0:
444,72,59310,2,0,L|464:120,1,50,8|2,0:1|0:0,0:0:0:0:
