osu file format v14

[General]
AudioFilename: audio.mp3
AudioLeadIn: 0
PreviewTime: 38637
Countdown: 0
SampleSet: Soft
StackLeniency: 0.7
Mode: 0
LetterboxInBreaks: 0
WidescreenStoryboard: 1

[Editor]
DistanceSpacing: 1.6
BeatDivisor: 8
GridSize: 4
TimelineZoom: 1.4

[Metadata]
Title:B:/ Infinite Login
TitleUnicode:B:/ Infinite Login
Artist:Blank Banshee
ArtistUnicode:Blank Banshee
Creator:Mismagius
Version:Normal
Source:
Tags:vaporwave vaportrap windows blue dragon
BeatmapID:1306696
BeatmapSetID:618938

[Difficulty]
HPDrainRate:3
CircleSize:4
OverallDifficulty:4
ApproachRate:5.5
SliderMultiplier:1.2
SliderTickRate:1

[Events]
//Background and Video events
0,0,"wallhaven-377054.jpg",0,0
//Break Periods
//Storyboard Layer 0 (Background)
//Storyboard Layer 1 (Fail)
//Storyboard Layer 2 (Pass)
//Storyboard Layer 3 (Foreground)
//Storyboard Sound Samples

[TimingPoints]
2644,666.666666666667,4,2,0,50,1,0
6810,-100,4,2,0,60,0,0
7144,-100,4,2,0,70,0,0
7477,-100,4,2,0,80,0,0
7810,-100,4,2,0,50,0,0

[Colours]
Combo1 : 168,255,168
Combo2 : 255,168,255
Combo3 : 157,255,255
Combo4 : 255,255,179

[HitObjects]
256,192,143,12,2,2644,0:0:0:0:
256,72,3644,6,0,L|256:44,2,20,2|0|2,0:0|0:0|0:0,0:0:0:0:
256,296,5310,5,4,3:0:0:0:
380,164,6310,2,0,L|416:168,1,30,8|8,0:2|0:3,0:0:0:0:
484,103,6810,2,0,P|480:67|468:39,2,60,8|8|8,0:3|0:3|0:3,0:0:0:0:
496,200,7810,1,0,0:0:0:0:
496,200,7977,6,0,L|480:320,1,120,2|8,0:0|0:0,0:0:0:0:
392,280,8977,1,0,0:0:0:0:
392,280,9144,2,0,L|372:130,1,150,2|8,0:0|0:0,0:0:0:0:
364,84,10144,1,0,0:0:0:0:
236,20,10644,5,0,0:0:0:0:
172,92,10977,2,0,L|152:92,2,15,2|0|2,0:0|0:0|0:0,0:0:0:0:
208,124,11310,2,0,P|216:156|204:212,3,90,8|0|0|0,0:0|0:0|0:0|0:0,0:0:0:0:
156,292,13144,2,0,L|156:312,2,15,2|0|2,0:0|0:0|0:0,0:0:0:0:
320,192,13977,5,8,0:0:0:0:
400,240,14310,2,0,L|400:260,2,15,2|0|2,0:0|0:0|0:0,0:0:0:0:
400,95,14977,1,0,0:0:0:0:
320,44,15310,2,0,L|252:56,1,60,12|8,3:3|3:0,0:0:0:0:
207,134,15977,6,0,L|207:170,1,30,0|2,0:0|0:0,0:0:0:0:
207,308,16644,1,8,0:0:0:0:
291,262,16977,2,0,L|291:226,1,30,0|2,0:0|0:0,0:0:0:0:
448,48,18477,6,0,L|448:84,1,30,0|2,0:0|0:0,0:0:0:0:
448,270,19310,1,8,0:0:0:0:
364,224,19643,2,0,L|364:172,1,45,0|2,0:0|0:0,0:0:0:0:
136,124,20644,2,0,L|136:160,1,30,8|0,0:0|0:0,0:0:0:0:
136,298,21310,6,0,P|88:310|48:298,2,90,2|2|0,0:0|0:0|0:0,0:0:0:0:
176,272,22477,2,0,P|232:256|292:272,1,120,2|2,0:0|0:0,0:0:0:0:
358,339,23477,1,2,0:0:0:0:
480,260,23977,6,0,L|456:132,1,120,2|8,0:0|0:0,0:0:0:0:
356,40,25144,1,0,0:0:0:0:
356,40,25310,2,0,L|332:168,1,120,2|8,0:0|0:0,0:0:0:0:
324,204,26144,1,2,0:0:0:0:
200,128,26644,6,0,P|141:115|82:128,1,120,2|8,0:0|0:1,0:0:0:0:
24,260,27810,2,0,P|82:272|141:260,1,120,2|0,0:0|0:0,0:0:0:0:
188,276,28644,2,0,P|194:295|196:316,1,30,8|2,0:1|0:0,0:0:0:0:
296,296,29144,6,0,L|336:272,1,30,0|2,0:0|0:0,0:0:0:0:
488,184,29977,1,8,1:0:0:0:
401,143,30310,2,0,L|361:167,1,30,0|2,0:0|0:0,0:0:0:0:
288,204,30810,6,0,L|288:240,2,30,2|2|0,0:0|0:0|0:0,0:0:0:0:
253,169,31310,1,8,0:1:0:0:
156,169,31644,2,0,L|120:185,1,30
80,176,31977,6,0,P|72:136|80:88,1,90,2|0,0:0|0:0,0:0:0:0:
108,48,32644,2,0,L|172:72,1,60,8|0,0:1|0:0,0:0:0:0:
208,88,33144,1,2,0:0:0:0:
336,20,33644,1,0,0:0:0:0:
404,88,33977,2,0,L|436:100,1,30,8|0,0:1|0:0,0:0:0:0:
308,176,34644,6,0,B|320:224|372:240|372:240|348:280|366:327,1,180,2|0,0:0|0:0,0:0:0:0:
280,364,35977,2,0,B|268:316|215:299|215:299|240:260|221:212,1,180,2|0,0:0|0:0,0:0:0:0:
180,132,37310,6,0,L|137:126,2,30,0|0|4,3:0|3:0|3:0,0:0:0:0:
248,64,37977,2,0,L|290:58,1,30,4|4,3:0|3:0,0:0:0:0:
324,56,38310,1,4,3:0:0:0:
368,140,38644,6,0,P|428:148|468:132,1,90,2|0,0:0|0:0,0:0:0:0:
488,104,39310,1,8,0:1:0:0:
508,198,39644,2,0,L|480:302,2,90
460,64,41144,6,0,L|424:60,1,30,0|2,0:0|0:0,0:0:0:0:
252,124,41977,1,8,0:1:0:0:
312,196,42310,2,0,L|348:192,1,30,0|2,0:0|0:0,0:0:0:0:
492,380,43310,2,0,L|456:376,1,30,8|0,0:1|0:0,0:0:0:0:
356,276,43977,6,0,P|304:272|272:288,1,90,2|0,0:0|0:0,0:0:0:0:
236,320,44644,1,8,0:1:0:0:
144,288,44977,1,0,0:0:0:0:
136,240,45144,2,0,L|123:137,2,90
272,188,46644,5,0,0:0:0:0:
312,100,46977,1,0,0:0:0:0:
372,176,47310,1,8,0:1:0:0:
336,264,47644,2,0,L|325:289,2,15,2|0|2,0:0|0:0|0:0,0:0:0:0:
384,252,47977,5,0,0:0:0:0:
472,292,48310,1,0,0:0:0:0:
396,352,48644,2,0,L|360:360,1,30,8|0,0:1|0:0,0:0:0:0:
228,316,49310,6,0,P|176:308|140:320,1,90,2|0,0:0|0:0,0:0:0:0:
104,352,49977,1,8,0:1:0:0:
40,280,50310,1,2,0:0:0:0:
56,236,50477,2,0,L|40:132,2,90,0|0|0,0:0|0:0|0:0,0:0:0:0:
72,332,51810,1,0,0:0:0:0:
72,332,51977,6,0,P|112:344|184:304,1,120,2|8,0:0|0:1,0:0:0:0:
236,236,52977,1,0,0:0:0:0:
236,236,53144,2,0,P|269:229|320:248,1,90,2|0,0:0|0:0,0:0:0:0:
380,324,53977,2,0,L|372:360,1,30,8|0,0:1|0:0,0:0:0:0:
476,248,54644,6,0,L|456:158,1,90,2|2,0:0|0:0,0:0:0:0:
444,112,55310,1,8,0:1:0:0:
364,164,55644,1,0,0:0:0:0:
356,212,55810,2,0,P|324:244|268:248,2,90,2|0|0,0:0|0:0|0:0,0:0:0:0:
312,64,57310,6,0,B|300:56|300:56|288:64|288:64|276:56|276:56|264:64|264:64|248:56|248:56|224:64|192:48,1,120,2|8,0:0|0:1,0:0:0:0:
156,52,58144,2,0,P|144:84|144:128,1,60,2|0,0:0|0:0,0:0:0:0:
176,144,58644,2,0,P|164:176|164:220,1,60,2|0,0:0|0:0,0:0:0:0:
192,240,59144,1,0,0:0:0:0:
220,280,59310,2,0,P|208:312|208:356,1,60,8|2,0:1|0:0,0:0:0:0:
