osu file format v14

[General]
AudioFilename: Virtual Spider Dance.mp3
AudioLeadIn: 0
PreviewTime: 1796
Countdown: 0
SampleSet: Soft
StackLeniency: 0.7
Mode: 0
LetterboxInBreaks: 1
WidescreenStoryboard: 1

[Editor]
DistanceSpacing: 1.2
BeatDivisor: 4
GridSize: 16
TimelineZoom: 2

[Metadata]
Title:Virtual Spider Dance
TitleUnicode:バーチャルSpider Dance
Artist:Blanc
ArtistUnicode:ブラン
Creator:Mirai Akari
Version:True Pacifist
Source:Nico Nico Douga
Tags:キズナアイ 輝夜月 バーチャルのじゃロリ狐娘Youtuberおじさん バーチャルyoutuber kizuna ai kaguya luna nekomasu undertale hicca hicari
BeatmapID:1522785
BeatmapSetID:720299

[Difficulty]
HPDrainRate:7
CircleSize:4
OverallDifficulty:8
ApproachRate:9.3
SliderMultiplier:1.59999990463257
SliderTickRate:1

[Events]
//Background and Video events
0,0,"BG.jpg",0,0
Video,0,"Virtual Spider Dance.avi"
//Break Periods
//Storyboard Layer 0 (Background)
//Storyboard Layer 1 (Fail)
//Storyboard Layer 2 (Pass)
//Storyboard Layer 3 (Foreground)
//Storyboard Sound Samples

[TimingPoints]
36,260.869565217391,4,2,1,30,1,0
36,-133.333333333333,4,2,1,30,0,0
557,-133.333333333333,4,2,1,40,0,0
1079,-133.333333333333,4,2,1,50,0,0
1601,-133.333333333333,4,2,1,60,0,0
2122,-100,4,2,1,70,0,1
14644,-83.3333333333333,4,2,1,70,0,1
18329,-83.3333333333333,4,2,1,20,0,1
18818,-100,4,2,1,30,0,0

[HitObjects]
220,104,36,6,0,P|172:69|114:76,1,119.999997425079,2|0,0:0|0:0,0:0:0:0:
241,203,557,2,0,P|294:179|318:125,1,119.999997425079,2|0,0:0|0:0,0:0:0:0:
144,170,1079,2,0,P|134:199|136:229,1,59.9999987125397,2|0,0:0|0:0,0:0:0:0:
220,104,1340,2,0,P|221:74|212:45,1,59.9999987125397,2|0,0:0|0:0,0:0:0:0:
78,214,1601,2,0,L|144:231,1,59.9999987125397,2|0,0:0|0:0,0:0:0:0:
305,181,1862,1,2,0:0:0:0:
183,125,1992,1,2,0:0:0:0:
181,298,2122,6,0,P|216:282|256:285,1,79.9999952316285,6|0,0:0|0:0,0:0:0:0:
66,358,2383,2,0,L|81:261,1,79.9999952316285,8|0,0:0|0:0,0:0:0:0:
305,181,2644,2,0,L|317:260,1,79.9999952316285,2|2,0:0|0:0,0:0:0:0:
230,342,2905,1,8,0:0:0:0:
406,303,3035,1,2,0:0:0:0:
231,230,3166,6,0,P|218:201|222:137,1,79.9999952316285,2|0,0:0|0:0,0:0:0:0:
348,88,3427,1,8,0:0:0:0:
430,224,3557,2,0,P|380:166|304:180,1,159.999990463257,10|2,0:0|0:0,0:0:0:0:
350,257,3949,1,8,0:0:0:0:
231,230,4079,1,0,0:0:0:0:
406,303,4209,6,0,P|449:309|489:281,1,79.9999952316285,2|0,0:0|0:0,0:0:0:0:
305,181,4470,1,8,0:0:0:0:
230,342,4601,2,0,B|271:318|305:322|305:322|324:271|349:256,1,159.999990463257,10|2,0:0|0:0,0:0:0:0:
348,88,4992,1,8,0:0:0:0:
231,230,5122,1,0,0:0:0:0:
430,224,5253,6,0,L|449:118,1,79.9999952316285,2|0,0:0|0:0,0:0:0:0:
273,110,5514,1,8,0:0:0:0:
349,255,5644,2,0,L|368:149,1,79.9999952316285,8|2,0:0|0:0,0:0:0:0:
283,33,5905,5,10,0:0:0:0:
305,181,6035,1,2,0:0:0:0:
423,88,6166,1,8,0:0:0:0:
283,33,6296,6,0,P|246:16|173:29,1,79.9999952316285,6|0,0:0|0:0,0:0:0:0:
36,102,6557,2,0,P|77:84|146:98,1,79.9999952316285,8|0,0:0|0:0,0:0:0:0:
237,198,6818,1,2,0:0:0:0:
235,90,6949,1,2,0:0:0:0:
93,158,7079,1,8,0:0:0:0:
95,266,7209,1,2,0:0:0:0:
237,198,7340,6,0,L|154:181,1,79.9999952316285,2|0,0:0|0:0,0:0:0:0:
36,102,7601,1,8,0:0:0:0:
16,273,7731,2,0,P|48:203|123:193,1,159.999990463257,10|2,0:0|0:0,0:0:0:0:
212,345,8122,1,8,0:0:0:0:
95,266,8253,1,0,0:0:0:0:
237,198,8383,6,0,L|320:181,1,79.9999952316285,2|0,0:0|0:0,0:0:0:0:
358,173,8579,1,0,0:0:0:0:
358,173,8644,1,8,0:0:0:0:
207,75,8775,2,0,B|153:195|153:195|162:227,1,159.999990463257,10|2,0:0|0:0,0:0:0:0:
212,345,9166,1,8,0:0:0:0:
362,261,9296,1,0,0:0:0:0:
149,295,9427,6,0,P|167:264|144:203,1,79.9999952316285,2|0,0:0|0:0,0:0:0:0:
36,102,9688,1,8,0:0:0:0:
237,198,9818,2,0,P|216:164|179:151,1,79.9999952316285,8|2,0:0|0:0,0:0:0:0:
265,317,10079,5,10,0:0:0:0:
415,219,10209,1,2,0:0:0:0:
215,263,10340,1,8,0:0:0:0:
465,273,10470,6,0,L|456:365,1,79.9999952316285,6|0,0:0|0:0,0:0:0:0:
257,237,10731,2,0,L|264:316,1,79.9999952316285,8|0,0:0|0:0,0:0:0:0:
417,168,10992,1,2,0:0:0:0:
248,129,11122,1,2,0:0:0:0:
362,261,11253,1,8,0:0:0:0:
347,87,11383,1,2,0:0:0:0:
257,237,11514,6,0,L|264:316,1,79.9999952316285,2|0,0:0|0:0,0:0:0:0:
149,171,11775,1,8,0:0:0:0:
347,87,11905,2,0,L|354:166,1,79.9999952316285,10|2,0:0|0:0,0:0:0:0:
248,129,12166,1,2,0:0:0:0:
248,129,12231,1,2,0:0:0:0:
248,129,12296,1,10,0:0:0:0:
261,22,12427,1,0,0:0:0:0:
409,50,12557,6,0,L|488:42,1,79.9999952316285,2|0,0:0|0:0,0:0:0:0:
417,168,12818,1,8,0:0:0:0:
248,129,12949,2,0,L|168:121,1,79.9999952316285,10|2,0:0|0:0,0:0:0:0:
47,166,13209,1,2,0:0:0:0:
148,49,13340,1,8,0:0:0:0:
179,206,13470,2,0,L|167:253,1,39.9999976158142
85,359,13601,6,0,P|112:330|154:322,1,79.9999952316285,2|0,0:0|0:0,0:0:0:0:
253,353,13862,1,8,0:0:0:0:
46,292,13992,2,0,L|46:179,1,79.9999952316285,8|2,0:0|0:0,0:0:0:0:
47,166,14188,5,2,0:0:0:0:
47,166,14253,1,10,0:0:0:0:
279,123,14383,1,2,0:0:0:0:
59,80,14514,1,8,0:0:0:0:
169,244,14644,6,0,L|302:239,1,95.9999913482669,2|0,0:0|0:0,0:0:0:0:
282,36,14905,2,0,P|224:55|193:117,1,95.9999913482669,8|0,0:0|0:0,0:0:0:0:
344,193,15166,1,2,0:0:0:0:
389,86,15296,1,8,0:0:0:0:
445,274,15427,1,2,0:0:0:0:
264,240,15557,1,8,0:0:0:0:
461,156,15688,5,2,0:0:0:0:
461,156,15753,1,2,0:0:0:0:
461,156,15818,1,2,0:0:0:0:
306,113,15949,1,8,0:0:0:0:
348,287,16079,2,0,P|352:252|338:175,1,95.9999913482669,10|0,0:0|0:0,0:0:0:0:
478,68,16340,1,0,0:0:0:0:
225,157,16470,5,10,0:0:0:0:
232,65,16601,1,8,0:0:0:0:
306,113,16731,5,2,0:0:0:0:
235,284,16862,1,2,0:0:0:0:
122,137,16992,1,8,0:0:0:0:
343,192,17122,1,8,0:0:0:0:
114,308,17253,2,0,P|97:264|93:216,1,95.9999913482669,2|8,0:0|0:0,0:0:0:0:
418,215,17514,2,0,P|415:263|398:308,1,95.9999913482669,2|8,0:0|0:0,0:0:0:0:
358,351,17709,5,0,0:0:0:0:
358,351,17775,1,2,0:0:0:0:
177,245,17905,1,2,0:0:0:0:
306,113,18035,1,8,0:0:0:0:
253,360,18166,1,2,0:0:0:0:
206,113,18296,2,2,L|201:83,16,23.9999978370667,6|2|2|2|2|2|2|2|2|2|2|2|2|2|2|2|2,0:0|0:0|0:0|0:0|0:0|0:0|0:0|0:0|0:0|0:0|0:0|0:0|0:0|0:0|0:0|0:0|0:0,0:0:0:0:
