osu file format v14

[General]
AudioFilename: Virtual Spider Dance.mp3
AudioLeadIn: 0
PreviewTime: 1796
Countdown: 0
SampleSet: Soft
StackLeniency: 0.7
Mode: 0
LetterboxInBreaks: 1
WidescreenStoryboard: 1

[Editor]
DistanceSpacing: 1.2
BeatDivisor: 4
GridSize: 16
TimelineZoom: 1.3

[Metadata]
Title:Virtual Spider Dance
TitleUnicode:バーチャルSpider Dance
Artist:Blanc
ArtistUnicode:ブラン
Creator:Mirai Akari
Version:Genocide
Source:Nico Nico Douga
Tags:キズナアイ 輝夜月 バーチャルのじゃロリ狐娘Youtuberおじさん バーチャルyoutuber kizuna ai kaguya luna nekomasu undertale hicca hicari
BeatmapID:1520795
BeatmapSetID:720299

[Difficulty]
HPDrainRate:5
CircleSize:4
OverallDifficulty:9
ApproachRate:9.6
SliderMultiplier:1.79999990463257
SliderTickRate:1

[Events]
//Background and Video events
0,0,"BG.jpg",0,0
Video,0,"Virtual Spider Dance.avi"
//Break Periods
//Storyboard Layer 0 (Background)
//Storyboard Layer 1 (Fail)
//Storyboard Layer 2 (Pass)
//Storyboard Layer 3 (Foreground)
//Storyboard Sound Samples

[TimingPoints]
36,260.869565217391,4,2,1,30,1,0
36,-200,4,2,1,30,0,0
557,-200,4,2,1,40,0,0
1079,-133.333333333333,4,2,1,50,0,0
1601,-133.333333333333,4,2,1,60,0,0
2122,-80,4,2,1,70,0,1
14644,-66.6666666666667,4,2,1,70,0,1
18296,-1000,4,2,1,70,0,1
18818,-1000,4,2,1,30,0,0

[HitObjects]
330,347,36,6,0,L|319:257,1,89.9999976158142,2|0,0:0|0:0,0:0:0:0:
189,208,557,2,0,L|178:297,1,89.9999976158142,2|0,0:0|0:0,0:0:0:0:
377,105,1079,6,0,P|348:89|315:84,1,67.5000007867813,2|0,0:0|0:0,0:0:0:0:
114,163,1340,2,0,P|128:139|171:116,1,67.5000007867813,2|0,0:0|0:0,0:0:0:0:
313,272,1601,5,2,0:0:0:0:
193,286,1731,1,0,0:0:0:0:
333,286,1862,1,2,0:0:0:0:
173,272,1992,1,2,0:0:0:0:
407,346,2122,6,0,P|426:295|410:242,1,112.499997019768,6|0,0:0|0:0,0:0:0:0:
244,102,2383,2,0,L|355:87,1,112.499997019768,8|0,0:0|0:0,0:0:0:0:
469,219,2644,1,2,0:0:0:0:
408,30,2775,1,2,0:0:0:0:
268,198,2905,1,8,0:0:0:0:
489,124,3036,1,2,0:0:0:0:
226,42,3166,6,0,L|98:26,1,112.499997019768,2|0,0:0|0:0,0:0:0:0:
41,114,3362,1,0,0:0:0:0:
41,114,3427,2,0,P|25:175|61:228,1,112.499997019768,8|10,0:0|0:0,0:0:0:0:
256,279,3688,1,2,0:0:0:0:
129,159,3818,1,2,0:0:0:0:
355,87,3949,6,0,L|466:100,1,112.499997019768,8|0,0:0|0:0,0:0:0:0:
422,305,4209,5,2,0:0:0:0:
261,169,4340,1,0,0:0:0:0:
338,358,4470,1,8,0:0:0:0:
461,203,4601,2,0,P|483:152|466:100,1,112.499997019768,10|2,0:0|0:0,0:0:0:0:
323,246,4862,2,0,L|339:368,1,112.499997019768,2|8,0:0|0:0,0:0:0:0:
502,305,5122,1,0,0:0:0:0:
225,254,5253,6,0,P|168:230|95:244,1,112.499997019768,2|0,0:0|0:0,0:0:0:0:
37,355,5514,1,8,0:0:0:0:
323,246,5644,2,0,P|298:196|249:160,1,112.499997019768,10|2,0:0|0:0,0:0:0:0:
140,355,5905,5,10,0:0:0:0:
201,168,6036,1,0,0:0:0:0:
337,357,6166,1,8,0:0:0:0:
24,249,6296,6,0,P|41:197|125:153,1,112.499997019768,6|0,0:0|0:0,0:0:0:0:
225,254,6492,1,0,0:0:0:0:
225,254,6557,2,0,P|171:265|91:214,1,112.499997019768,8|0,0:0|0:0,0:0:0:0:
161,34,6818,1,2,0:0:0:0:
341,129,6949,1,2,0:0:0:0:
84,161,7079,1,8,0:0:0:0:
304,57,7209,1,2,0:0:0:0:
398,269,7340,6,0,L|378:395,1,112.499997019768,2|0,0:0|0:0,0:0:0:0:
216,184,7601,1,8,0:0:0:0:
480,118,7731,2,0,L|460:244,1,112.499997019768,10|2,0:0|0:0,0:0:0:0:
247,325,7992,1,2,0:0:0:0:
145,151,8122,1,8,0:0:0:0:
337,140,8253,1,0,0:0:0:0:
61,282,8383,6,0,L|205:260,1,112.499997019768,2|0,0:0|0:0,0:0:0:0:
320,348,8644,1,8,0:0:0:0:
145,151,8775,2,0,L|289:129,1,112.499997019768,10|2,0:0|0:0,0:0:0:0:
137,351,9036,1,2,0:0:0:0:
63,191,9166,1,8,0:0:0:0:
267,214,9296,1,0,0:0:0:0:
137,351,9427,6,0,P|145:287|134:228,1,112.499997019768,2|0,0:0|0:0,0:0:0:0:
80,58,9688,1,8,0:0:0:0:
24,306,9818,2,0,L|168:284,1,112.499997019768,8|2,0:0|0:0,0:0:0:0:
388,253,10079,5,10,0:0:0:0:
345,239,10144,1,2,0:0:0:0:
301,226,10209,1,2,0:0:0:0:
344,372,10340,1,8,0:0:0:0:
456,174,10470,6,0,P|452:122|395:75,1,112.499997019768,6|0,0:0|0:0,0:0:0:0:
195,160,10731,2,0,P|199:212|256:259,1,112.499997019768,8|0,0:0|0:0,0:0:0:0:
331,75,10992,1,2,0:0:0:0:
323,264,11122,1,2,0:0:0:0:
206,90,11253,1,8,0:0:0:0:
445,239,11383,1,2,0:0:0:0:
159,233,11514,5,2,0:0:0:0:
159,233,11579,1,0,0:0:0:0:
159,233,11644,1,0,0:0:0:0:
311,191,11775,1,8,0:0:0:0:
117,87,11905,2,0,L|-12:71,1,112.499997019768,10|2,0:0|0:0,0:0:0:0:
100,329,12166,1,2,0:0:0:0:
199,145,12296,2,0,P|211:95|188:25,1,112.499997019768,8|0,0:0|0:0,0:0:0:0:
159,233,12557,5,2,0:0:0:0:
159,233,12622,1,0,0:0:0:0:
159,233,12687,1,0,0:0:0:0:
363,176,12818,1,8,0:0:0:0:
200,367,12949,2,0,P|176:305|192:239,1,112.499997019768,10|2,0:0|0:0,0:0:0:0:
347,121,13209,1,2,0:0:0:0:
117,87,13340,2,0,L|-12:71,1,112.499997019768,8|0,0:0|0:0,0:0:0:0:
159,233,13601,5,2,0:0:0:0:
159,233,13666,1,0,0:0:0:0:
159,233,13731,1,0,0:0:0:0:
195,37,13862,1,8,0:0:0:0:
420,163,13992,2,0,L|410:272,1,56.2499985098839,10|0,0:0|0:0,0:0:0:0:
405,353,14122,5,2,0:0:0:0:
362,314,14188,1,0,0:0:0:0:
309,295,14253,1,10,0:0:0:0:
253,301,14318,1,0,0:0:0:0:
207,333,14383,1,10,0:0:0:0:
149,295,14449,1,0,0:0:0:0:
128,231,14514,1,8,0:0:0:0:
154,168,14579,1,2,0:0:0:0:
141,97,14644,6,0,L|291:52,1,135.000001573563,6|0,0:0|0:0,0:0:0:0:
505,270,14905,2,0,P|491:223|401:236,1,135.000001573563,8|2,0:0|0:0,0:0:0:0:
268,248,15166,1,2,0:0:0:0:
401,137,15296,1,8,0:0:0:0:
198,111,15427,1,2,0:0:0:0:
216,353,15557,1,8,0:0:0:0:
375,264,15688,5,2,0:0:0:0:
135,211,15818,1,2,0:0:0:0:
449,187,15949,1,8,0:0:0:0:
62,271,16079,1,10,0:0:0:0:
166,144,16209,1,0,0:0:0:0:
222,292,16340,1,0,0:0:0:0:
83,135,16470,5,10,0:0:0:0:
308,227,16601,1,8,0:0:0:0:
139,334,16731,5,2,0:0:0:0:
189,49,16862,1,2,0:0:0:0:
433,173,16992,5,8,0:0:0:0:
74,253,17122,1,8,0:0:0:0:
391,330,17253,5,2,0:0:0:0:
316,42,17383,1,8,0:0:0:0:
234,355,17514,1,2,0:0:0:0:
36,132,17644,1,8,0:0:0:0:
333,194,17775,5,2,0:0:0:0:
186,219,17905,5,2,0:0:0:0:
459,87,18036,5,8,0:0:0:0:
65,41,18166,5,2,0:0:0:0:
292,354,18296,6,0,L|256:354,1,35.9999990463257,4|0,0:0|0:0,0:0:0:0:
