osu file format v14

[General]
AudioFilename: Stanley Parable Adventure Line.mp3
AudioLeadIn: 0
PreviewTime: 16000
Countdown: 0
SampleSet: Soft
StackLeniency: 0.7
Mode: 0
LetterboxInBreaks: 1
EpilepsyWarning: 1
WidescreenStoryboard: 1

[Editor]
Bookmarks: 43200
DistanceSpacing: 1.3
BeatDivisor: 3
GridSize: 8
TimelineZoom: 1

[Metadata]
Title:Adventure Line
TitleUnicode:Adventure Line
Artist:Blake Robinson
ArtistUnicode:Blake Robinson
Creator:Doomsday is Bad
Version:Hard
Source:The Stanley Parable
Tags:Doomsday Kardet
BeatmapID:551212
BeatmapSetID:238325

[Difficulty]
HPDrainRate:5.5
CircleSize:4
OverallDifficulty:6
ApproachRate:8
SliderMultiplier:1.8
SliderTickRate:1

[Events]
//Background and Video events
0,0,"RyWW3Ri.jpg",0,0
//Break Periods
//Storyboard Layer 0 (Background)
//Storyboard Layer 1 (Fail)
//Storyboard Layer 2 (Pass)
//Storyboard Layer 3 (Foreground)
//Storyboard Sound Samples

[TimingPoints]
0,400,4,2,0,80,1,0
16000,-100,4,2,0,80,0,1
16100,-100,4,2,0,80,0,0

[Colours]
Combo1 : 255,128,255
Combo2 : 0,255,255
Combo3 : 0,255,64
Combo4 : 255,128,0

[HitObjects]
80,160,0,6,0,P|104:72|216:48,1,180,4|2,0:0|0:0,0:0:0:0:
328,88,666,1,0,0:0:0:0:
328,88,800,2,0,P|409:118|429:202,2,180,0|2|0,0:0|0:0|0:0,0:0:0:0:
144,240,2000,1,2,0:0:0:0:
376,200,2400,2,0,P|344:64|288:40,1,180
120,168,3200,6,0,P|144:104|248:72,1,180,6|0,0:0|0:0,0:0:0:0:
224,224,3866,1,0,0:0:0:0:
224,224,4000,2,0,P|360:184|424:144,1,180
104,96,4800,2,0,B|160:72|160:72|216:144|240:96|296:112|296:72,1,180,8|0,0:0|0:0,0:0:0:0:
408,288,5600,2,0,B|352:312|352:312|296:240|272:288|216:272|216:312,1,180,8|0,0:0|0:0,0:0:0:0:
32,104,6400,6,0,B|16:176|120:200|120:200|112:280,1,180,4|0,0:0|0:0,0:0:0:0:
248,320,7066,1,0,0:0:0:0:
248,320,7200,2,0,P|367:253|384:208,1,180
96,248,7866,1,0,0:0:0:0:
96,248,8000,2,0,P|104:336|168:344,1,120,2|0,0:0|0:0,0:0:0:0:
192,320,8400,2,0,P|204:263|165:221,1,120,2|0,0:0|0:0,0:0:0:0:
96,248,8800,2,0,P|104:336|168:344,1,120,2|0,0:0|0:0,0:0:0:0:
192,320,9200,2,0,P|204:263|165:221,1,120,2|0,0:0|0:0,0:0:0:0:
96,248,9600,6,0,P|24:208|56:96,1,180,4|0,0:0|0:0,0:0:0:0:
168,40,10266,1,0,0:0:0:0:
168,40,10400,2,0,L|328:40,1,120
360,56,10800,1,0,0:0:0:0:
288,272,11066,1,0,0:0:0:0:
288,272,11200,2,0,P|224:272|216:184,1,120,2|0,0:0|0:0,0:0:0:0:
200,152,11600,2,0,P|200:88|288:80,1,120,2|0,0:0|0:0,0:0:0:0:
320,64,12000,2,0,P|367:95|363:152,1,120,2|0,0:0|0:0,0:0:0:0:
368,232,12400,2,0,P|336:279|272:304,1,120
200,320,12800,6,0,P|96:320|40:240,1,180,4|0,0:0|0:0,0:0:0:0:
80,96,13466,1,0,0:0:0:0:
80,96,13600,2,0,P|184:104|200:96,1,120
248,40,14000,2,0,P|320:96|312:152,1,120
328,192,14400,2,0,P|272:241|224:224,1,120,2|0,0:0|0:0,0:0:0:0:
168,192,14800,2,0,P|96:136|80:72,1,120,8|0,0:0|0:0,0:0:0:0:
88,32,15200,1,10,0:0:0:0:
424,32,15600,1,8,0:0:0:0:
488,256,16000,5,6,0:0:0:0:
448,304,16133,1,2,0:0:0:0:
392,328,16266,1,2,0:0:0:0:
336,336,16400,2,0,L|176:336,1,120
136,328,16800,2,0,P|88:280|104:208,1,120
136,168,17200,2,0,L|272:168,1,120
336,168,17600,2,0,P|375:232|360:280,1,120,10|0,0:0|0:0,0:0:0:0:
312,328,18000,2,0,L|168:328,1,120,10|0,0:0|0:0,0:0:0:0:
112,320,18400,2,0,P|72:255|64:112,1,180,10|8,0:0|0:0,0:0:0:0:
272,64,19200,6,0,B|360:64|360:64|384:144|464:128,1,180,4|0,0:0|0:0,0:0:0:0:
424,288,19866,1,0,0:0:0:0:
424,288,20000,2,0,P|336:288|272:312,1,120
232,328,20400,1,0,0:0:0:0:
240,176,20666,1,0,0:0:0:0:
240,176,20800,2,0,P|240:96|264:56,1,120
336,64,21200,2,0,P|359:118|354:177,1,120
320,248,21600,2,0,L|240:352,1,120,2|0,0:0|0:0,0:0:0:0:
168,344,22000,2,0,L|94:248,1,120
72,176,22400,6,0,P|104:112|192:184,1,180,4|0,0:0|0:0,0:0:0:0:
288,264,23066,1,0,0:0:0:0:
288,264,23200,2,0,P|248:328|192:312,1,120
136,304,23600,2,0,P|155:250|212:242,1,120
288,264,24000,2,0,P|366:268|400:216,1,120,2|0,0:0|0:0,0:0:0:0:
400,168,24400,2,0,P|352:109|296:104,1,120,8|0,0:0|0:0,0:0:0:0:
232,104,24800,2,0,P|152:176|144:272,1,180,2|8,0:0|0:0,0:0:0:0:
288,348,25600,6,0,P|354:315|324:204,1,180,4|0,0:0|0:0,0:0:0:0:
184,200,26266,1,0,0:0:0:0:
184,200,26400,2,0,P|211:95|240:64,1,120
272,40,26800,2,0,P|336:32|408:48,1,120
448,88,27200,2,0,P|475:140|480:200,1,120,4|0,0:0|0:0,0:0:0:0:
456,272,27600,1,2,0:0:0:0:
327,192,28000,2,0,P|327:115|288:80,1,120,10|0,0:0|0:0,0:0:0:0:
211,86,28400,2,0,P|177:133|185:192,1,120,2|0,0:0|0:0,0:0:0:0:
208,264,28800,6,0,P|304:320|352:328,1,120,4|0,0:0|0:0,0:0:0:0:
368,328,29200,1,2,0:0:0:0:
424,328,29333,1,2,0:0:0:0:
472,296,29466,1,2,0:0:0:0:
504,248,29600,2,0,P|488:160|432:144,1,120,10|0,0:0|0:0,0:0:0:0:
392,128,30000,2,0,L|224:128,1,120
200,96,30400,1,10,0:0:0:0:
200,320,30800,2,0,P|104:264|88:304,2,180,0|8|8,0:0|0:0|0:0,0:0:0:0:
264,88,32000,6,0,B|328:152|328:152|368:136|416:160,1,180,4|0,0:0|0:0,0:0:0:0:
472,184,32533,1,2,0:0:0:0:
496,240,32666,1,2,0:0:0:0:
488,296,32800,2,0,P|408:344|344:344,1,120,10|0,0:0|0:0,0:0:0:0:
304,344,33200,2,0,P|246:329|199:292,1,120,10|0,0:0|0:0,0:0:0:0:
152,232,33600,1,10,0:0:0:0:
256,48,34000,1,2,0:0:0:0:
256,96,34133,1,2,0:0:0:0:
256,144,34266,1,2,0:0:0:0:
256,192,34400,2,0,P|256:272|200:328,1,120,10|0,0:0|0:0,0:0:0:0:
160,304,34800,2,0,P|133:251|139:192,1,120,8|0,0:0|0:0,0:0:0:0:
136,112,35200,6,0,P|183:49|304:32,1,180,4|0,0:0|0:0,0:0:0:0:
336,32,35733,1,0,0:0:0:0:
384,64,35866,1,0,0:0:0:0:
424,112,36000,2,0,P|424:192|368:240,1,120,10|0,0:0|0:0,0:0:0:0:
328,256,36400,2,0,P|248:256|208:192,1,120
176,168,36800,2,0,P|146:117|153:58,1,120,10|0,0:0|0:0,0:0:0:0:
232,32,37200,2,0,L|360:64,1,120,8|0,0:0|0:0,0:0:0:0:
416,96,37600,2,0,P|444:165|448:232,1,120,10|0,0:0|0:0,0:0:0:0:
440,288,38000,2,0,L|320:328,1,120,8|0,0:0|0:0,0:0:0:0:
248,320,38400,6,0,P|168:264|152:224,1,120,6|0,0:0|0:0,0:0:0:0:
128,192,38800,1,2,0:0:0:0:
120,136,38933,1,2,0:0:0:0:
152,88,39066,1,2,0:0:0:0:
200,56,39200,2,0,P|293:79|352:112,1,120,10|0,0:0|0:0,0:0:0:0:
384,128,39600,2,0,P|418:199|424:256,1,120
376,304,40000,1,12,0:0:0:0:
144,280,40400,1,2,0:0:0:0:
136,48,40800,1,0,0:0:0:0:
368,64,41200,1,2,0:0:0:0:
256,192,41600,12,4,43200,0:0:0:0:
