osu file format v14

[General]
AudioFilename: Stanley Parable Adventure Line.mp3
AudioLeadIn: 0
PreviewTime: 16000
Countdown: 0
SampleSet: Soft
StackLeniency: 0.7
Mode: 0
LetterboxInBreaks: 1
EpilepsyWarning: 1
WidescreenStoryboard: 1

[Editor]
DistanceSpacing: 1.2
BeatDivisor: 6
GridSize: 8
TimelineZoom: 1

[Metadata]
Title:Adventure Line
TitleUnicode:Adventure Line
Artist:Blake Robinson
ArtistUnicode:Blake Robinson
Creator:Doomsday is Bad
Version:Doomsday's Insane
Source:The Stanley Parable
Tags:Doomsday Kardet
BeatmapID:551211
BeatmapSetID:238325

[Difficulty]
HPDrainRate:7
CircleSize:4
OverallDifficulty:8
ApproachRate:9
SliderMultiplier:2.4
SliderTickRate:1

[Events]
//Background and Video events
0,0,"RyWW3Ri.jpg",0,0
//Break Periods
//Storyboard Layer 0 (Background)
//Storyboard Layer 1 (Fail)
//Storyboard Layer 2 (Pass)
//Storyboard Layer 3 (Foreground)
//Storyboard Sound Samples

[TimingPoints]
0,400,4,2,0,80,1,0
16000,-100,4,2,0,80,0,1
16100,-100,4,2,0,80,0,0

[Colours]
Combo1 : 255,128,255
Combo2 : 0,255,255
Combo3 : 0,255,64
Combo4 : 255,128,0

[HitObjects]
32,16,0,6,0,P|24:120|144:160,1,240,0|2,0:0|0:0,0:0:0:0:
480,80,800,2,0,P|488:184|368:224,1,240,0|2,0:0|0:0,0:0:0:0:
96,168,1466,5,2,0:0:0:0:
32,136,1600,2,0,P|24:240|144:280,1,240,0|2,0:0|0:0,0:0:0:0:
480,200,2400,2,0,P|488:304|368:344,1,240,0|2,0:0|0:0,0:0:0:0:
313,298,2933,1,0,0:0:0:0:
286,222,3066,1,0,0:0:0:0:
309,145,3200,6,0,L|149:76,1,160,4|0,0:0|0:0,0:0:0:0:
49,122,3600,2,0,L|195:185,1,160,2|0,0:0|0:0,0:0:0:0:
215,309,4000,2,0,P|312:360|455:312,1,240,0|2,0:0|0:0,0:0:0:0:
387,176,4666,5,0,0:0:0:0:
301,161,4800,2,0,P|204:212|61:164,1,240,0|2,0:0|0:0,0:0:0:0:
212,31,5600,2,0,P|309:82|452:34,1,240,0|2,0:0|0:0,0:0:0:0:
486,110,6133,1,0,0:0:0:0:
489,189,6266,1,0,0:0:0:0:
449,259,6400,6,0,L|266:317,1,160,4|0,0:0|0:0,0:0:0:0:
174,269,6800,2,0,L|381:206,1,160,2|0,0:0|0:0,0:0:0:0:
351,107,7200,2,0,B|286:115|224:106|212:50|143:46|74:59,1,240,0|2,0:0|0:0,0:0:0:0:
80,200,7866,5,0,0:0:0:0:
157,243,8000,2,0,L|330:203,1,160
347,124,8400,2,0,L|191:160,1,160,2|0,0:0|0:0,0:0:0:0:
157,243,8800,2,0,L|330:203,1,160
388,265,9200,2,0,L|232:301,1,160,2|0,0:0|0:0,0:0:0:0:
154,322,9600,5,4,0:0:0:0:
32,136,10000,1,2,0:0:0:0:
180,32,10266,1,0,0:0:0:0:
180,32,10400,2,0,P|263:71|448:32,1,240,0|2,0:0|0:0,0:0:0:0:
456,296,11066,5,0,0:0:0:0:
456,296,11200,2,0,P|384:335|277:302,1,160
195,272,11600,2,0,P|116:261|48:300,1,160,2|0,0:0|0:0,0:0:0:0:
32,192,12000,2,0,L|56:24,1,160
134,39,12400,1,2,0:0:0:0:
213,44,12533,1,0,0:0:0:0:
292,50,12666,1,0,0:0:0:0:
372,56,12800,1,4,0:0:0:0:
480,248,13200,5,2,0:0:0:0:
344,332,13466,1,0,0:0:0:0:
344,332,13600,2,0,B|291:347|225:348|233:289|163:286|86:307,1,240,0|2,0:0|0:0,0:0:0:0:
78,138,14266,5,0,0:0:0:0:
78,138,14400,2,0,L|197:32,1,160
315,32,14800,2,0,L|434:138,1,160,2|0,0:0|0:0,0:0:0:0:
434,246,15200,2,0,L|315:352,1,160
197,352,15600,2,0,L|78:246,1,160,2|2,0:0|0:0,0:0:0:0:
67,165,16000,5,4,0:0:0:0:
112,99,16133,1,0,0:0:0:0:
190,82,16266,1,0,0:0:0:0:
269,93,16400,2,0,P|370:101|441:72,1,160,2|0,0:0|0:0,0:0:0:0:
473,183,16800,2,0,P|417:253|401:340,1,160
292,350,17200,2,0,L|105:335,1,160,2|0,0:0|0:0,0:0:0:0:
55,255,17600,6,0,P|40:193|75:85,1,160,4|0,0:0|0:0,0:0:0:0:
326,32,18000,2,2,P|350:107|335:185,1,160,4|2,0:0|0:0,0:0:0:0:
178,185,18400,2,0,P|163:123|198:15,1,160,4|0,0:0|0:0,0:0:0:0:
327,32,18800,1,4,0:0:0:0:
460,85,18933,1,2,0:0:0:0:
410,220,19066,1,2,0:0:0:0:
275,168,19200,1,4,0:0:0:0:
39,183,19600,6,0,P|95:253|111:340,1,160,2|0,0:0|0:0,0:0:0:0:
220,350,20000,2,0,L|407:335,1,160
457,255,20400,2,0,P|472:193|437:85,1,160,2|0,0:0|0:0,0:0:0:0:
356,73,20800,2,0,P|264:101|184:83,1,160
98,80,21200,2,0,L|64:264,1,160,2|0,0:0|0:0,0:0:0:0:
156,311,21600,2,0,P|248:283|328:301,1,160
414,304,22000,2,0,L|448:120,1,160,2|0,0:0|0:0,0:0:0:0:
465,44,22400,5,4,0:0:0:0:
257,54,22666,1,0,0:0:0:0:
257,54,22800,2,0,P|205:77|90:81,1,160,2|0,0:0|0:0,0:0:0:0:
40,167,23200,2,0,P|92:190|207:194,1,160
258,278,23600,2,0,P|206:301|91:305,1,160,2|0,0:0|0:0,0:0:0:0:
43,222,24000,6,0,P|37:140|88:83,1,160,4|0,0:0|0:0,0:0:0:0:
184,213,24400,2,0,P|256:242|328:213,1,160,4|0,0:0|0:0,0:0:0:0:
426,84,24800,2,0,P|476:144|469:222,1,160,4|0,0:0|0:0,0:0:0:0:
377,310,25200,1,4,0:0:0:0:
217,336,25333,1,2,0:0:0:0:
184,172,25466,1,2,0:0:0:0:
354,145,25600,1,4,0:0:0:0:
255,54,25866,5,0,0:0:0:0:
255,54,26000,2,0,P|307:77|422:81,1,160,2|0,0:0|0:0,0:0:0:0:
472,167,26400,2,0,P|420:190|305:194,1,160
254,278,26800,2,0,P|306:301|421:305,1,160,2|0,0:0|0:0,0:0:0:0:
479,224,27200,6,0,P|443:133|451:38,1,160,4|0,0:0|0:0,0:0:0:0:
356,29,27600,1,2,0:0:0:0:
156,29,27866,1,0,0:0:0:0:
68,71,28000,2,0,P|65:151|33:224,1,160,4|0,0:0|0:0,0:0:0:0:
27,320,28400,1,2,0:0:0:0:
256,361,28666,5,0,0:0:0:0:
256,361,28800,2,2,P|214:37|186:345,1,960,4|0,0:0|0:0,0:0:0:0:
173,187,30666,5,0,0:0:0:0:
173,187,30800,1,2,0:0:0:0:
300,122,31066,1,2,0:0:0:0:
300,122,31200,1,0,0:0:0:0:
293,265,31466,1,0,0:0:0:0:
293,265,31600,1,2,0:0:0:0:
256,23,32000,6,2,P|297:346|325:38,1,960,4|0,0:0|0:0,0:0:0:0:
132,185,33866,5,0,0:0:0:0:
132,185,34000,1,2,0:0:0:0:
323,88,34266,1,2,0:0:0:0:
323,88,34400,1,0,0:0:0:0:
311,302,34666,1,0,0:0:0:0:
311,302,34800,1,2,0:0:0:0:
464,192,35066,5,0,0:0:0:0:
464,192,35200,2,0,P|320:99|408:214,2,480,4|0|2,0:0|0:0|0:0,0:0:0:0:
152,364,37066,5,0,0:0:0:0:
152,364,37200,2,0,L|319:313,1,160,2|2,0:0|0:0,0:0:0:0:
457,195,37600,2,0,L|329:76,1,160
158,16,38000,2,0,L|119:186,1,160,2|0,0:0|0:0,0:0:0:0:
48,192,38400,6,0,P|192:285|104:170,1,480,4|0,0:0|0:0,0:0:0:0:
304,112,39466,1,0,0:0:0:0:
304,112,39600,1,0,0:0:0:0:
464,192,39866,5,0,0:0:0:0:
464,192,40000,2,0,P|488:256|416:336,1,160,2|0,0:0|0:0,0:0:0:0:
317,356,40400,2,0,P|245:326|227:251,1,160,2|0,0:0|0:0,0:0:0:0:
284,132,40800,2,0,P|266:57|195:28,1,160,2|0,0:0|0:0,0:0:0:0:
70,56,41200,2,0,P|25:118|48:192,1,160,2|0,0:0|0:0,0:0:0:0:
256,192,41600,12,4,43200,0:0:0:0:
