osu file format v14

[General]
AudioFilename: audio.mp3
AudioLeadIn: 0
PreviewTime: 36969
Countdown: 0
SampleSet: None
StackLeniency: 0.2
Mode: 0
LetterboxInBreaks: 0
WidescreenStoryboard: 1

[Editor]
Bookmarks: 19269,38469,48069,57669,67269,86469,96069,105669,124869,134469,153669,163269,172869,182469
DistanceSpacing: 1
BeatDivisor: 4
GridSize: 16
TimelineZoom: 1

[Metadata]
Title:Slem Igen (feat. Ceci Luca)
TitleUnicode:Slem Igen (feat. Ceci Luca)
Artist:Blak & Jimilian
ArtistUnicode:Blak & Jimilian
Creator:Aro
Version:Normal
Source:
Tags:
BeatmapID:1866632
BeatmapSetID:893099

[Difficulty]
HPDrainRate:3
CircleSize:3
OverallDifficulty:3
ApproachRate:4
SliderMultiplier:1.69999990463257
SliderTickRate:1

[Events]
//Background and Video events
0,0,"bgi.jpg",0,0
//Break Periods
2,38469,46750
2,153069,157149
//Storyboard Layer 0 (Background)
//Storyboard Layer 1 (Fail)
//Storyboard Layer 2 (Pass)
//Storyboard Layer 3 (Foreground)
//Storyboard Sound Samples

[TimingPoints]
2469,600,4,2,0,50,1,0
67269,-100,4,2,0,50,0,1
85569,-100,4,2,0,50,0,0
134469,-100,4,2,0,50,0,1
152769,-100,4,2,0,50,0,0
163269,-100,4,2,0,50,0,1
172869,-100,4,2,0,50,0,0

[Colours]
Combo1 : 254,101,211
Combo2 : 34,104,104
Combo3 : 100,170,255

[HitObjects]
33,67,19269,6,0,L|156:33,2,127.499992847443
11,149,20469,1,0,0:0:0:0:
33,231,20769,2,0,L|54:313,2,84.9999952316284
117,231,21669,6,0,L|150:354,2,127.499992847443
237,351,23169,5,0,0:0:0:0:
212,266,23469,2,0,P|253:263|291:283,1,84.9999952316285
346,213,24070,2,0,P|382:266|389:328,2,127.499992847443
269,185,25269,1,0,0:0:0:0:
335,131,25569,2,0,L|356:49,2,84.9999952316284
419,131,26469,6,0,L|452:8,2,127.499992847443
479,191,27669,1,0,0:0:0:0:
479,276,27969,1,0,0:0:0:0:
418,336,28269,2,0,L|336:313,1,84.9999952316285
275,253,28869,2,0,L|241:130,2,127.499992847443
214,313,30069,6,0,L|132:290,1,84.9999952316285
131,205,30669,2,0,L|48:183,1,84.9999952316285
48,98,31269,6,0,L|171:131,2,127.499992847443
48,13,32469,1,0,0:0:0:0:
130,34,32769,1,0,0:0:0:0:
212,55,33069,2,0,L|295:33,1,84.9999952316285
354,93,33669,6,0,L|376:175,1,84.9999952316285
462,174,34269,2,0,L|484:256,1,84.9999952316285
399,255,34869,2,0,L|421:337,1,84.9999952316285
336,336,35469,1,0,0:0:0:0:
251,336,35769,1,0,0:0:0:0:
165,335,36070,6,0,P|186:276|241:247,2,127.499992847443
491,8,48070,6,0,L|512:90,1,84.9999952316285
436,128,48669,2,0,L|414:45,1,84.9999952316285
328,45,49269,6,0,L|306:127,1,84.9999952316285
229,90,49869,2,0,L|250:7,1,84.9999952316285
164,7,50469,1,0,0:0:0:0:
143,89,50769,1,0,0:0:0:0:
82,29,51069,2,0,L|-1:8,1,84.9999952316285
0,93,51669,5,0,0:0:0:0:
0,175,51969,1,0,0:0:0:0:
60,235,52269,2,0,L|39:318,1,84.9999952316285
99,377,52869,5,0,0:0:0:0:
159,316,53169,2,0,L|180:233,2,84.9999952316285
219,376,54069,1,0,0:0:0:0:
279,315,54369,2,0,L|300:232,2,84.9999952316285
339,375,55269,6,0,L|461:341,2,127.499992847443
339,290,56469,2,0,L|421:268,1,84.9999952316285
240,87,57669,6,0,L|330:177,2,127.499992847443
75,131,59169,1,0,0:0:0:0:
120,295,59769,1,0,0:0:0:0:
57,234,60069,6,0,P|114:208|174:227,2,127.499992847443
256,192,61269,12,0,64869,0:0:0:0:
369,130,66369,5,0,0:0:0:0:
390,49,66669,1,0,0:0:0:0:
451,108,66969,1,0,0:0:0:0:
430,189,67269,5,0,0:0:0:0:
491,248,67569,2,0,L|501:289,2,42.4999976158143
409,272,68169,1,0,0:0:0:0:
347,331,68469,2,0,L|264:309,1,84.9999952316285
204,249,69069,2,0,L|121:271,1,84.9999952316285
61,332,69669,5,0,0:0:0:0:
40,250,69969,2,0,L|29:208,2,42.4999976158143
122,271,70569,2,0,L|143:188,1,84.9999952316285
74,136,71169,2,0,L|95:53,1,84.9999952316285
165,5,71769,1,0,0:0:0:0:
174,89,72069,5,0,0:0:0:0:
241,37,72369,2,0,L|282:26,2,42.4999976158143
252,121,72969,1,0,0:0:0:0:
330,153,73269,2,0,L|411:127,2,84.9999952316285
279,220,74169,1,0,0:0:0:0:
216,278,74469,6,0,P|272:306|332:288,2,127.499992847443
75,372,75969,5,0,0:0:0:0:
75,287,76269,1,0,0:0:0:0:
2,329,76569,1,0,0:0:0:0:
0,244,76869,5,0,0:0:0:0:
0,124,77319,5,0,0:0:0:0:
102,181,77769,5,0,0:0:0:0:
80,98,78069,2,0,P|123:98|159:119,1,84.9999952316285
218,57,78669,2,0,P|261:56|297:35,1,84.9999952316285
357,96,79269,5,0,0:0:0:0:
417,35,79569,2,0,L|458:24,2,42.4999976158143
438,117,80169,2,0,L|481:281,1,169.999990463257
396,281,81069,2,0,L|417:363,1,84.9999952316285
332,363,81669,5,0,0:0:0:0:
271,302,81969,2,0,L|229:291,2,42.4999976158143
320,233,82569,1,0,0:0:0:0:
259,172,82869,2,0,L|176:150,2,84.9999952316285
308,103,83769,1,0,0:0:0:0:
369,43,84069,6,0,P|311:18|252:38,2,127.499992847443
489,163,85569,1,0,0:0:0:0:
368,283,86169,1,0,0:0:0:0:
427,221,86469,6,0,P|453:278|433:337,2,127.499992847443
346,197,87669,1,0,0:0:0:0:
285,257,87969,2,0,L|277:341,1,84.9999952316285
192,341,88569,1,0,0:0:0:0:
107,341,88869,6,0,P|127:282|183:253,2,127.499992847443
22,341,90069,1,0,0:0:0:0:
5,257,90369,2,0,L|12:172,1,84.9999952316285
72,112,90969,1,0,0:0:0:0:
155,112,91269,6,0,P|133:53|77:27,2,127.499992847443
216,172,92469,1,0,0:0:0:0:
276,111,92769,1,0,0:0:0:0:
230,37,93069,2,0,P|313:24|395:44,1,169.999990463257
454,106,93969,5,0,0:0:0:0:
393,166,94269,2,0,L|414:248,1,84.9999952316285
353,308,94869,1,0,0:0:0:0:
269,286,95169,2,0,L|247:203,1,84.9999952316285
126,324,96069,6,0,L|158:200,2,127.499992847443
54,277,97269,2,0,L|29:358,2,84.9999952316285
78,195,98169,1,0,0:0:0:0:
17,134,98469,5,0,0:0:0:0:
100,111,98769,1,0,0:0:0:0:
161,172,99069,2,0,L|242:196,1,84.9999952316285
325,175,99669,2,0,B|367:169|367:169|403:191,1,84.9999952316285
386,274,100269,2,0,B|343:279|343:279|307:257,1,84.9999952316285
242,196,100870,6,0,L|119:159,2,127.499992847443
242,110,102069,2,0,L|160:85,2,84.9999952316285
302,49,102969,2,0,L|466:97,1,169.999990463257
465,182,103869,1,0,0:0:0:0:
465,267,104169,1,0,0:0:0:0:
391,223,104469,2,0,P|378:264|389:304,2,84.9999952316285
472,373,105669,6,0,B|437:352|437:352|308:364,1,169.999990463257
188,244,106870,2,0,L|209:326,1,84.9999952316285
124,326,107469,2,0,L|101:244,1,84.9999952316285
30,198,108069,2,0,B|13:235|13:235|43:360,1,169.999990463257
209,326,109269,2,0,L|219:284,2,42.4999976158143
294,325,109869,2,0,L|316:243,1,84.9999952316285
388,195,110469,6,0,B|404:233|404:233|374:358,1,169.999990463257
459,364,111369,2,0,L|481:282,1,84.9999952316285
481,196,111969,2,0,L|448:117,2,84.9999952316285
408,240,112869,5,0,0:0:0:0:
377,160,113169,2,0,L|344:81,1,84.9999952316285
276,29,113769,2,0,B|245:91|276:153|276:153|306:215|276:274,1,254.999985694886
121,345,115270,6,0,B|150:317|150:317|279:307,1,169.999990463257
125,236,116469,6,0,L|209:228,1,84.9999952316285
189,145,117069,2,0,L|104:152,1,84.9999952316285
36,99,117669,6,0,B|65:71|65:71|194:61,1,169.999990463257
363,44,118869,2,0,L|320:47,2,42.4999976158143
351,128,119469,2,0,L|266:134,1,84.9999952316285
212,200,120069,6,0,B|245:223|245:223|374:211,1,169.999990463257
119,212,121569,1,0,0:0:0:0:
58,273,121869,1,0,0:0:0:0:
118,334,122169,6,0,B|180:365|242:334|242:334|304:304|363:333,1,254.999985694886
325,207,124869,6,0,L|336:79,2,127.499992847443
490,164,126369,1,0,0:0:0:0:
445,0,126969,1,0,0:0:0:0:
507,60,127270,6,0,P|450:86|390:67,2,127.499992847443
256,192,128469,12,0,132069,0:0:0:0:
280,234,133569,5,0,0:0:0:0:
280,149,133869,1,0,0:0:0:0:
206,192,134169,1,0,0:0:0:0:
206,277,134469,5,0,0:0:0:0:
131,319,134769,2,0,L|89:307,2,42.4999976158143
191,379,135369,1,0,0:0:0:0:
266,337,135669,2,0,L|348:359,1,84.9999952316285
408,298,136269,2,0,L|490:276,1,84.9999952316285
490,190,136869,5,0,0:0:0:0:
429,129,137169,2,0,L|440:87,2,42.4999976158143
344,128,137769,2,0,L|261:150,1,84.9999952316285
201,90,138369,2,0,L|118:67,1,84.9999952316285
58,7,138969,1,0,0:0:0:0:
36,90,139269,5,0,0:0:0:0:
96,151,139569,2,0,L|137:162,2,42.4999976158143
14,173,140169,1,0,0:0:0:0:
74,234,140469,2,0,L|155:255,2,84.9999952316285
74,319,141369,1,0,0:0:0:0:
155,339,141669,6,0,P|215:321|241:264,2,127.499992847443
323,307,143169,5,0,0:0:0:0:
323,222,143469,1,0,0:0:0:0:
396,264,143769,1,0,0:0:0:0:
398,179,144069,5,0,0:0:0:0:
398,59,144519,5,0,0:0:0:0:
296,116,144969,5,0,0:0:0:0:
310,32,145269,2,0,P|259:38|225:73,1,84.9999952316285
173,0,145869,2,0,P|125:20|78:6,1,84.9999952316285
33,75,146469,5,0,0:0:0:0:
93,135,146769,2,0,L|82:176,2,42.4999976158143
175,114,147369,2,0,L|218:278,1,169.999990463257
278,338,148269,2,0,L|361:359,1,84.9999952316285
420,298,148869,5,0,0:0:0:0:
359,236,149169,2,0,L|317:226,2,42.4999976158143
419,176,149769,1,0,0:0:0:0:
358,114,150069,2,0,L|380:31,2,84.9999952316285
275,138,150969,1,0,0:0:0:0:
207,189,151269,6,0,P|189:129|217:73,2,127.499992847443
255,352,152769,5,0,0:0:0:0:
256,192,158469,12,0,161769,0:0:0:0:
360,253,163269,6,0,L|388:360,2,84.9999952316285
299,192,164169,1,0,0:0:0:0:
322,109,164469,2,0,L|293:1,2,84.9999952316285
382,169,165369,1,0,0:0:0:0:
360,253,165669,5,0,0:0:0:0:
326,378,166119,5,0,0:0:0:0:
450,344,166569,5,0,0:0:0:0:
346,209,167169,5,0,0:0:0:0:
325,126,167469,2,0,L|296:18,1,84.9999952316285
217,43,168069,6,0,L|108:14,2,84.9999952316285
217,127,168969,1,0,0:0:0:0:
176,200,169269,2,0,L|68:170,2,84.9999952316285
176,284,170169,1,0,0:0:0:0:
249,242,170469,5,0,0:0:0:0:
374,208,170919,5,0,0:0:0:0:
340,332,171369,5,0,0:0:0:0:
296,167,171969,5,0,0:0:0:0:
57,76,172869,6,0,L|103:249,2,169.999990463257
177,196,174669,1,0,0:0:0:0:
177,366,175269,6,0,L|200:277,1,84.9999952316285
113,283,175869,2,0,L|89:194,1,84.9999952316285
177,196,176469,2,0,L|200:107,1,84.9999952316285
113,113,177069,2,0,L|89:24,1,84.9999952316285
176,30,177669,6,0,B|217:9|259:30|259:30|300:50|340:30,2,169.999990463257
296,150,179469,1,0,0:0:0:0:
256,192,180069,12,0,182469,0:0:0:0:
