osu file format v14

[General]
AudioFilename: audio.mp3
AudioLeadIn: 0
PreviewTime: 87909
Countdown: 0
SampleSet: Normal
StackLeniency: 0.7
Mode: 1
LetterboxInBreaks: 0
WidescreenStoryboard: 1

[Editor]
Bookmarks: 15250,88022,117113,160750,189841
DistanceSpacing: 1
BeatDivisor: 4
GridSize: 32
TimelineZoom: 0.3999996

[Metadata]
Title:Lovenote
TitleUnicode:Lovenote
Artist:Bladee
ArtistUnicode:Bladee
Creator:vrnl
Version:Kantan
Source:
Tags:eversince cloud rap trap english hip hop hip-hop horiiizon drain gang
BeatmapID:2721297
BeatmapSetID:1312403

[Difficulty]
HPDrainRate:8
CircleSize:5
OverallDifficulty:2
ApproachRate:5
SliderMultiplier:1.4
SliderTickRate:1

[Events]
//Background and Video events
0,0,"drain.jpg",0,-80
//Break Periods
2,58931,69841
2,113468,115286
2,131650,144996
//Storyboard Layer 0 (Background)
//Storyboard Layer 1 (Fail)
//Storyboard Layer 2 (Pass)
//Storyboard Layer 3 (Foreground)
//Storyboard Layer 4 (Overlay)
//Storyboard Sound Samples

[TimingPoints]
29832,909.090909090909,4,1,0,30,1,0
29832,-50,4,1,0,90,0,0
58809,-50,4,1,0,30,0,0
62559,-50,4,1,0,30,0,0
73241,-50,4,1,0,50,0,0
87786,-50,4,1,0,90,0,0
102502,-50,4,1,0,50,0,0
103184,-50,4,1,0,50,0,0
116991,-50,4,1,0,90,0,0
131593,-50,4,1,0,30,0,0
135286,-50,4,1,0,30,0,0
146082,-50,4,1,0,50,0,0
160627,-50,4,1,0,90,0,0
186082,-50,4,1,0,30,0,0

[HitObjects]
170,154,29833,5,4,0:0:0:0:
170,154,30742,1,2,0:0:0:0:
284,113,31651,1,0,0:0:0:0:
284,113,32104,1,0,0:0:0:0:
284,113,32560,1,2,0:0:0:0:
207,144,33469,1,0,0:0:0:0:
207,144,34378,1,2,0:0:0:0:
203,165,35287,1,0,0:0:0:0:
187,104,35741,1,0,0:0:0:0:
203,165,36196,1,0,0:0:0:0:
203,165,37105,1,0,0:0:0:0:
203,165,38014,1,2,0:0:0:0:
203,165,39378,1,0,0:0:0:0:
203,165,39833,1,2,0:0:0:0:
137,142,40742,1,0,0:0:0:0:
145,163,41195,1,0,0:0:0:0:
158,128,41651,1,2,0:0:0:0:
145,163,42560,1,0,0:0:0:0:
145,163,44378,1,2,0:0:0:0:
145,163,45286,1,0,0:0:0:0:
145,163,46196,1,2,0:0:0:0:
145,163,47105,1,2,0:0:0:0:
216,108,47559,1,2,0:0:0:0:
145,163,48014,1,0,0:0:0:0:
207,144,48923,1,2,0:0:0:0:
203,165,49832,1,0,0:0:0:0:
203,165,50741,1,2,0:0:0:0:
203,165,51651,1,0,0:0:0:0:
164,88,52105,1,0,0:0:0:0:
203,165,52559,1,2,0:0:0:0:
203,165,53468,1,2,0:0:0:0:
203,165,54378,1,2,0:0:0:0:
234,119,54833,1,2,0:0:0:0:
137,142,55287,1,0,0:0:0:0:
158,128,56196,1,2,0:0:0:0:
207,107,57105,1,0,0:0:0:0:
145,163,58014,1,2,0:0:0:0:
197,148,73469,5,2,0:0:0:0:
197,148,74833,1,2,0:0:0:0:
164,163,77105,1,0,0:0:0:0:
164,163,78469,1,2,0:0:0:0:
232,111,80742,1,2,0:0:0:0:
232,111,82105,1,2,0:0:0:0:
232,111,84378,1,0,0:0:0:0:
232,111,85742,1,2,0:0:0:0:
170,154,88014,1,4,0:0:0:0:
170,154,88923,1,2,0:0:0:0:
284,113,89832,1,0,0:0:0:0:
284,113,90286,1,0,0:0:0:0:
284,113,90741,1,2,0:0:0:0:
207,144,91195,1,2,0:0:0:0:
207,144,91650,1,0,0:0:0:0:
207,144,92559,1,2,0:0:0:0:
203,165,93468,1,0,0:0:0:0:
203,165,93923,1,0,0:0:0:0:
203,165,94377,1,2,0:0:0:0:
203,165,95286,1,0,0:0:0:0:
203,165,96195,1,2,0:0:0:0:
203,165,97104,1,2,0:0:0:0:
203,165,97559,1,0,0:0:0:0:
203,165,98014,1,2,0:0:0:0:
132,93,98468,1,2,0:0:0:0:
137,142,98923,1,0,0:0:0:0:
158,128,99832,1,2,0:0:0:0:
145,163,100741,1,0,0:0:0:0:
185,123,101196,1,0,0:0:0:0:
145,163,101650,1,2,0:0:0:0:
145,163,102559,1,0,0:0:0:0:
145,163,104377,1,0,0:0:0:0:
145,163,105742,1,0,0:0:0:0:
145,163,106195,1,2,0:0:0:0:
203,165,108013,1,0,0:0:0:0:
203,165,108922,1,0,0:0:0:0:
203,165,109831,1,0,0:0:0:0:
172,105,112105,1,0,0:0:0:0:
203,165,112560,1,2,0:0:0:0:
170,154,117104,5,4,0:0:0:0:
170,154,118013,1,2,0:0:0:0:
284,113,118922,1,2,0:0:0:0:
284,113,119377,1,0,0:0:0:0:
284,113,119831,1,2,0:0:0:0:
207,144,120740,1,0,0:0:0:0:
207,144,121649,1,2,0:0:0:0:
203,165,122558,1,0,0:0:0:0:
187,104,123012,1,0,0:0:0:0:
203,165,123467,1,2,0:0:0:0:
203,165,124376,1,0,0:0:0:0:
203,165,125285,1,2,0:0:0:0:
203,165,127104,1,2,0:0:0:0:
137,142,128013,1,0,0:0:0:0:
145,163,128468,1,2,0:0:0:0:
158,128,128922,1,0,0:0:0:0:
145,163,129831,1,0,0:0:0:0:
191,123,130741,1,2,0:0:0:0:
211,109,146196,5,2,0:0:0:0:
211,109,147560,1,2,0:0:0:0:
164,192,149833,1,0,0:0:0:0:
164,192,151196,1,2,0:0:0:0:
164,192,153469,1,2,0:0:0:0:
164,192,154833,1,2,0:0:0:0:
164,192,157105,1,0,0:0:0:0:
164,192,158469,1,2,0:0:0:0:
170,154,160741,5,4,0:0:0:0:
170,154,161650,1,2,0:0:0:0:
284,113,162559,1,0,0:0:0:0:
284,113,163012,1,0,0:0:0:0:
284,113,163468,1,2,0:0:0:0:
231,180,163922,1,2,0:0:0:0:
207,144,164377,1,0,0:0:0:0:
207,144,165286,1,2,0:0:0:0:
203,165,166195,1,0,0:0:0:0:
187,104,166649,1,0,0:0:0:0:
203,165,167104,1,0,0:0:0:0:
203,165,168013,1,0,0:0:0:0:
203,165,168922,1,2,0:0:0:0:
203,165,170286,1,0,0:0:0:0:
203,165,170741,1,2,0:0:0:0:
137,142,171650,1,0,0:0:0:0:
145,163,172103,1,0,0:0:0:0:
158,128,172559,1,2,0:0:0:0:
143,93,173013,1,0,0:0:0:0:
145,163,173468,1,0,0:0:0:0:
170,154,175286,5,0,0:0:0:0:
170,154,176195,1,2,0:0:0:0:
284,113,177104,1,0,0:0:0:0:
284,113,177559,1,0,0:0:0:0:
284,113,178013,1,2,0:0:0:0:
146,170,178468,1,2,0:0:0:0:
207,144,178922,1,0,0:0:0:0:
207,144,179831,1,2,0:0:0:0:
203,165,180740,1,0,0:0:0:0:
187,104,181194,1,0,0:0:0:0:
203,165,181649,1,0,0:0:0:0:
203,165,182558,1,0,0:0:0:0:
203,165,183467,1,2,0:0:0:0:
203,165,184831,1,0,0:0:0:0:
203,165,185286,1,2,0:0:0:0:
