osu file format v14

[General]
AudioFilename: audio.mp3
AudioLeadIn: 0
PreviewTime: 78177
Countdown: 0
SampleSet: Soft
StackLeniency: 0.6
Mode: 0
LetterboxInBreaks: 0
WidescreenStoryboard: 1

[Editor]
Bookmarks: 13312,24664,39258,48988,52231,71691,78177,91150,104123
DistanceSpacing: 1
BeatDivisor: 4
GridSize: 4
TimelineZoom: 1

[Metadata]
Title:Hero of My Story 3style3
TitleUnicode:Hero of My Story 3style3
Artist:bladee
ArtistUnicode:bladee
Creator:Vanchanical
Version:Hard
Source:
Tags:english rap trap hip hop hip-hop cloud cloudrap drain gang hyperpop 333
BeatmapID:2995326
BeatmapSetID:1457453

[Difficulty]
HPDrainRate:4
CircleSize:4
OverallDifficulty:6
ApproachRate:8
SliderMultiplier:1.8
SliderTickRate:1

[Events]
//Background and Video events
0,0,"bg.jpg",0,0
//Break Periods
2,26485,32022
2,37836,38508
2,75134,77427
//Storyboard Layer 0 (Background)
//Storyboard Layer 1 (Fail)
//Storyboard Layer 2 (Pass)
//Storyboard Layer 3 (Foreground)
//Storyboard Layer 4 (Overlay)
//Storyboard Sound Samples

[TimingPoints]
340,405.405405405405,4,2,0,100,1,0
13312,-100,4,2,0,100,0,0
24664,-125,4,2,2,100,0,0
39258,-100,4,2,0,100,0,0
48988,-125,4,2,0,100,0,0
52231,-90.9090909090909,4,2,0,100,0,1
57096,-90.9090909090909,4,2,0,100,0,0
57907,-90.9090909090909,4,2,0,100,0,1
58110,-90.9090909090909,4,2,0,100,0,0
58312,-90.9090909090909,4,2,0,100,0,1
58515,-90.9090909090909,4,2,0,100,0,0
58718,-90.9090909090909,4,2,0,100,0,1
64394,-90.9090909090909,4,2,0,100,0,0
65204,-90.9090909090909,4,2,0,100,0,1
65306,-90.9090909090909,4,2,0,100,0,0
65407,-90.9090909090909,4,2,0,100,0,1
65508,-90.9090909090909,4,2,0,100,0,0
65610,-90.9090909090909,4,2,0,100,0,1
71691,-125,4,2,0,100,0,0
78177,-100,4,2,0,100,0,0
104123,-500,4,2,0,90,0,0
104934,-500,4,2,0,20,0,0
105339,-500,4,2,0,80,0,0
105745,-500,4,2,0,5,0,0
106150,-500,4,2,0,70,0,0
106556,-500,4,2,0,5,0,0
106961,-500,4,2,0,60,0,0
107367,-500,4,2,0,5,0,0
107772,-500,4,2,0,50,0,0
108177,-500,4,2,0,5,0,0
108583,-500,4,2,0,40,0,0
108988,-500,4,2,0,5,0,0
109394,-500,4,2,0,30,0,0
109799,-500,4,2,0,5,0,0
110204,-500,4,2,0,20,0,0
110610,-500,4,2,0,5,0,0

[Colours]
Combo1 : 255,128,128
Combo2 : 0,128,255
Combo3 : 225,12,0
Combo4 : 17,200,215

[HitObjects]
424,164,13312,6,0,L|416:263,1,90,2|0,2:3|0:0,0:0:0:0:
440,341,13718,1,4,2:3:0:0:
440,341,13819,1,4,2:3:0:0:
440,341,13921,1,4,2:3:0:0:
356,373,14123,2,0,P|308:351|248:356,1,90,8|4,0:0|2:3,0:0:0:0:
182,367,14529,5,2,2:0:0:0:
108,315,14731,1,2,2:0:0:0:
33,263,14934,2,0,L|45:159,1,90,2|0,2:0|0:0,0:0:0:0:
43,83,15339,2,0,L|-6:72,2,45,10|8|6,2:3|2:3|2:3,0:0:0:0:
117,31,15745,2,0,L|236:20,1,90,10|0,0:0|0:0,0:0:0:0:
292,51,16150,6,0,P|345:57|372:105,1,90,2|0,2:3|0:0,0:0:0:0:
444,129,16556,2,0,P|465:177|437:225,1,90,2|0,2:3|0:0,0:0:0:0:
452,299,16961,2,0,P|420:341|365:341,1,90,2|0,2:3|0:0,0:0:0:0:
328,278,17367,5,10,0:0:0:0:
246,314,17569,1,10,0:0:0:0:
167,357,17772,2,0,P|117:340|75:338,1,90,2|2,2:0|2:0,0:0:0:0:
14,275,18177,2,0,P|51:213|21:92,1,180,6|2,2:3|2:0,0:0:0:0:
101,49,18785,5,2,0:0:0:0:
101,49,18887,1,2,0:0:0:0:
101,49,18988,2,0,P|161:41|195:31,1,90,10|6,0:0|2:3,0:0:0:0:
261,87,19394,2,0,P|218:118|218:173,1,90,4|8,2:3|0:0,0:0:0:0:
157,224,19799,6,0,P|163:277|211:304,1,90,2|0,2:3|0:0,0:0:0:0:
268,341,20204,2,0,L|255:386,2,45,8|8|8,2:3|2:3|2:3,0:0:0:0:
357,330,20610,2,0,P|389:281|417:259,1,90,8|6,0:0|2:3,0:0:0:0:
488,212,21015,5,2,2:0:0:0:
453,128,21218,1,2,2:0:0:0:
415,45,21421,2,0,L|303:58,1,90,2|2,2:0|2:0,0:0:0:0:
244,15,21826,1,2,2:0:0:0:
172,65,22029,1,6,2:3:0:0:
172,65,22130,1,0,0:0:0:0:
172,65,22231,2,0,P|152:128|139:164,1,90,10|0,0:0|0:0,0:0:0:0:
64,193,22637,6,0,P|70:246|118:273,1,90,2|8,2:3|0:0,0:0:0:0:
142,345,23043,2,0,P|190:366|238:338,1,90,2|0,2:3|0:0,0:0:0:0:
312,353,23448,1,4,2:3:0:0:
312,353,23650,1,4,2:3:0:0:
362,278,23853,2,0,P|350:213|342:168,1,90,10|6,0:0|2:3,0:0:0:0:
269,141,24258,1,6,2:3:0:0:
269,141,24461,1,2,2:0:0:0:
314,64,24664,6,0,P|416:19|487:152,2,288,2|2|2,2:0|0:0|0:0,0:0:0:0:
0,0,32772,6,0,L|9:99,1,72,2|0,2:0|0:0,0:0:0:0:
76,122,33177,2,0,L|68:270,1,144,2|0,2:0|0:0,0:0:0:0:
105,343,33785,2,0,P|161:364|231:305,1,144,2|0,2:0|0:0,0:0:0:0:
309,294,34394,6,0,L|265:78,1,216,2|0,2:0|0:0,0:0:0:0:
314,11,35204,2,0,P|422:6|455:116,1,216,2|0,2:0|0:0,0:0:0:0:
384,132,36015,6,0,L|398:220,1,72,2|0,2:0|0:0,0:0:0:0:
466,252,36421,2,0,P|452:332|311:341,1,216,2|0,2:0|0:0,0:0:0:0:
274,296,37231,2,0,L|125:322,1,144,2|0,2:0|0:0,0:0:0:0:
132,320,39258,6,0,P|89:288|89:233,1,90,2|0,2:3|0:0,0:0:0:0:
37,176,39664,2,0,P|42:123|91:96,1,90,2|0,2:3|0:0,0:0:0:0:
114,24,40069,1,10,0:0:0:0:
114,24,40271,1,10,0:0:0:0:
200,50,40475,6,0,P|256:55|292:63,1,90,2|2,2:0|2:0,0:0:0:0:
373,31,40880,1,2,2:0:0:0:
407,114,41083,1,2,2:0:0:0:
443,196,41285,2,0,L|499:190,2,45,10|8|6,2:3|2:3|2:3,0:0:0:0:
403,277,41691,2,0,P|335:267|299:262,1,90,10|4,0:0|2:3,0:0:0:0:
308,174,42096,2,0,P|276:131|221:131,1,90,2|8,2:3|0:0,0:0:0:0:
163,80,42502,2,0,P|110:85|83:134,1,90,2|0,2:3|0:0,0:0:0:0:
10,159,42907,2,0,P|-10:207|16:254,1,90,2|0,2:3|0:0,0:0:0:0:
32,325,43312,6,0,P|74:298|121:299,1,90,10|10,0:0|0:0,0:0:0:0:
174,230,43718,2,0,P|138:203|93:199,1,90,10|10,0:0|0:0,0:0:0:0:
220,142,44123,2,0,P|251:173|262:217,1,90,10|10,0:0|0:0,0:0:0:0:
336,263,44529,2,0,P|356:223|353:179,1,90,10|6,0:0|2:3,0:0:0:0:
414,112,44934,1,10,0:0:0:0:
414,112,45137,1,6,2:3:0:0:
362,38,45339,2,0,P|310:36|264:32,1,90,4|8,2:3|0:0,0:0:0:0:
184,11,45745,6,0,P|122:19|101:61,1,90,2|0,2:3|0:0,0:0:0:0:
46,104,46150,2,0,L|0:95,2,45,8|8|8,2:3|2:3|2:3,0:0:0:0:
79,188,46556,2,0,P|129:182|179:178,1,90,10|6,0:0|2:3,0:0:0:0:
249,139,46961,5,2,2:0:0:0:
294,217,47164,1,2,2:0:0:0:
338,295,47367,2,0,P|388:283|428:272,1,90,2|2,2:0|2:0,0:0:0:0:
498,219,47772,5,2,2:0:0:0:
498,219,47975,1,6,2:3:0:0:
461,137,48177,2,0,P|411:125|371:114,1,90,10|2,0:0|2:0,0:0:0:0:
314,46,48583,2,0,P|261:51|234:100,1,90,2|0,2:3|0:0,0:0:0:0:
192,150,48988,6,0,P|135:143|85:59,2,144
307,279,50204,1,2,2:0:0:0:
460,199,50610,2,0,L|480:351,2,144,2|2|2,2:0|2:0|2:0,0:0:0:0:
460,199,52231,6,0,P|400:184|354:172,1,99.0000030212403,2|0,2:3|0:0,0:0:0:0:
319,97,52637,1,4,2:3:0:0:
319,97,52738,1,4,2:3:0:0:
319,97,52839,1,4,2:3:0:0:
235,42,53042,2,0,P|183:57|132:76,1,99.0000030212403,10|2,0:0|2:0,0:0:0:0:
42,91,53448,5,2,2:0:0:0:
65,186,53650,1,2,2:0:0:0:
88,282,53853,2,0,L|198:289,1,99.0000030212403,2|2,2:0|2:0,0:0:0:0:
275,332,54258,2,0,L|267:385,2,49.5000015106202,10|8|6,2:3|2:3|2:3,0:0:0:0:
354,271,54664,2,0,L|346:162,1,99.0000030212403,10|0,0:0|0:0,0:0:0:0:
293,88,55069,2,0,P|243:66|194:94,1,99.0000030212403,2|8,2:3|0:0,0:0:0:0:
120,79,55475,6,0,P|76:109|77:166,1,99.0000030212403,2|0,2:3|0:0,0:0:0:0:
27,224,55880,1,4,2:3:0:0:
27,224,56083,1,4,2:3:0:0:
85,303,56285,2,0,P|132:309|191:321,1,99.0000030212403,10|2,0:0|2:0,0:0:0:0:
259,382,56691,5,6,2:3:0:0:
352,348,56894,1,2,2:0:0:0:
442,307,57096,1,2,2:0:0:0:
62,193,57907,5,8,0:0:0:0:
10,108,58110,1,4,2:3:0:0:
77,36,58312,1,8,0:0:0:0:
160,89,58515,1,4,2:3:0:0:
231,19,58718,6,0,L|348:30,1,99.0000030212403,2|0,2:3|0:0,0:0:0:0:
402,95,59123,2,0,L|455:87,2,49.5000015106202,8|8|8,2:3|2:3|2:3,0:0:0:0:
332,166,59529,2,0,P|342:237|351:283,1,99.0000030212403,10|2,0:0|2:0,0:0:0:0:
413,343,59934,1,2,2:0:0:0:
413,343,60137,1,2,2:0:0:0:
319,376,60339,2,0,P|257:367|208:366,1,99.0000030212403,2|2,2:0|2:0,0:0:0:0:
121,368,60745,5,2,2:0:0:0:
68,284,60948,1,6,2:3:0:0:
15,200,61150,2,0,L|33:92,1,99.0000030212403,10|2,0:0|2:0,0:0:0:0:
107,38,61556,2,0,P|156:16|204:43,1,99.0000030212403,2|8,2:3|0:0,0:0:0:0:
280,29,61962,6,0,P|323:59|320:116,1,99.0000030212403,2|0,2:3|0:0,0:0:0:0:
373,174,62367,2,0,P|366:225|321:253,1,99.0000030212403,2|0,2:3|0:0,0:0:0:0:
251,309,62772,5,10,0:0:0:0:
251,309,62975,1,10,0:0:0:0:
175,245,63177,2,0,P|159:189|136:140,1,99.0000030212403,2|2,2:0|2:0,0:0:0:0:
56,101,63583,1,6,2:3:0:0:
56,101,63785,1,2,2:0:0:0:
128,32,63988,2,0,P|181:16|239:13,1,99.0000030212403,6|10,2:3|2:3,0:0:0:0:
309,64,64394,1,2,2:0:0:0:
13,327,65204,5,2,2:3:0:0:
87,262,65407,1,2,2:3:0:0:
172,312,65610,2,0,L|166:363,2,49.5000015106202,8|8|8,2:3|2:3|2:3,0:0:0:0:
247,248,66015,5,10,0:0:0:0:
308,326,66218,1,10,0:0:0:0:
394,277,66421,1,10,0:0:0:0:
368,181,66623,1,10,0:0:0:0:
465,161,66826,6,0,P|471:93|484:42,1,99.0000030212403,2|2,2:0|2:0,0:0:0:0:
396,6,67231,1,2,2:0:0:0:
396,6,67434,1,6,2:3:0:0:
316,64,67637,2,0,P|246:73|192:80,1,99.0000030212403,10|2,0:0|2:0,0:0:0:0:
126,38,68042,6,0,P|83:69|83:127,1,99.0000030212403,2|8,2:3|0:0,0:0:0:0:
32,183,68448,2,0,P|36:236|87:263,1,99.0000030212403,2|0,2:3|0:0,0:0:0:0:
111,336,68853,1,4,2:3:0:0:
111,336,69056,1,4,2:3:0:0:
199,291,69258,6,0,P|250:297|298:307,1,99.0000030212403,10|2,0:0|2:0,0:0:0:0:
366,378,69664,1,2,2:0:0:0:
366,378,69867,1,2,2:0:0:0:
439,312,70069,2,0,P|432:257|427:209,1,99.0000030212403,6|2,2:3|2:0,0:0:0:0:
463,120,70475,2,0,L|527:128,2,49.5000015106202,6|8|10,2:3|2:3|2:3,0:0:0:0:
393,49,70880,2,0,L|278:57,1,99.0000030212403,10|4,0:0|2:3,0:0:0:0:
294,55,71691,6,0,L|300:140,1,72,2|0,2:0|0:0,0:0:0:0:
375,166,72096,2,0,L|360:326,1,144,2|0,2:0|0:0,0:0:0:0:
277,328,72704,2,0,P|181:321|148:373,1,144,2|0,2:0|0:0,0:0:0:0:
82,304,73312,2,0,B|50:234|116:191|121:221|184:195|138:95,1,216,2|0,2:0|0:0,0:0:0:0:
130,37,74123,2,0,L|365:62,1,216,2|0,2:0|0:0,0:0:0:0:
385,136,74934,1,2,2:0:0:0:
385,136,78177,6,0,P|381:209|383:246,1,90,2|0,2:3|0:0,0:0:0:0:
435,298,78583,2,0,L|489:288,2,45,8|8|8,2:3|2:3|2:3,0:0:0:0:
364,353,78988,2,0,P|316:344|262:339,1,90,10|6,0:0|2:3,0:0:0:0:
189,370,79394,5,2,2:0:0:0:
113,322,79596,1,2,2:0:0:0:
39,269,79799,2,0,L|56:160,1,90,2|2,2:0|2:0,0:0:0:0:
13,104,80204,1,2,2:0:0:0:
13,104,80407,1,6,2:3:0:0:
79,43,80610,2,0,P|131:49|193:57,1,90,10|2,0:0|2:0,0:0:0:0:
253,23,81015,2,0,P|304:37|322:89,1,90,2|0,2:3|0:0,0:0:0:0:
390,125,81421,6,0,P|403:175|366:217,1,90,2|0,2:3|0:0,0:0:0:0:
370,294,81826,2,0,P|331:328|278:320,1,90,2|0,2:3|0:0,0:0:0:0:
210,348,82231,1,10,0:0:0:0:
210,348,82434,1,8,0:0:0:0:
137,294,82637,2,0,P|142:238|145:196,1,90,2|2,2:0|2:0,0:0:0:0:
83,138,83042,5,6,2:3:0:0:
156,85,83245,1,4,2:3:0:0:
229,32,83448,1,4,2:3:0:0:
500,280,84664,6,0,P|476:328|422:337,1,90,2|0,2:3|0:0,0:0:0:0:
354,340,85069,2,0,L|366:395,2,45,8|8|8,2:3|2:3|2:3,0:0:0:0:
274,296,85475,2,0,P|277:240|281:196,1,90,10|6,0:0|2:3,0:0:0:0:
359,163,85880,5,2,2:0:0:0:
314,84,86083,1,2,2:0:0:0:
268,6,86285,2,0,L|158:20,1,90,2|2,2:0|2:0,0:0:0:0:
93,5,86691,1,2,2:0:0:0:
93,5,86894,1,6,2:3:0:0:
35,73,87096,2,0,P|58:132|66:169,1,90,10|2,0:0|2:0,0:0:0:0:
16,234,87502,6,0,P|40:282|94:291,1,90,2|0,2:3|0:0,0:0:0:0:
146,344,87907,1,6,2:3:0:0:
216,287,88110,1,6,2:3:0:0:
170,209,88312,1,6,2:3:0:0:
242,155,88515,1,6,2:3:0:0:
312,210,88718,5,10,0:0:0:0:
312,210,88921,1,4,2:3:0:0:
377,149,89123,2,0,P|389:93|398:53,1,90,10|4,0:0|2:3,0:0:0:0:
322,8,89529,2,0,P|248:17|206:23,1,90,6|2,2:3|2:0,0:0:0:0:
162,75,89934,2,0,L|105:68,2,45,8|8|8,2:3|2:3|2:3,0:0:0:0:
463,266,91150,6,0,P|476:216|439:174,1,90,2|0,2:3|0:0,0:0:0:0:
443,97,91555,2,0,P|404:63|351:71,1,90,2|0,2:3|0:0,0:0:0:0:
283,43,91960,1,10,0:0:0:0:
283,43,92163,1,6,2:3:0:0:
209,95,92367,2,0,P|221:170|226:200,1,90,2|2,2:0|2:0,0:0:0:0:
294,239,92772,5,2,2:0:0:0:
214,280,92975,1,2,2:0:0:0:
134,322,93177,2,0,L|143:370,2,45,10|8|6,2:3|2:3|2:3,0:0:0:0:
63,265,93583,2,0,P|73:193|77:161,1,90,10|2,0:0|2:0,0:0:0:0:
46,90,93988,2,0,P|82:53|137:64,1,90,2|0,2:3|0:0,0:0:0:0:
202,23,94393,6,0,P|250:39|270:89,1,90,2|0,2:3|0:0,0:0:0:0:
329,134,94798,1,6,2:3:0:0:
329,134,95001,1,6,2:3:0:0:
255,186,95204,2,0,P|268:243|275:279,1,90,10|2,0:0|2:0,0:0:0:0:
315,354,95610,5,2,2:0:0:0:
395,314,95812,1,2,2:0:0:0:
475,274,96015,2,0,L|456:170,1,90,6|2,2:3|2:0,0:0:0:0:
492,103,96421,1,0,0:0:0:0:
492,103,96623,1,0,0:0:0:0:
416,54,96826,2,0,P|358:45|316:39,1,90,8|4,0:0|2:3,0:0:0:0:
254,93,97231,2,0,P|196:102|154:108,1,90,0|8,0:0|0:0,0:0:0:0:
81,140,97637,6,0,P|68:190|104:231,1,90,2|0,2:3|0:0,0:0:0:0:
109,308,98042,2,0,L|58:315,2,45,8|8|8,2:3|2:3|2:3,0:0:0:0:
190,348,98448,2,0,L|292:358,1,90,10|6,0:0|2:3,0:0:0:0:
367,375,98853,5,2,2:0:0:0:
436,317,99056,1,2,2:0:0:0:
504,258,99258,2,0,L|483:157,1,90,2|0,2:0|0:0,0:0:0:0:
412,126,99664,1,2,2:0:0:0:
412,126,99867,1,6,2:3:0:0:
351,191,100069,2,0,P|289:201|253:219,1,90,10|2,0:0|2:0,0:0:0:0:
218,290,100475,2,0,P|166:285|139:235,1,90,2|0,2:3|0:0,0:0:0:0:
67,213,100880,6,0,P|48:164|74:117,1,90,2|0,2:3|0:0,0:0:0:0:
70,44,101285,1,6,2:3:0:0:
70,44,101488,1,6,2:3:0:0:
157,65,101691,2,0,P|212:54|255:49,1,90,10|2,0:0|2:0,0:0:0:0:
324,6,102096,5,2,2:0:0:0:
401,51,102299,1,2,2:0:0:0:
476,99,102502,2,0,L|457:226,1,90,6|2,2:3|2:0,0:0:0:0:
464,278,102907,2,0,L|528:269,2,45,8|8|8,2:3|2:3|2:3,0:0:0:0:
417,354,103312,2,0,P|358:346|312:341,1,90,8|4,0:0|2:3,0:0:0:0:
241,371,103718,1,2,2:3:0:0:
241,371,104123,6,0,B|287:253|287:253|306:261|306:261|364:93|364:93|264:23|175:132|233:200,1,576
