osu file format v14

[General]
AudioFilename: audio.mp3
AudioLeadIn: 0
PreviewTime: 88020
Countdown: 0
SampleSet: Drum
StackLeniency: 0.7
Mode: 0
LetterboxInBreaks: 0
WidescreenStoryboard: 0

[Editor]
Bookmarks: 44395,60758,66213,82576,88031,109849,120758,131667,153486
DistanceSpacing: 1.8
BeatDivisor: 6
GridSize: 16
TimelineZoom: 2.4

[Metadata]
Title:Obedient
TitleUnicode:Obedient
Artist:bladee & ECCO2K
ArtistUnicode:bladee & ECCO2K
Creator:Fixxis
Version:Pain
Source:
Tags:Rap Hip-Hop Drain Gang Black Man Vinxis Synderes Frostwich Xenon- Xehn Xen mishima yurara Hip Hop English Amity
BeatmapID:2442744
BeatmapSetID:1170997

[Difficulty]
HPDrainRate:6
CircleSize:4.2
OverallDifficulty:9
ApproachRate:9.2
SliderMultiplier:1.4
SliderTickRate:1

[Events]
//Background and Video events
0,0,"fixxis_2.jpg",0,0
//Break Periods
//Storyboard Layer 0 (Background)
//Storyboard Layer 1 (Fail)
//Storyboard Layer 2 (Pass)
//Storyboard Layer 3 (Foreground)
//Storyboard Layer 4 (Overlay)
//Storyboard Sound Samples

[TimingPoints]
22535,340.909090909091,4,3,1,60,1,0
44353,-100,4,2,1,30,0,0
55177,-100,4,2,1,5,0,0
55262,-100,4,2,1,30,0,0
60631,-100,4,2,1,5,0,0
60716,-100,4,2,1,30,0,0
66000,-100,4,3,1,5,0,0
66171,-100,4,3,1,60,0,0
75972,-100,4,3,1,5,0,0
76057,-100,4,3,1,60,0,0
85262,-100,4,3,1,30,0,0
87989,-83.3333333333333,4,3,1,70,0,0
90290,-83.3333333333333,4,3,1,5,0,0
90375,-83.3333333333333,4,3,1,70,0,0
95745,-83.3333333333333,4,3,1,5,0,0
95830,-83.3333333333333,4,3,1,70,0,0
104353,-100,4,3,1,40,0,0
109807,-100,4,3,1,40,0,0
131625,-83.3333333333333,4,3,1,70,0,0
133925,-83.3333333333333,4,3,1,5,0,0
134010,-83.3333333333333,4,3,1,70,0,0
139381,-83.3333333333333,4,3,1,5,0,0
139466,-83.3333333333333,4,3,1,70,0,0
144836,-83.3333333333333,4,3,1,5,0,0
144921,-83.3333333333333,4,3,1,70,0,0
147563,-83.3333333333333,4,3,1,5,0,0
147648,-83.3333333333333,4,3,1,70,0,0
150290,-83.3333333333333,4,3,1,5,0,0
150375,-83.3333333333333,4,3,1,70,0,0
153444,-83.3333333333333,4,3,1,70,0,0

[Colours]
Combo1 : 98,98,255
Combo2 : 0,64,128
Combo3 : 192,192,192

[HitObjects]
7,130,22534,6,0,P|43:130|98:139,1,70,8|8,0:0|0:2,0:0:0:0:
273,177,22875,1,2,0:0:0:0:
187,246,23046,1,8,2:3:0:0:
238,33,23216,2,0,P|226:78|221:114,1,70,10|0,0:2|0:0,0:0:0:0:
344,295,23557,2,0,P|356:250|361:214,1,70,10|0,0:0|0:0,0:0:0:0:
290,171,23898,5,2,0:0:0:0:
290,171,23983,1,0,0:0:0:0:
290,171,24069,1,8,0:2:0:0:
463,266,24239,1,2,0:0:0:0:
268,348,24409,1,10,0:0:0:0:
463,266,24580,6,0,P|468:211|472:186,1,70,10|0,0:2|0:0,0:0:0:0:
395,28,24921,2,0,P|403:64|406:112,1,70,2|0,0:0|0:0,0:0:0:0:
244,248,25262,6,0,P|206:260|165:276,1,70,10|0,0:0|0:0,0:0:0:0:
91,309,25603,1,2,0:0:0:0:
91,309,25688,1,0,0:0:0:0:
91,309,25773,1,2,0:0:0:0:
224,353,25944,1,10,0:2:0:0:
160,173,26114,1,0,0:0:0:0:
320,213,26284,1,10,0:0:0:0:
198,264,26455,1,0,0:0:0:0:
217,84,26625,5,2,0:0:0:0:
217,84,26711,1,0,0:0:0:0:
217,84,26796,1,8,0:2:0:0:
61,173,26966,1,2,2:0:0:0:
68,18,27137,1,10,0:0:0:0:
135,97,27307,2,0,P|145:145|145:190,1,70,10|0,0:2|0:0,0:0:0:0:
94,319,27648,2,0,L|61:339,3,23.3333333333333,10|0|0|8,0:2|0:0|0:0|0:2,0:0:0:0:
264,311,27989,6,0,P|316:323|341:335,1,70,8|8,0:0|0:2,0:0:0:0:
455,232,28330,1,2,0:0:0:0:
417,339,28500,1,0,2:0:0:0:
331,105,28671,2,0,P|326:138|327:174,1,70,10|0,0:2|0:0,0:0:0:0:
505,113,29012,2,0,P|503:70|493:30,1,70,2|0,0:0|0:0,0:0:0:0:
426,146,29353,5,2,0:0:0:0:
426,146,29438,1,0,0:0:0:0:
426,146,29523,1,8,0:2:0:0:
512,211,29694,1,2,0:0:0:0:
414,60,29864,1,10,0:0:0:0:
353,222,30034,2,0,P|308:237|276:254,1,70,10|0,0:2|0:0,0:0:0:0:
237,117,30375,2,0,P|243:76|242:26,1,70,2|8,0:0|0:2,0:0:0:0:
40,189,30716,6,0,P|72:176|118:172,1,70,8|0,2:3|2:0,0:0:0:0:
90,85,31057,6,0,P|124:92|163:110,1,70,0|0,2:0|2:0,0:0:0:0:
93,308,31398,6,0,P|122:292|163:263,1,70,8|0,0:2|2:0,0:0:0:0:
209,339,31739,6,0,P|229:311|246:264,1,70,0|0,2:0|0:0,0:0:0:0:
223,102,32080,5,8,0:0:0:0:
308,233,32250,1,8,0:0:0:0:
339,129,32421,1,8,0:2:0:0:
201,199,32591,1,0,0:0:0:0:
512,231,32762,6,0,B|387:275|433:187|280:241,1,210,0|0,3:0|2:0,0:0:0:0:
141,295,33444,6,0,P|151:347|168:380,1,70,8|8,0:0|0:2,0:0:0:0:
210,228,33784,1,2,0:0:0:0:
76,170,33955,1,2,2:0:0:0:
201,74,34125,2,0,P|196:42|185:3,1,70,10|0,0:2|0:0,0:0:0:0:
67,252,34466,2,0,P|29:260|-6:272,1,70,2|0,0:0|0:0,0:0:0:0:
244,309,34807,5,2,0:0:0:0:
244,309,34892,1,0,0:0:0:0:
244,309,34978,1,8,0:2:0:0:
146,161,35148,1,2,0:0:0:0:
132,333,35319,1,10,0:0:0:0:
255,207,35489,2,0,P|297:201|336:200,1,70,10|0,0:2|0:0,0:0:0:0:
467,279,35830,2,0,P|434:272|390:264,1,70,10|8,0:0|0:2,0:0:0:0:
426,108,36171,6,0,P|421:65|414:29,1,70,10|0,0:0|0:0,0:0:0:0:
310,94,36512,1,2,0:0:0:0:
310,94,36597,1,0,0:0:0:0:
310,94,36682,1,0,0:0:0:0:
480,186,36853,1,10,0:2:0:0:
316,262,37023,1,0,0:0:0:0:
371,183,37194,1,2,0:0:0:0:
436,275,37364,1,0,0:0:0:0:
269,179,37534,6,0,P|223:185|191:193,1,70,2|8,0:0|0:2,0:0:0:0:
111,112,37875,2,0,P|106:159|99:190,1,70,2|8,0:0|0:0,0:0:0:0:
0,273,38216,2,0,P|55:280|87:289,1,70,10|0,0:2|0:0,0:0:0:0:
192,330,38557,2,0,L|184:292,3,23.3333333333333,10|0|0|8,0:2|0:2|0:2|0:2,0:2:0:0:
216,55,38898,6,0,P|208:91|201:138,1,70,8|0,0:0|0:0,0:0:0:0:
283,210,39239,1,2,0:0:0:0:
104,237,39409,1,2,0:0:0:0:
273,317,39580,1,8,0:2:0:0:
121,372,39750,1,2,0:0:0:0:
273,317,39921,6,0,P|313:323|362:338,1,70,10|0,0:0|0:0,0:0:0:0:
472,217,40262,5,2,0:0:0:0:
463,261,40347,1,0,0:0:0:0:
453,309,40432,1,8,0:2:0:0:
362,198,40603,1,2,0:0:0:0:
501,128,40773,1,10,0:0:0:0:
395,45,40944,2,0,P|396:68|409:120,1,70,10|0,0:2|0:0,0:0:0:0:
269,229,41284,2,0,P|221:214|184:210,1,70,2|8,0:0|0:2,0:0:0:0:
389,332,41625,6,0,P|463:333|510:291,1,140,8|0,2:3|2:0,0:0:0:0:
430,258,42137,1,0,2:0:0:0:
300,359,42307,2,0,P|226:360|179:318,1,140,8|0,0:2|2:0,0:0:0:0:
256,274,42819,1,0,2:0:0:0:
385,366,42989,1,0,2:0:0:0:
385,366,43671,6,0,B|440:241|331:293|396:140,1,210,8|0,0:2|0:0,0:0:0:0:
467,58,44353,5,10,0:3:0:0:
467,58,44694,1,2,0:0:0:0:
396,25,44864,2,0,P|351:38|319:50,1,70,2|0,0:0|0:0,0:0:0:0:
283,109,45205,2,0,P|248:100|199:88,1,70,2|8,0:0|0:3,0:0:0:0:
135,53,45546,1,2,0:0:0:0:
70,111,45716,6,0,P|31:122|3:134,2,70,2|0|0,0:0|0:0|0:0,0:0:0:0:
149,150,46228,1,0,0:0:0:0:
204,85,46398,2,0,P|231:150|179:229,1,140,10|0,0:3|0:0,0:0:0:0:
101,315,47080,5,2,0:0:0:0:
20,168,47421,1,2,0:0:0:0:
163,213,47762,1,10,0:3:0:0:
8,278,48103,1,2,0:0:0:0:
113,121,48444,6,0,P|104:71|99:43,1,70,2|0,0:0|0:0,0:0:0:0:
6,20,48784,2,0,L|19:92,1,70,2|0,0:0|0:0,0:0:0:0:
93,213,49125,6,0,P|143:204|179:207,1,70,2|0,0:0|0:0,0:0:0:0:
211,277,49466,2,0,P|161:286|125:283,1,70,2|0,0:0|0:0,0:0:0:0:
249,199,49807,1,8,0:3:0:0:
249,199,50148,6,0,P|288:207|324:200,1,70,2|0,0:0|0:0,0:0:0:0:
365,269,50489,2,0,P|390:239|398:204,1,70,2|0,0:0|0:0,0:0:0:0:
485,203,50830,2,0,P|464:162|443:144,1,70,10|0,0:3|0:0,0:0:0:0:
374,94,51171,6,0,L|283:104,2,70,2|0|0,0:0|0:0|0:0,0:0:0:0:
442,49,51682,1,0,0:0:0:0:
486,106,51853,2,0,L|466:273,1,140,2|0,0:0|0:0,0:0:0:0:
277,238,52534,5,2,0:0:0:0:
465,358,52875,1,2,0:0:0:0:
512,167,53216,1,2,0:0:0:0:
339,69,53557,1,2,0:0:0:0:
361,290,53898,6,0,P|369:231|368:200,1,70,2|0,0:0|0:0,0:0:0:0:
276,316,54239,2,0,P|232:326|201:341,1,70,2|0,0:0|0:0,0:0:0:0:
426,339,54580,6,0,P|473:365|504:374,1,70,10|0,0:3|0:0,0:0:0:0:
360,216,54921,2,0,P|314:208|230:240,1,105,2|0,0:0|0:0,0:0:0:0:
247,229,55262,5,8,0:3:0:0:
247,229,55603,2,0,L|232:142,1,70,2|0,0:0|0:0,0:0:0:0:
311,137,55944,2,0,L|296:50,1,70,2|0,0:0|0:0,0:0:0:0:
234,24,56284,2,0,P|197:43|146:37,1,70,10|0,0:3|0:0,0:0:0:0:
126,114,56625,2,0,P|96:82|88:47,2,70,2|0|0,0:0|0:0|0:0,0:0:0:0:
196,152,57137,1,0,0:0:0:0:
150,224,57307,2,0,P|67:239|5:258,1,140,10|0,0:3|0:0,0:0:0:0:
295,305,57989,5,2,0:0:0:0:
443,164,58330,1,2,0:0:0:0:
359,28,58671,1,2,0:0:0:0:
151,57,59012,1,2,0:0:0:0:
4,197,59353,6,0,P|50:196|89:206,1,70,2|0,0:0|0:0,0:0:0:0:
145,269,59694,2,0,L|161:194,1,70,2|0,0:0|0:0,0:0:0:0:
252,178,60034,2,0,L|236:253,1,70,10|0,0:3|0:0,0:0:0:0:
327,297,60375,2,0,P|380:303|433:276,1,105,2|0,0:0|0:0,0:0:0:0:
480,228,60716,5,4,0:0:0:0:
256,192,64807,12,0,66000,0:0:0:0:
298,205,66171,6,0,P|352:212|381:222,1,70,8|8,0:0|0:2,0:0:0:0:
480,194,66512,1,2,0:0:0:0:
490,234,66597,1,0,0:0:0:0:
477,276,66682,1,2,0:0:0:0:
381,124,66853,1,10,0:2:0:0:
381,124,66938,1,0,0:0:0:0:
381,124,67023,2,0,L|372:75,1,35,2|0,0:0|0:0,0:0:0:0:
293,191,67194,2,0,P|252:197|210:209,1,70,2|0,0:0|0:0,0:0:0:0:
79,152,67534,6,0,P|93:180|107:230,1,70,2|8,0:0|0:2,0:0:0:0:
131,318,67875,1,2,2:0:0:0:
20,221,68046,1,10,0:0:0:0:
168,135,68216,1,10,0:2:0:0:
28,53,68387,1,0,0:0:0:0:
168,135,68557,2,0,L|199:125,3,23.3333333333333,0|0|0|8,0:0|0:0|0:0|0:2,0:0:0:0:
105,2,68898,6,0,P|111:52|110:84,1,70,10|0,0:0|0:0,0:0:0:0:
223,208,69239,2,0,P|260:209|302:219,1,70,2|0,0:0|0:0,0:0:0:0:
104,309,69580,1,10,0:2:0:0:
132,156,69750,1,0,0:0:0:0:
208,304,69921,1,2,0:0:0:0:
208,304,70006,1,0,0:0:0:0:
208,304,70091,1,0,0:0:0:0:
64,226,70262,6,0,P|26:235|-3:253,1,70,2|8,0:0|0:2,0:0:0:0:
212,146,70603,1,2,2:0:0:0:
310,277,70773,1,10,0:0:0:0:
425,149,70944,2,0,P|434:107|444:62,1,70,10|0,0:2|2:0,0:0:0:0:
367,12,71284,2,0,L|348:103,1,70,10|8,0:0|0:2,0:0:0:0:
325,187,71625,5,8,0:0:0:0:
493,231,71796,1,8,0:2:0:0:
333,295,71966,1,2,0:0:0:0:
426,152,72137,1,2,0:0:0:0:
438,314,72307,1,10,0:2:0:0:
438,314,72392,1,0,0:0:0:0:
438,314,72478,1,2,0:0:0:0:
236,196,72648,6,0,P|192:189|158:183,1,70,2|0,0:0|0:0,0:0:0:0:
13,310,72989,2,0,P|53:296|96:291,1,70,2|8,0:0|0:2,0:0:0:0:
212,307,73330,1,2,0:0:0:0:
66,202,73500,1,10,0:0:0:0:
202,84,73671,1,10,0:2:0:0:
66,202,73841,1,0,0:0:0:0:
331,193,74012,6,0,L|364:202,3,23.3333333333333,2|0|0|8,0:0|0:0|0:0|0:2,0:0:0:0:
259,236,74353,6,0,P|249:190|251:151,1,70,8|0,2:3|2:0,0:0:0:0:
166,176,74694,2,0,P|176:132|194:100,1,70,0|0,2:0|2:0,0:0:0:0:
110,78,75034,2,0,P|143:44|172:29,1,70,8|0,0:2|2:0,0:0:0:0:
336,63,75375,6,0,L|253:55,1,70,0|0,2:0|2:0,0:0:0:0:
366,151,75716,2,0,P|437:153|468:135,1,105,0|0,0:0|0:0,0:0:0:0:
465,137,76057,2,0,L|481:64,1,70,8|0,0:0|0:0,0:0:0:0:
279,141,76398,2,0,L|203:162,1,70,8|0,0:2|2:0,0:0:0:0:
382,227,76739,2,0,L|394:307,1,70,0|0,2:0|2:0,0:0:0:0:
372,131,77080,5,8,0:0:0:0:
372,131,77165,1,0,0:0:0:0:
372,131,77250,1,8,0:2:0:0:
480,201,77421,1,2,0:0:0:0:
295,288,77591,1,10,0:0:0:0:
426,376,77762,6,0,P|484:361|505:359,1,70,10|0,0:2|0:0,0:0:0:0:
282,192,78103,2,0,P|240:181|203:175,1,70,2|0,0:0|0:0,0:0:0:0:
85,85,78444,2,0,P|103:126|117:173,1,70,2|8,0:0|0:2,0:0:0:0:
145,263,78784,1,2,0:0:0:0:
145,263,78870,1,0,0:0:0:0:
145,263,78955,1,10,0:0:0:0:
21,214,79125,1,10,0:2:0:0:
172,275,79296,1,0,0:0:0:0:
34,342,79466,2,0,L|4:352,3,23.3333333333333,0|0|0|8,0:0|0:0|0:0|0:2,0:0:0:0:
105,185,79807,6,0,P|105:133|99:104,1,70,10|0,0:0|0:0,0:0:0:0:
276,298,80148,2,0,P|315:292|365:296,1,70,2|0,0:0|0:0,0:0:0:0:
448,206,80489,2,0,P|440:246|436:285,1,70,10|0,0:2|0:0,0:0:0:0:
426,366,80830,1,10,0:0:0:0:
426,366,80915,1,0,0:0:0:0:
426,366,81000,1,0,0:0:0:0:
349,220,81171,5,2,0:0:0:0:
505,122,81341,1,8,0:2:0:0:
345,20,81512,1,2,2:0:0:0:
397,121,81682,1,10,0:0:0:0:
448,45,81853,2,0,P|489:29|531:27,1,70,10|0,0:2|0:0,0:0:0:0:
298,118,82194,2,0,P|257:134|215:136,1,70,10|0,0:0|0:0,0:0:0:0:
457,209,82534,5,0,0:0:0:0:
162,365,85262,6,0,P|172:326|185:296,1,70,2|0,2:0|2:0,0:0:0:0:
91,281,85603,6,0,P|110:245|131:220,1,70,2|0,2:0|2:0,0:0:0:0:
46,182,85944,6,0,P|74:153|100:133,1,70,2|0,2:0|2:0,0:0:0:0:
28,71,86284,6,0,P|62:50|93:38,1,70,2|0,2:0|2:0,0:0:0:0:
175,76,86625,6,0,P|225:88|316:61,1,140,2|0,2:0|2:0,0:0:0:0:
387,28,87137,1,0,2:0:0:0:
485,20,87307,2,0,L|461:89,1,70,2|0,2:0|2:0,0:0:0:0:
359,181,87648,2,0,L|383:112,1,70,2|0,2:0|2:0,0:0:0:0:
478,197,87989,6,0,P|487:246|462:292,1,83.9999974365235,14|8,0:0|0:2,0:0:0:0:
275,368,88330,2,0,P|266:319|291:273,1,83.9999974365235,2|0,0:0|0:0,0:0:0:0:
375,253,88671,1,10,0:2:0:0:
375,253,88756,1,0,0:0:0:0:
375,253,88841,1,2,0:0:0:0:
211,165,89012,1,2,0:0:0:0:
352,103,89182,1,2,0:0:0:0:
198,255,89353,5,2,0:0:0:0:
400,172,89523,1,10,0:2:0:0:
157,84,89694,1,2,2:0:0:0:
333,0,89864,1,10,0:0:0:0:
74,152,90034,6,0,P|144:160|233:176,1,125.999996154785,10|0,0:2|0:0,0:0:0:0:
275,145,90375,2,0,L|270:179,3,27.9999991455078,2|0|0|8,0:0|0:0|0:0|0:2,0:0:0:0:
183,238,90716,5,10,0:0:0:0:
357,175,90887,1,2,2:0:0:0:
207,64,91057,2,0,P|155:77|114:92,1,83.9999974365235,2|8,0:0|0:0,0:0:0:0:
278,271,91398,1,10,0:2:0:0:
278,271,91483,1,0,0:0:0:0:
278,271,91569,1,0,0:0:0:0:
421,104,91739,2,0,P|428:56|438:17,1,83.9999974365235,10|0,0:0|0:0,0:0:0:0:
283,124,92080,5,2,0:0:0:0:
506,207,92250,1,10,0:2:0:0:
320,339,92421,1,2,2:0:0:0:
421,104,92591,5,10,0:0:0:0:
239,238,92762,1,10,0:2:0:0:
464,333,92932,1,0,0:0:0:0:
283,124,93103,6,0,P|233:116|193:115,1,83.9999974365235,10|8,0:0|0:2,0:0:0:0:
11,45,93444,2,0,P|2:94|24:135,1,83.9999974365235,10|8,0:0|0:2,0:0:0:0:
152,351,93784,2,0,P|171:313|165:261,1,83.9999974365235,2|0,0:0|0:0,0:0:0:0:
87,199,94125,1,10,0:2:0:0:
49,206,94211,1,0,0:0:0:0:
17,215,94296,1,2,0:0:0:0:
113,104,94466,1,2,0:0:0:0:
272,244,94637,1,2,0:0:0:0:
394,143,94807,5,2,0:0:0:0:
218,111,94978,1,10,0:2:0:0:
356,357,95148,1,2,0:0:0:0:
146,314,95319,1,10,0:0:0:0:
508,260,95489,6,0,P|453:245|367:229,1,125.999996154785,10|0,0:2|0:0,0:0:0:0:
288,233,95830,2,0,L|253:243,3,27.9999991455078,2|0|0|8,0:0|0:0|0:0|0:2,0:0:0:0:
409,322,96171,1,10,0:0:0:0:
418,146,96341,1,2,0:0:0:0:
370,233,96512,1,2,0:0:0:0:
371,239,96597,1,0,0:0:0:0:
373,246,96682,1,0,0:0:0:0:
154,191,96853,6,0,P|190:171|231:159,1,83.9999974365235,10|0,0:2|0:0,0:0:0:0:
512,87,97194,2,0,P|475:66|435:54,1,83.9999974365235,2|0,0:0|0:0,0:0:0:0:
309,0,97534,6,0,P|317:47|321:106,1,83.9999974365235,10|8,0:0|0:2,0:0:0:0:
319,300,97875,1,2,0:0:0:0:
466,174,98046,1,0,0:0:0:0:
232,55,98216,2,0,P|167:35|59:63,1,167.999994873047,10|0,0:2|2:0,0:0:0:0:
25,139,98728,1,0,0:0:0:0:
76,276,98898,5,14,0:0:0:0:
76,276,98983,1,0,0:0:0:0:
76,276,99069,1,8,0:2:0:0:
164,39,99239,2,0,P|151:82|148:133,1,83.9999974365235,2|8,0:0|0:0,0:0:0:0:
210,264,99580,1,10,0:2:0:0:
27,153,99750,1,2,0:0:0:0:
242,99,99921,1,2,0:0:0:0:
67,3,100091,1,2,0:0:0:0:
242,99,100262,6,0,P|299:89|347:87,1,83.9999974365235,2|8,0:0|0:2,0:0:0:0:
174,168,100603,1,2,2:0:0:0:
146,31,100773,1,10,0:0:0:0:
8,200,100944,2,0,P|62:238|131:213,1,125.999996154785,8|0,0:2|0:0,0:0:0:0:
174,168,101284,2,0,L|216:173,3,27.9999991455078,2|0|0|8,0:0|0:0|0:0|0:2,0:0:0:0:
83,116,101625,5,10,0:0:0:0:
247,228,101796,1,2,0:0:0:0:
82,367,101966,6,0,P|76:325|68:281,1,83.9999974365235,0|0,2:0|0:0,0:0:0:0:
177,139,102307,1,10,0:2:0:0:
24,203,102478,1,0,0:0:0:0:
222,323,102648,5,2,0:0:0:0:
222,323,102733,1,0,0:0:0:0:
222,323,102819,1,0,0:0:0:0:
176,145,102989,1,2,0:0:0:0:
83,354,103159,1,8,0:2:0:0:
335,236,103330,6,0,P|280:227|241:227,1,83.9999974365235,2|8,2:0|0:0,0:0:0:0:
107,99,103671,2,0,P|95:152|107:187,1,83.9999974365235,10|0,0:2|0:0,0:0:0:0:
409,366,104012,2,0,P|421:313|409:278,1,83.9999974365235,10|8,0:0|0:2,0:0:0:0:
512,148,104353,2,0,P|461:142|372:179,1,140,2|0,2:0|0:0,0:0:0:0:
379,172,105034,6,0,L|302:160,1,70,2|0,2:0|2:0,0:0:0:0:
262,247,105375,2,0,L|339:259,1,70,10|0,2:3|2:0,0:0:0:0:
422,314,105716,1,2,2:0:0:0:
473,232,105887,1,0,2:0:0:0:
381,180,106057,1,2,2:0:0:0:
464,122,106228,1,0,2:0:0:0:
382,25,106398,6,0,P|370:63|376:101,1,70,2|0,2:0|2:0,0:0:0:0:
464,122,106739,2,0,P|476:84|470:46,1,70,2|0,2:0|2:0,0:0:0:0:
306,147,107080,6,0,L|216:139,2,70,2|0|0,2:0|2:0|2:0,0:0:0:0:
376,199,107591,1,0,2:0:0:0:
352,282,107762,2,0,L|331:353,1,70,2|0,2:0|2:0,0:0:0:0:
448,163,108103,2,0,L|517:135,1,70,2|0,2:0|2:0,0:0:0:0:
376,199,108444,1,2,2:0:0:0:
376,199,108614,1,0,2:0:0:0:
246,78,108784,6,0,P|249:29|264:5,1,70,2|0,2:0|2:0,0:0:0:0:
203,153,109125,2,0,P|177:127|167:93,1,70,2|0,2:0|2:0,0:0:0:0:
204,234,109466,2,0,P|162:225|133:203,1,70,2|0,2:0|2:0,0:0:0:0:
254,307,109807,6,0,P|293:300|395:330,1,140,10|0,2:3|2:0,0:0:0:0:
464,353,110319,1,0,2:0:0:0:
503,282,110489,2,0,L|484:206,1,70,2|0,2:0|2:0,0:0:0:0:
400,181,110830,2,0,L|419:257,1,70,10|0,2:3|2:0,0:0:0:0:
377,324,111171,6,0,P|323:333|294:319,2,70,2|0|0,2:0|2:0|2:0,0:0:0:0:
138,374,111853,2,0,L|43:361,1,70,2|0,2:0|2:0,0:0:0:0:
40,285,112194,2,0,L|135:298,1,70,2|0,2:0|2:0,0:0:0:0:
182,237,112534,6,0,P|195:199|188:164,2,70,2|0|8,2:0|2:0|2:3,0:0:0:0:
115,282,113046,1,0,2:0:0:0:
67,209,113216,2,0,L|62:135,1,70,2|0,2:0|2:0,0:0:0:0:
0,53,113557,2,0,L|81:66,1,70,2|0,2:0|2:0,0:0:0:0:
160,21,113898,6,0,P|221:37|250:104,1,140,2|0,2:0|2:0,0:0:0:0:
286,176,114409,1,0,2:0:0:0:
359,133,114580,2,0,L|365:62,1,70,2|0,2:0|2:0,0:0:0:0:
446,32,114921,2,0,L|440:103,1,70,2|0,2:0|2:0,0:0:0:0:
512,234,115262,6,0,P|447:218|369:216,1,140,10|0,2:3|2:0,0:0:0:0:
372,214,115944,2,0,P|352:259|358:293,1,70,2|0,2:0|2:0,0:0:0:0:
350,135,116284,2,0,P|370:90|364:56,1,70,10|0,2:3|2:0,0:0:0:0:
296,194,116625,2,0,P|237:209|216:226,1,70,2|0,2:0|2:0,0:0:0:0:
428,160,116966,1,2,2:0:0:0:
428,160,117137,1,0,2:0:0:0:
495,277,117307,6,0,L|485:359,1,70,10|0,2:3|2:0,0:0:0:0:
378,332,117648,2,0,L|390:249,1,70,2|0,2:0|2:0,0:0:0:0:
307,221,117989,5,2,2:0:0:0:
249,285,118159,1,0,2:0:0:0:
171,242,118330,1,0,2:0:0:0:
171,242,118671,5,2,2:0:0:0:
86,218,118841,1,0,2:0:0:0:
22,282,119012,1,0,2:0:0:0:
22,282,119353,6,0,L|37:370,1,70,0|0,2:0|2:0,0:0:0:0:
86,218,119694,2,0,L|71:130,1,70,0|0,2:0|2:0,0:0:0:0:
171,242,120034,2,0,P|204:329|319:337,1,210,2|0,2:0|2:0,0:0:0:0:
395,371,120716,6,0,P|389:314|374:211,1,140,10|0,2:3|2:0,0:0:0:0:
377,229,121398,2,0,L|383:146,1,70,2|0,2:0|2:0,0:0:0:0:
467,179,121739,2,0,L|461:262,1,70,10|0,2:3|2:0,0:0:0:0:
310,282,122080,6,0,P|269:291|233:280,1,70,2|0,2:0|2:0,0:0:0:0:
174,240,122421,1,2,2:0:0:0:
174,240,122591,1,0,2:0:0:0:
234,176,122762,2,0,P|275:167|311:178,1,70,10|0,2:3|2:0,0:0:0:0:
174,240,123103,2,0,L|88:253,1,70,2|0,2:0|2:0,0:0:0:0:
17,228,123444,6,0,P|9:264|31:303,2,70,2|0|0,2:0|2:0|2:0,0:0:0:0:
74,174,123955,1,0,2:0:0:0:
130,124,124125,2,0,L|142:55,1,70,10|0,2:3|2:0,0:0:0:0:
63,25,124466,2,0,L|51:94,1,70,2|0,2:0|2:0,0:0:0:0:
148,137,124807,6,0,P|191:171|276:162,1,140,2|0,2:0|2:0,0:0:0:0:
321,109,125319,1,0,2:0:0:0:
382,62,125489,2,0,L|462:74,1,70,10|0,2:3|2:0,0:0:0:0:
474,149,125830,2,0,L|394:136,1,70,2|0,2:0|2:0,0:0:0:0:
341,186,126171,6,0,P|333:221|355:264,2,70,2|0|0,2:0|2:0|2:0,0:0:0:0:
320,369,126853,2,0,L|238:354,1,70,2|0,2:0|2:0,0:0:0:0:
210,264,127194,2,0,L|292:279,1,70,2|0,2:0|2:0,0:0:0:0:
366,254,127534,6,0,P|372:215|357:179,2,70,2|0|0,2:0|2:0|2:0,0:0:0:0:
309,310,128046,1,0,2:0:0:0:
387,352,128216,2,0,L|459:368,1,70,2|0,2:0|2:0,0:0:0:0:
511,299,128557,2,0,L|439:283,1,70,2|0,2:0|2:0,0:0:0:0:
293,227,128898,6,0,L|210:237,1,70,2|0,2:0|2:0,0:0:0:0:
163,288,129239,1,2,2:0:0:0:
163,288,129409,1,0,2:0:0:0:
25,243,129580,2,0,L|102:247,1,70,2|0,2:0|2:0,0:0:0:0:
157,195,129921,2,0,P|163:161|147:120,1,70,2|0,2:0|2:0,0:0:0:0:
96,65,130262,5,2,2:0:0:0:
96,65,130432,1,0,2:0:0:0:
263,25,130603,2,0,L|186:15,1,70,2|0,2:0|2:0,0:0:0:0:
162,125,130944,2,0,P|248:156|329:71,1,210,2|0,2:0|2:0,0:0:0:0:
506,7,131625,6,0,P|518:47|490:102,1,83.9999974365235,14|8,0:0|0:2,0:0:0:0:
260,122,131966,2,0,P|242:78|261:33,1,83.9999974365235,2|0,0:0|0:0,0:0:0:0:
436,148,132307,1,10,0:2:0:0:
436,148,132392,1,0,0:0:0:0:
436,148,132478,1,2,0:0:0:0:
232,280,132648,1,2,0:0:0:0:
421,314,132819,1,2,0:0:0:0:
232,280,132989,5,2,0:0:0:0:
377,196,133159,1,10,0:2:0:0:
267,163,133330,1,2,2:0:0:0:
334,314,133500,1,10,0:0:0:0:
30,272,133671,6,0,P|100:280|180:293,1,125.999996154785,10|0,0:2|0:0,0:0:0:0:
232,280,134012,2,0,L|227:314,3,27.9999991455078,2|0|0|8,0:0|0:0|0:0|0:2,0:0:0:0:
160,367,134353,5,10,0:0:0:0:
345,240,134523,1,2,0:0:0:0:
174,125,134694,2,0,P|182:174|184:219,1,83.9999974365235,2|0,0:0|0:0,0:0:0:0:
327,360,135034,1,10,0:2:0:0:
327,360,135120,1,0,0:0:0:0:
327,360,135205,1,0,0:0:0:0:
318,120,135375,2,0,P|315:78|319:30,1,83.9999974365235,2|0,0:0|0:0,0:0:0:0:
64,119,135716,5,2,0:0:0:0:
235,47,135887,1,10,0:2:0:0:
142,203,136057,1,2,2:0:0:0:
131,6,136228,1,10,0:0:0:0:
259,166,136398,1,10,0:2:0:0:
50,124,136569,1,2,2:0:0:0:
230,28,136739,2,0,P|280:20|320:19,1,83.9999974365235,10|8,0:0|0:2,0:0:0:0:
471,139,137080,6,0,P|494:181|484:229,1,83.9999974365235,10|8,0:0|0:2,0:0:0:0:
229,365,137421,2,0,P|210:327|216:275,1,83.9999974365235,2|0,0:0|0:0,0:0:0:0:
319,145,137762,1,10,0:2:0:0:
328,182,137847,1,0,0:0:0:0:
334,215,137932,1,2,0:0:0:0:
209,119,138103,1,2,0:0:0:0:
386,51,138273,1,2,0:0:0:0:
234,241,138444,5,2,0:0:0:0:
451,156,138614,1,2,0:0:0:0:
272,26,138784,5,2,0:0:0:0:
388,282,138955,1,10,0:0:0:0:
72,268,139125,6,0,P|86:227|190:201,1,125.999996154785,10|0,0:2|0:0,0:0:0:0:
234,241,139466,2,0,L|243:287,3,27.9999991455078,2|0|0|8,0:0|0:0|0:0|0:2,0:0:0:0:
289,103,139807,1,10,0:0:0:0:
157,289,139978,1,2,0:0:0:0:
373,321,140148,1,2,0:0:0:0:
373,321,140233,1,0,0:0:0:0:
373,321,140319,1,0,0:0:0:0:
180,165,140489,2,0,P|135:157|94:145,1,83.9999974365235,10|0,0:2|0:0,0:0:0:0:
308,9,140830,2,0,P|300:47|294:112,1,83.9999974365235,2|0,0:0|0:0,0:0:0:0:
430,245,141171,6,0,P|489:256|530:264,1,83.9999974365235,8|0,2:3|0:0,0:0:0:0:
317,305,141512,1,10,0:0:0:0:
293,129,141682,1,2,2:0:0:0:
317,305,141853,2,0,P|252:338|144:313,1,167.999994873047,10|0,0:2|0:0,0:0:0:0:
88,280,142364,1,0,0:0:0:0:
216,209,142534,6,0,P|248:212|300:223,1,83.9999974365235,14|8,0:0|0:2,0:0:0:0:
108,32,142875,2,0,P|112:78|109:126,1,83.9999974365235,2|0,0:0|0:0,0:0:0:0:
19,217,143216,1,10,0:2:0:0:
19,217,143302,1,0,0:0:0:0:
19,217,143387,1,2,0:0:0:0:
211,116,143557,1,2,0:0:0:0:
9,20,143728,1,2,0:0:0:0:
211,116,143898,6,0,P|247:110|296:93,1,83.9999974365235,2|8,0:0|0:2,0:0:0:0:
512,132,144239,1,8,2:3:0:0:
332,228,144409,1,2,0:0:0:0:
402,7,144580,2,0,P|403:76|410:148,1,125.999996154785,10|0,0:2|0:0,0:0:0:0:
436,213,144921,2,0,L|474:226,3,27.9999991455078,2|0|0|8,0:0|0:0|0:0|0:2,0:0:0:0:
268,332,145262,6,0,P|227:344|184:364,1,83.9999974365235,10|2,0:0|0:0,0:0:0:0:
429,352,145603,1,2,0:0:0:0:
429,352,145688,1,0,0:0:0:0:
429,352,145773,1,0,0:0:0:0:
270,177,145944,5,10,0:2:0:0:
456,250,146114,1,0,0:0:0:0:
360,114,146284,1,10,0:0:0:0:
355,290,146455,1,0,0:0:0:0:
469,149,146625,5,2,0:0:0:0:
267,283,146796,1,10,0:2:0:0:
187,113,146966,6,0,P|188:72|210:30,1,83.9999974365235,2|8,2:0|2:3,0:0:0:0:
497,227,147307,2,0,P|500:170|453:112,1,125.999996154785,10|0,0:2|0:0,0:0:0:0:
386,124,147648,2,0,L|346:140,3,27.9999991455078,8|0|0|0,0:0|0:0|0:0|0:0,0:0:0:0:
483,60,147989,5,10,0:0:0:0:
401,211,148159,1,0,0:0:0:0:
234,18,148330,2,0,P|213:61|209:105,1,83.9999974365235,2|0,0:0|0:0,0:0:0:0:
495,163,148671,1,10,0:2:0:0:
495,163,148756,1,0,0:0:0:0:
495,163,148841,1,2,0:0:0:0:
368,37,149012,1,2,0:0:0:0:
285,198,149182,1,2,0:0:0:0:
81,95,149353,6,0,P|133:86|169:83,1,83.9999974365235,2|0,0:0|0:0,0:0:0:0:
365,135,149694,1,10,0:2:0:0:
191,242,149864,1,10,0:0:0:0:
346,363,150034,2,0,P|376:319|361:241,1,125.999996154785,10|0,0:2|0:0,0:0:0:0:
302,206,150375,2,0,L|261:216,3,27.9999991455078,2|0|0|8,0:0|0:0|0:0|0:2,0:0:0:0:
436,188,150716,5,8,2:3:0:0:
289,295,150887,1,0,2:0:0:0:
455,361,151057,1,2,2:0:0:0:
389,280,151228,1,0,2:0:0:0:
389,280,151398,2,0,P|369:329|373:375,1,83.9999974365235,10|0,2:0|2:0,0:0:0:0:
220,212,151739,2,0,P|233:161|223:114,1,83.9999974365235,2|0,2:0|2:0,0:0:0:0:
100,288,152080,6,0,L|9:277,2,83.9999974365235,0|0|0,2:0|0:0|2:0,0:0:0:0:
207,284,152591,5,0,0:0:0:0:
129,212,152762,1,2,2:0:0:0:
229,174,152932,1,0,2:0:0:0:
147,120,153103,1,2,2:0:0:0:
171,381,153444,5,4,2:0:0:0:
