osu file format v14

[General]
AudioFilename: audio.mp3
AudioLeadIn: 0
PreviewTime: 88020
Countdown: 0
SampleSet: Drum
StackLeniency: 0.7
Mode: 0
LetterboxInBreaks: 0
WidescreenStoryboard: 1

[Editor]
Bookmarks: 22575,33485,44394,55303,66212,77121,88030,98939,109848,120757,131666,142575,153485
DistanceSpacing: 1
BeatDivisor: 4
GridSize: 16
TimelineZoom: 1.7

[Metadata]
Title:Obedient
TitleUnicode:Obedient
Artist:bladee & ECCO2K
ArtistUnicode:bladee & ECCO2K
Creator:Fixxis
Version:Xenon's Normal
Source:
Tags:Rap Hip-Hop Drain Gang Black Man Vinxis Synderes Frostwich Xenon- Xehn Xen mishima yurara Hip Hop English Amity
BeatmapID:2452731
BeatmapSetID:1170997

[Difficulty]
HPDrainRate:3
CircleSize:3.5
OverallDifficulty:4
ApproachRate:5.5
SliderMultiplier:1
SliderTickRate:1

[Events]
//Background and Video events
0,0,"fixxis_2.jpg",0,0
//Break Periods
//Storyboard Layer 0 (Background)
//Storyboard Layer 1 (Fail)
//Storyboard Layer 2 (Pass)
//Storyboard Layer 3 (Foreground)
//Storyboard Layer 4 (Overlay)
//Storyboard Sound Samples

[TimingPoints]
22535,340.909090909091,4,3,1,60,1,0
44353,-100,4,2,1,30,0,0
55177,-100,4,2,1,5,0,0
55262,-100,4,2,1,30,0,0
60631,-100,4,2,1,5,0,0
60716,-100,4,2,1,30,0,0
66000,-100,4,3,1,5,0,0
66171,-100,4,3,1,60,0,0
75972,-100,4,3,1,5,0,0
76057,-100,4,3,1,60,0,0
82534,-100,4,2,1,30,0,0
85262,-100,4,3,1,30,0,0
87989,-100,4,3,1,70,0,0
90290,-100,4,3,1,5,0,0
90375,-100,4,3,1,70,0,0
95745,-100,4,3,1,5,0,0
95830,-100,4,3,1,70,0,0
104353,-100,4,3,1,40,0,0
109807,-100,4,3,1,40,0,0
131625,-100,4,3,1,70,0,0
133925,-100,4,3,1,5,0,0
134010,-100,4,3,1,70,0,0
139381,-100,4,3,1,5,0,0
139466,-100,4,3,1,70,0,0
144836,-100,4,3,1,5,0,0
144921,-100,4,3,1,70,0,0
147563,-100,4,3,1,5,0,0
147648,-100,4,3,1,70,0,0
150290,-100,4,3,1,5,0,0
150375,-100,4,3,1,70,0,0
153444,-100,4,3,1,70,0,0

[Colours]
Combo1 : 98,98,255
Combo2 : 0,64,128
Combo3 : 192,192,192

[HitObjects]
83,108,22534,6,0,L|182:95,1,100,8|2,0:0|0:0,0:0:0:0:
228,127,23046,1,8,2:3:0:0:
228,127,23216,1,10,0:2:0:0:
175,212,23557,1,10,0:0:0:0:
253,274,23899,2,0,P|301:283|346:263,1,100,2|2,0:0|0:0,0:0:0:0:
385,232,24409,1,10,0:0:0:0:
385,232,24580,2,0,L|371:120,1,100,10|2,0:2|0:0,0:0:0:0:
443,61,25262,5,10,0:0:0:0:
359,5,25603,2,0,L|295:-2,1,50,2|2,0:0|0:0,0:0:0:0:
273,33,25944,2,0,P|224:23|179:43,1,100,10|10,0:2|0:0,0:0:0:0:
119,123,26625,2,0,L|132:234,1,100,2|2,0:0|2:0,0:0:0:0:
114,272,27137,1,10,0:0:0:0:
114,272,27307,1,10,0:2:0:0:
208,303,27648,1,10,0:0:0:0:
289,244,27989,6,0,P|308:198|299:150,1,100,8|2,0:0|0:0,0:0:0:0:
351,65,28671,2,0,L|400:71,1,50,10|0,0:2|0:0,0:0:0:0:
450,78,29012,1,2,0:0:0:0:
494,167,29353,2,0,P|513:212|504:260,1,100,2|2,0:0|0:0,0:0:0:0:
474,301,29864,1,10,0:0:0:0:
474,301,30035,2,0,L|374:288,1,100,10|2,0:2|0:0,0:0:0:0:
297,352,30716,6,0,L|197:364,1,100,8|0,2:3|2:0,0:0:0:0:
105,324,31398,2,0,P|85:278|94:230,1,100,8|0,0:2|2:0,0:0:0:0:
171,166,32080,2,0,L|234:173,1,50,8|8,0:0|0:0,0:0:0:0:
269,181,32421,1,8,0:2:0:0:
361,141,32762,2,0,P|370:92|350:47,1,100,0|0,3:0|0:0,0:0:0:0:
262,0,33444,6,0,L|150:13,1,100,8|2,0:0|0:0,0:0:0:0:
107,95,34125,1,10,0:2:0:0:
179,164,34466,1,2,0:0:0:0:
121,245,34807,2,0,P|72:235|27:255,1,100,2|2,0:0|0:0,0:0:0:0:
5,302,35319,1,10,0:0:0:0:
5,302,35489,1,10,0:2:0:0:
76,371,35830,1,10,0:0:0:0:
167,329,36171,6,0,L|278:342,1,100,10|2,0:0|0:0,0:0:0:0:
333,266,36853,1,10,0:2:0:0:
275,184,37194,1,2,0:0:0:0:
356,126,37534,2,0,P|365:77|345:32,1,100,2|2,0:0|0:0,0:0:0:0:
311,4,38046,1,8,0:0:0:0:
311,4,38216,2,0,L|422:17,1,100,10|10,0:2|0:0,0:0:0:0:
493,72,38898,6,0,P|512:117|503:165,1,100,8|2,0:0|0:0,0:0:0:0:
469,203,39409,1,2,0:0:0:0:
469,203,39580,2,0,L|369:190,1,100,8|10,0:2|0:0,0:0:0:0:
286,134,40262,2,0,L|186:146,1,100,2|2,0:0|0:0,0:0:0:0:
164,190,40773,1,10,0:0:0:0:
164,190,40943,1,10,0:2:0:0:
223,270,41284,1,2,0:0:0:0:
158,346,41625,6,0,P|109:355|64:335,1,100,8|0,2:3|2:0,0:0:0:0:
2,257,42307,2,0,L|15:145,1,100,8|0,0:2|2:0,0:0:0:0:
98,103,42989,1,0,2:0:0:0:
178,162,43330,2,0,L|184:211,2,50,0|0|8,0:0|0:0|0:2,0:0:0:0:
261,105,44012,1,0,0:0:0:0:
350,148,44353,5,10,0:3:0:0:
438,102,44694,2,0,P|447:53|427:8,1,100,2|0,0:0|0:0,0:0:0:0:
329,0,45375,1,8,0:3:0:0:
258,70,45716,2,0,L|158:57,1,100,2|0,0:0|0:0,0:0:0:0:
90,131,46398,1,10,0:3:0:0:
155,207,46739,1,0,0:0:0:0:
82,275,47080,6,0,P|72:323|92:368,2,100,2|2|10,0:0|0:0|0:3,0:0:0:0:
155,207,48103,1,2,0:0:0:0:
237,263,48444,2,0,L|348:276,1,100,2|2,0:0|0:0,0:0:0:0:
413,211,49125,1,2,0:0:0:0:
346,136,49466,1,2,0:0:0:0:
402,53,49807,5,8,0:3:0:0:
318,0,50148,2,0,L|206:13,1,100,2|2,0:0|0:0,0:0:0:0:
166,97,50830,1,10,0:3:0:0:
236,168,51171,2,0,P|245:216|225:261,1,100,2|0,0:0|0:0,0:0:0:0:
146,323,51853,1,2,0:0:0:0:
63,268,52194,1,0,0:0:0:0:
90,173,52534,6,0,L|76:61,1,100,2|0,0:0|0:0,0:0:0:0:
149,3,53216,2,0,P|197:-6|242:13,1,100,2|0,0:0|0:0,0:0:0:0:
302,93,53898,2,0,L|288:204,1,100,2|0,0:0|0:0,0:0:0:0:
234,276,54580,1,10,0:3:0:0:
297,355,54921,1,2,0:0:0:0:
392,320,55262,5,8,0:3:0:0:
388,218,55603,2,0,P|379:169|399:124,1,100,2|2,0:0|0:0,0:0:0:0:
342,41,56284,1,10,0:3:0:0:
249,80,56625,2,0,L|149:67,1,100,2|0,0:0|0:0,0:0:0:0:
85,143,57307,1,10,0:3:0:0:
146,222,57648,1,0,0:0:0:0:
92,306,57989,6,0,P|44:296|-1:316,2,100,2|2|2,0:0|0:0|0:0,0:0:0:0:
170,368,59012,1,2,0:0:0:0:
249,307,59353,2,0,L|262:196,1,100,2|2,0:0|0:0,0:0:0:0:
180,148,60034,1,10,0:3:0:0:
212,54,60375,1,2,0:0:0:0:
312,56,60716,5,4,0:0:0:0:
342,151,61057,2,0,P|390:141|435:161,2,100,2|0|0,0:0|0:0|0:0,0:0:0:0:
273,224,62080,2,0,L|285:323,2,100,2|0|0,0:0|0:0|0:0,0:0:0:0:
186,173,63103,1,2,0:0:0:0:
125,252,63444,6,0,P|77:261|32:242,1,100,2|2,0:0|0:0,0:0:0:0:
0,145,64125,2,0,L|14:33,1,100,2|2,0:0|0:0,0:0:0:0:
104,5,64807,2,0,P|152:-4|197:15,1,100,2|0,0:0|0:0,0:0:0:0:
257,96,65489,1,2,0:0:0:0:
200,178,65830,1,2,0:0:0:0:
265,253,66171,6,0,P|313:262|358:243,1,100,8|2,0:0|0:0,0:0:0:0:
396,209,66682,1,2,0:0:0:0:
396,209,66853,1,10,0:2:0:0:
441,120,67194,2,0,L|434:70,1,50,2|0,0:0|0:0,0:0:0:0:
470,35,67534,2,0,L|358:21,1,100,2|2,0:0|2:0,0:0:0:0:
332,55,68046,1,10,0:0:0:0:
332,55,68216,2,0,L|232:67,1,100,10|0,0:2|0:0,0:0:0:0:
161,137,68898,6,0,P|115:117|67:126,1,100,10|2,0:0|0:0,0:0:0:0:
22,216,69580,1,10,0:2:0:0:
95,283,69921,1,2,0:0:0:0:
182,234,70262,2,0,L|293:247,1,100,2|2,0:0|2:0,0:0:0:0:
322,283,70773,1,10,0:0:0:0:
322,283,70944,1,10,0:2:0:0:
377,200,71284,1,10,0:0:0:0:
318,118,71625,5,8,0:0:0:0:
373,34,71966,2,0,L|422:27,1,50,2|2,0:0|0:0,0:0:0:0:
468,48,72307,2,0,P|487:93|478:141,1,100,10|2,0:2|0:0,0:0:0:0:
398,201,72989,2,0,L|286:187,1,100,2|2,0:0|0:0,0:0:0:0:
261,221,73500,1,10,0:0:0:0:
261,221,73671,1,10,0:2:0:0:
175,169,74012,1,2,0:0:0:0:
97,232,74353,6,0,P|77:277|86:325,1,100,8|0,2:3|2:0,0:0:0:0:
170,379,75034,2,0,L|269:366,1,100,8|0,0:2|2:0,0:0:0:0:
344,300,75716,2,0,P|352:251|333:206,1,100,0|8,0:0|0:0,0:0:0:0:
298,177,76228,1,0,0:0:0:0:
298,177,76398,1,8,0:2:0:0:
337,85,76739,1,0,2:0:0:0:
249,36,77080,6,0,P|201:27|156:46,1,100,8|2,0:0|0:0,0:0:0:0:
118,80,77591,1,10,0:0:0:0:
118,80,77762,1,10,0:2:0:0:
73,169,78103,2,0,L|79:218,1,50,2|0,0:0|0:0,0:0:0:0:
44,254,78444,6,0,P|92:245|137:264,1,100,2|2,0:0|0:0,0:0:0:0:
178,302,78955,1,10,0:0:0:0:
178,302,79125,2,0,L|277:289,1,100,10|0,0:2|0:0,0:0:0:0:
356,351,79807,6,0,P|401:370|449:361,1,100,10|2,0:0|0:0,0:0:0:0:
495,272,80489,1,10,0:2:0:0:
422,205,80830,1,10,0:0:0:0:
335,254,81171,2,0,L|223:240,1,100,2|2,0:0|2:0,0:0:0:0:
203,210,81682,1,10,0:0:0:0:
203,210,81853,1,10,0:2:0:0:
135,285,82193,1,10,0:0:0:0:
40,252,82534,5,2,0:0:0:0:
42,151,82875,2,0,P|22:105|31:57,2,100,2|0|0,0:0|0:0|0:0,0:0:0:0:
128,202,83898,2,0,L|239:188,2,100,2|0|0,0:0|0:0|0:0,0:0:0:0:
40,252,84921,1,0,0:0:0:0:
83,341,85262,6,0,P|128:360|176:351,1,100,2|2,2:0|2:0,0:0:0:0:
252,285,85944,2,0,L|351:297,1,100,2|2,2:0|2:0,0:0:0:0:
429,235,86625,2,0,P|437:186|418:141,1,100,2|0,2:0|2:0,0:0:0:0:
380,116,87137,1,0,2:0:0:0:
380,116,87307,1,2,2:0:0:0:
295,169,87648,1,2,2:0:0:0:
210,115,87989,6,0,L|110:127,1,100,14|2,0:0|0:0,0:0:0:0:
35,193,88671,2,0,L|28:242,1,50,10|2,0:2|0:0,0:0:0:0:
70,271,89012,2,0,L|76:320,1,50,2|2,0:0|0:0,0:0:0:0:
55,366,89353,6,0,P|100:346|148:355,1,100,2|2,0:0|2:0,0:0:0:0:
196,384,89864,1,10,0:0:0:0:
196,384,90034,1,10,0:2:0:0:
242,295,90375,1,2,0:0:0:0:
173,222,90716,6,0,L|179:172,1,50,10|2,0:0|2:0,0:0:0:0:
186,122,91057,1,2,0:0:0:0:
244,41,91398,2,0,P|289:21|337:30,1,100,10|10,0:2|0:0,0:0:0:0:
410,99,92080,6,0,L|402:162,1,50,2|10,0:0|0:2,0:0:0:0:
362,177,92421,2,0,L|369:240,1,50,2|10,2:0|0:0,0:0:0:0:
396,267,92762,2,0,P|350:247|302:256,1,100,10|10,0:2|0:0,0:0:0:0:
235,332,93444,5,10,0:0:0:0:
144,290,93784,1,2,0:0:0:0:
53,331,94125,2,0,L|46:281,1,50,10|2,0:2|0:0,0:0:0:0:
6,251,94466,2,0,L|12:201,1,50,2|2,0:0|0:0,0:0:0:0:
44,163,94807,6,0,P|89:143|137:152,1,100,2|2,0:0|0:0,0:0:0:0:
181,187,95319,1,10,0:0:0:0:
181,187,95489,1,10,0:2:0:0:
269,139,95830,1,2,0:0:0:0:
352,194,96171,6,0,L|358:243,1,50,10|2,0:0|0:0,0:0:0:0:
396,276,96512,2,0,L|388:339,1,50,2|0,0:0|0:0,0:0:0:0:
361,367,96853,2,0,P|406:347|454:356,1,100,10|2,0:2|0:0,0:0:0:0:
512,274,97534,6,0,L|505:224,1,50,10|8,0:0|0:2,0:0:0:0:
465,195,97875,2,0,L|478:83,1,100,2|10,0:0|0:2,0:0:0:0:
394,39,98557,1,0,2:0:0:0:
309,92,98898,6,0,P|260:83|215:102,1,100,14|2,0:0|0:0,0:0:0:0:
147,176,99580,2,0,L|154:239,1,50,10|2,0:2|0:0,0:0:0:0:
196,251,99921,2,0,L|188:314,1,50,2|2,0:0|0:0,0:0:0:0:
210,346,100262,6,0,P|164:326|116:335,1,100,2|2,0:0|2:0,0:0:0:0:
82,372,100773,1,10,0:0:0:0:
82,372,100944,1,8,0:2:0:0:
20,293,101284,1,2,0:0:0:0:
92,223,101625,6,0,L|98:173,1,50,10|2,0:0|0:0,0:0:0:0:
63,137,101966,2,0,L|162:124,1,100,0|10,2:0|0:2,0:0:0:0:
244,68,102648,1,2,0:0:0:0:
322,129,102989,6,0,L|314:192,1,50,2|8,0:0|0:2,0:0:0:0:
310,228,103330,1,2,2:0:0:0:
366,310,103671,2,0,P|414:318|459:299,1,100,10|10,0:2|0:0,0:0:0:0:
512,215,104353,6,0,L|498:103,1,100,2|0,2:0|0:0,0:0:0:0:
409,72,105034,1,2,2:0:0:0:
332,136,105375,1,10,2:3:0:0:
248,80,105716,6,0,P|199:71|154:90,1,100,2|2,2:0|2:0,0:0:0:0:
85,163,106398,2,0,L|97:262,1,100,2|2,2:0|2:0,0:0:0:0:
181,316,107080,6,0,L|174:365,2,50,2|0|0,2:0|2:0|2:0,0:0:0:0:
261,256,107762,1,2,2:0:0:0:
193,182,108103,1,2,2:0:0:0:
257,105,108444,2,0,L|249:41,2,50,2|0|2,2:0|2:0|2:0,0:0:0:0:
333,169,109125,1,2,2:0:0:0:
410,105,109466,1,2,2:0:0:0:
485,171,109807,6,0,L|471:282,1,100,10|0,2:3|2:0,0:0:0:0:
393,332,110489,2,0,P|344:341|299:322,1,100,2|10,2:0|2:3,0:0:0:0:
231,248,111171,1,2,2:0:0:0:
151,308,111512,2,0,L|39:321,2,100,0|2|2,2:0|2:0|2:0,0:0:0:0:
231,248,112534,6,0,P|250:202|240:154,1,100,2|8,2:0|2:3,0:0:0:0:
166,86,113216,1,2,2:0:0:0:
215,0,113557,1,2,2:0:0:0:
315,12,113898,2,0,L|426:25,2,100,2|0|2,2:0|2:0|2:0,0:0:0:0:
215,0,114921,1,2,2:0:0:0:
147,74,115262,6,0,P|101:54|53:64,1,100,10|0,2:3|2:0,0:0:0:0:
0,150,115944,2,0,L|13:261,1,100,2|10,2:0|2:3,0:0:0:0:
103,290,116625,2,0,P|83:335|93:383,2,100,2|2|10,2:0|2:0|2:3,0:0:0:0:
189,238,117648,1,2,2:0:0:0:
271,294,117989,6,0,L|382:307,1,100,2|0,2:0|2:0,0:0:0:0:
456,255,118671,2,0,P|465:206|446:161,1,100,2|0,2:0|2:0,0:0:0:0:
355,117,119353,1,0,2:0:0:0:
284,187,119694,2,0,L|184:199,2,100,0|2|0,2:0|2:0|2:0,0:0:0:0:
355,117,120716,6,0,P|364:68|345:23,1,100,10|0,2:3|2:0,0:0:0:0:
248,0,121398,2,0,L|136:13,1,100,2|10,2:0|2:3,0:0:0:0:
94,96,122080,1,2,2:0:0:0:
160,170,122421,1,2,2:0:0:0:
104,253,122762,2,0,P|55:243|10:262,1,100,10|2,2:3|2:0,0:0:0:0:
25,362,123444,6,0,P|73:371|118:352,2,100,2|0|10,2:0|2:0|2:3,0:0:0:0:
10,262,124466,1,2,2:0:0:0:
79,190,124807,1,2,2:0:0:0:
60,91,125148,1,0,2:0:0:0:
137,27,125489,2,0,L|248:40,1,100,10|2,2:3|2:0,0:0:0:0:
305,111,126171,6,0,P|314:159|295:204,1,100,2|0,2:0|2:0,0:0:0:0:
204,248,126853,1,2,2:0:0:0:
218,349,127194,1,2,2:0:0:0:
319,367,127534,1,2,2:0:0:0:
368,277,127875,2,0,L|479:290,2,100,0|2|2,2:0|2:0|2:0,0:0:0:0:
295,205,128898,6,0,L|183:218,1,100,2|2,2:0|2:0,0:0:0:0:
108,167,129580,2,0,P|88:121|98:73,1,100,2|2,2:0|2:0,0:0:0:0:
173,10,130262,1,2,2:0:0:0:
258,62,130603,2,0,L|369:75,2,100,2|2|0,2:0|2:0|0:0,0:0:0:0:
173,10,131625,6,0,L|73:22,1,100,14|2,0:0|0:0,0:0:0:0:
7,97,132307,2,0,L|0:146,1,50,10|2,0:2|0:0,0:0:0:0:
42,175,132648,2,0,L|48:224,1,50,2|2,0:0|0:0,0:0:0:0:
27,270,132989,6,0,P|72:250|120:259,1,100,2|2,0:0|2:0,0:0:0:0:
164,292,133500,1,10,0:0:0:0:
164,292,133670,1,10,0:2:0:0:
247,236,134011,1,2,0:0:0:0:
316,307,134352,6,0,L|366:313,1,50,10|2,0:0|0:0,0:0:0:0:
416,320,134693,1,2,0:0:0:0:
495,259,135034,2,0,P|515:214|506:166,1,100,10|2,0:2|0:0,0:0:0:0:
437,93,135716,6,0,L|374:101,1,50,2|10,0:0|0:2,0:0:0:0:
359,141,136057,2,0,L|296:134,1,50,2|10,2:0|0:0,0:0:0:0:
265,111,136398,2,0,P|285:157|276:205,1,100,10|10,0:2|0:0,0:0:0:0:
186,245,137080,5,10,0:0:0:0:
211,343,137421,1,2,0:0:0:0:
312,350,137761,2,0,L|362:343,1,50,10|2,0:2|0:0,0:0:0:0:
392,303,138102,2,0,L|442:309,1,50,2|2,0:0|0:0,0:0:0:0:
484,283,138444,6,0,P|504:238|495:190,1,100,2|2,0:0|0:0,0:0:0:0:
465,155,138955,1,10,0:0:0:0:
465,155,139125,1,10,0:2:0:0:
369,187,139466,1,2,0:0:0:0:
294,118,139807,6,0,L|245:124,1,50,10|2,0:0|0:0,0:0:0:0:
212,162,140148,2,0,L|149:154,1,50,2|0,0:0|0:0,0:0:0:0:
119,182,140489,2,0,P|128:133|108:88,1,100,10|2,0:2|0:0,0:0:0:0:
177,16,141170,6,0,L|227:23,1,50,8|0,2:3|0:0,0:0:0:0:
256,63,141512,2,0,L|368:50,1,100,10|10,0:0|0:2,0:0:0:0:
412,134,142193,1,0,0:0:0:0:
359,219,142534,6,0,P|368:268|349:313,1,100,14|2,0:0|0:0,0:0:0:0:
252,286,143216,2,0,L|189:293,1,50,10|2,0:2|0:0,0:0:0:0:
177,335,143557,2,0,L|114:327,1,50,2|2,0:0|0:0,0:0:0:0:
82,349,143898,6,0,P|102:303|93:255,1,100,2|8,0:0|2:3,0:0:0:0:
61,224,144409,1,2,0:0:0:0:
61,224,144580,1,10,0:2:0:0:
125,148,144920,1,2,0:0:0:0:
39,95,145261,6,0,L|33:45,1,50,10|2,0:0|0:0,0:0:0:0:
68,9,145603,2,0,L|167:22,1,100,2|10,0:0|0:2,0:0:0:0:
265,0,146284,1,10,0:0:0:0:
336,70,146625,6,0,L|328:133,1,50,2|10,0:0|0:2,0:0:0:0:
324,169,146966,1,2,2:0:0:0:
239,223,147307,2,0,P|190:215|145:234,1,100,10|8,0:2|0:0,0:0:0:0:
162,333,147989,6,0,P|210:340|255:321,1,100,10|2,0:0|0:0,0:0:0:0:
331,255,148670,1,10,0:2:0:0:
423,291,149011,1,2,0:0:0:0:
488,216,149353,6,0,P|497:167|478:122,1,100,2|10,0:0|0:2,0:0:0:0:
405,53,150034,2,0,L|306:65,1,100,10|2,0:2|0:0,0:0:0:0:
252,149,150716,6,0,L|203:142,2,50,8|0|2,2:3|2:0|2:0,0:0:0:0:
312,229,151398,1,10,2:0:0:0:
386,161,151739,1,2,2:0:0:0:
463,225,152080,2,0,L|527:217,2,50,0|0|0,2:0|0:0|2:0,0:0:0:0:
390,294,152762,1,2,2:0:0:0:
312,229,153103,1,2,2:0:0:0:
228,283,153444,5,4,2:0:0:0:
