osu file format v14

[General]
AudioFilename: audio.mp3
AudioLeadIn: 0
PreviewTime: 88020
Countdown: 0
SampleSet: Drum
StackLeniency: 0.7
Mode: 0
LetterboxInBreaks: 0
WidescreenStoryboard: 1

[Editor]
DistanceSpacing: 2.2
BeatDivisor: 4
GridSize: 16
TimelineZoom: 1

[Metadata]
Title:Obedient
TitleUnicode:Obedient
Artist:bladee & ECCO2K
ArtistUnicode:bladee & ECCO2K
Creator:Fixxis
Version:VINXIS' Insane
Source:
Tags:Rap Hip-Hop Drain Gang Black Man Vinxis Synderes Frostwich Xenon- Xehn Xen mishima yurara Hip Hop English Amity
BeatmapID:2466705
BeatmapSetID:1170997

[Difficulty]
HPDrainRate:5
CircleSize:4
OverallDifficulty:8
ApproachRate:9
SliderMultiplier:1.4
SliderTickRate:1

[Events]
//Background and Video events
0,0,"fixxis_2.jpg",0,0
//Break Periods
2,82734,87389
2,104553,109207
//Storyboard Layer 0 (Background)
//Storyboard Layer 1 (Fail)
//Storyboard Layer 2 (Pass)
//Storyboard Layer 3 (Foreground)
//Storyboard Layer 4 (Overlay)
//Storyboard Sound Samples

[TimingPoints]
22535,340.909090909091,4,3,1,60,1,0
22535,-83.3333333333333,4,3,1,60,0,0
44353,-166.666666666667,4,2,1,30,0,0
53898,-250.000000000001,4,2,1,30,0,0
54580,-166.666666666667,4,2,1,30,0,0
55177,-166.666666666667,4,2,1,5,0,0
55262,-166.666666666667,4,2,1,30,0,0
60631,-166.666666666667,4,2,1,5,0,0
60716,-166.666666666667,4,2,1,30,0,0
63444,-166.666666666667,4,2,1,30,0,0
64125,-125,4,2,1,30,0,0
64807,-100,4,2,1,30,0,0
66000,-100,4,3,1,5,0,0
66171,-83.3333333333333,4,3,1,60,0,0
75972,-83.3333333333333,4,3,1,5,0,0
76057,-83.3333333333333,4,3,1,60,0,0
85262,-83.3333333333333,4,3,1,30,0,0
87989,-66.6666666666667,4,3,1,70,0,0
90290,-66.6666666666667,4,3,1,5,0,0
90375,-66.6666666666667,4,3,1,70,0,0
95745,-66.6666666666667,4,3,1,5,0,0
95830,-66.6666666666667,4,3,1,70,0,0
104353,-66.6666666666667,4,3,1,40,0,0
109807,-166.666666666667,4,3,1,40,0,0
119353,-250.000000000001,4,3,1,40,0,0
120034,-166.666666666667,4,3,1,40,0,0
131625,-66.6666666666667,4,3,1,70,0,0
133925,-66.6666666666667,4,3,1,5,0,0
134010,-66.6666666666667,4,3,1,70,0,0
139381,-66.6666666666667,4,3,1,5,0,0
139466,-66.6666666666667,4,3,1,70,0,0
144836,-66.6666666666667,4,3,1,5,0,0
144921,-66.6666666666667,4,3,1,70,0,0
147563,-66.6666666666667,4,3,1,5,0,0
147648,-66.6666666666667,4,3,1,70,0,0
150290,-66.6666666666667,4,3,1,5,0,0
150375,-66.6666666666667,4,3,1,70,0,0

[Colours]
Combo1 : 98,98,255
Combo2 : 0,64,128
Combo3 : 192,192,192

[HitObjects]
145,318,22535,6,0,P|153:268|149:227,1,83.9999974365235,8|8,0:0|0:2,0:0:0:0:
150,234,22875,1,2,0:0:0:0:
323,206,23046,1,8,2:3:0:0:
323,206,23216,2,0,L|227:209,1,83.9999974365235,10|0,0:2|0:0,0:0:0:0:
139,132,23557,2,0,L|136:48,1,83.9999974365235,10|0,0:0|0:0,0:0:0:0:
66,0,23898,5,2,0:0:0:0:
66,0,24069,1,8,0:2:0:0:
228,43,24239,2,0,L|230:126,1,83.9999974365235,2|10,0:0|0:0,0:0:0:0:
131,308,24580,2,0,P|119:226|138:141,1,167.999994873047,10|2,0:2|0:0,0:0:0:0:
136,143,25091,1,0,0:0:0:0:
381,76,25262,6,0,P|393:158|374:243,1,167.999994873047,10|2,0:0|0:0,0:0:0:0:
375,240,25773,1,2,0:0:0:0:
491,288,25944,1,10,0:2:0:0:
131,308,26284,1,10,0:0:0:0:
491,288,26625,6,0,L|501:195,1,83.9999974365235,2|8,0:0|0:2,0:0:0:0:
430,147,26966,1,2,2:0:0:0:
505,71,27137,1,10,0:0:0:0:
406,15,27307,2,0,P|346:14|235:39,1,167.999994873047,10|10,0:2|0:0,0:0:0:0:
240,36,27819,1,0,0:0:0:0:
299,211,27989,6,0,P|303:156|294:117,1,83.9999974365235,8|8,0:0|0:2,0:0:0:0:
139,16,28330,1,2,0:0:0:0:
139,16,28671,2,0,L|143:108,1,83.9999974365235,10|0,0:2|0:0,0:0:0:0:
21,218,29012,1,2,0:0:0:0:
21,218,29353,6,0,P|78:223|106:221,1,83.9999974365235,2|8,0:0|0:2,0:0:0:0:
294,151,29694,2,0,P|252:149|210:154,1,83.9999974365235,2|10,0:0|0:0,0:0:0:0:
331,313,30034,2,0,P|434:320|505:315,1,167.999994873047,10|2,0:2|0:0,0:0:0:0:
498,315,30546,1,8,0:2:0:0:
194,289,30716,5,8,2:3:0:0:
194,289,31057,1,0,2:0:0:0:
318,95,31398,5,8,0:2:0:0:
318,95,31739,1,0,2:0:0:0:
318,289,32080,5,8,0:0:0:0:
289,192,32250,1,8,0:0:0:0:
318,289,32421,2,0,L|308:388,1,83.9999974365235,8|0,0:2|0:0,0:0:0:0:
185,372,32762,2,0,L|195:273,1,83.9999974365235,0|0,3:0|0:0,0:0:0:0:
193,288,33103,1,0,0:0:0:0:
193,288,33444,5,8,0:0:0:0:
135,208,33614,2,0,L|149:106,1,83.9999974365235,8|2,0:2|0:0,0:0:0:0:
146,124,33955,1,2,2:0:0:0:
323,69,34125,2,0,P|281:68|241:55,1,83.9999974365235,10|0,0:2|0:0,0:0:0:0:
343,188,34466,2,0,P|384:188|424:201,1,83.9999974365235,2|0,0:0|0:0,0:0:0:0:
501,147,34807,5,2,0:0:0:0:
501,147,34978,1,8,0:2:0:0:
465,362,35148,2,0,L|461:267,1,83.9999974365235,2|10,0:0|0:0,0:0:0:0:
341,175,35489,2,0,P|363:256|348:338,1,167.999994873047,10|10,0:2|0:0,0:0:0:0:
348,337,36000,1,8,0:2:0:0:
170,208,36171,6,0,P|148:127|164:46,1,167.999994873047,10|2,0:0|0:0,0:0:0:0:
163,46,36682,1,0,0:0:0:0:
27,20,36853,1,10,0:2:0:0:
357,21,37194,1,2,0:0:0:0:
27,20,37534,6,0,L|35:106,2,83.9999974365235,2|8|2,0:0|0:2|0:0,0:0:0:0:
145,12,38046,1,8,0:0:0:0:
179,252,38216,2,0,P|138:178|129:95,1,167.999994873047,10|10,0:2|0:0,0:0:0:0:
145,12,38728,1,8,0:2:0:0:
21,192,38898,6,0,P|62:266|71:349,1,167.999994873047,8|2,0:0|0:0,0:0:0:0:
160,368,39409,1,2,0:0:0:0:
215,214,39580,2,0,L|222:298,1,83.9999974365235,8|2,0:2|0:0,0:0:0:0:
316,163,39921,2,0,L|322:246,1,83.9999974365235,10|0,0:0|0:0,0:0:0:0:
436,274,40262,6,0,P|422:185|435:90,1,167.999994873047,2|2,0:0|0:0,0:0:0:0:
490,40,40773,1,10,0:0:0:0:
316,15,40944,1,10,0:2:0:0:
349,317,41284,1,2,0:0:0:0:
70,316,41625,5,8,2:3:0:0:
70,316,42307,1,8,0:2:0:0:
70,316,43671,1,8,0:2:0:0:
70,316,44353,6,0,B|183:301|124:353|234:331,1,167.999994873047,10|0,0:3|0:0,0:0:0:0:
433,288,45375,2,0,P|319:238|196:251,1,251.999992309571,8|10,0:3|0:3,0:0:0:0:
196,251,47080,6,0,P|201:184|178:80,1,167.999994873047,2|10,0:0|0:3,0:0:0:0:
282,12,48103,2,0,P|284:79|331:264,1,251.999992309571,2|2,0:0|0:0,0:0:0:0:
329,258,49807,6,0,B|221:238|282:297|165:273,1,167.999994873047,8|2,0:3|0:0,0:0:0:0:
89,328,50830,2,0,P|57:279|58:87,1,251.999992309571,10|2,0:3|0:0,0:0:0:0:
55,91,53898,6,0,L|110:88,1,56,0|0,0:0|0:0,0:0:0:0:
183,147,54580,6,0,B|235:152|235:152|250:144|250:144|309:149,1,125.999996154785,10|0,0:3|0:0,0:0:0:0:
307,149,55262,6,0,B|351:251|283:213|327:312,1,167.999994873047,8|2,0:3|0:0,0:0:0:0:
251,365,56284,2,0,P|214:331|20:284,1,251.999992309571,10|10,0:3|0:3,0:0:0:0:
24,283,57989,6,0,P|98:277|171:203,1,167.999994873047,2|2,0:0|0:0,0:0:0:0:
165,216,60034,2,0,P|239:222|312:296,1,167.999994873047,10|4,0:3|0:0,0:0:0:0:
306,283,63444,6,0,L|364:276,1,41.9999987182618,2|0,0:0|0:0,0:0:0:0:
246,350,63784,2,0,L|188:343,1,41.9999987182618,2|0,0:0|0:0,0:0:0:0:
121,267,64125,6,0,L|63:274,1,56,2|0,0:0|0:0,0:0:0:0:
181,200,64466,2,0,L|239:207,1,56,2|0,0:0|0:0,0:0:0:0:
96,135,64807,5,2,0:0:0:0:
375,92,65148,1,0,0:0:0:0:
375,92,65319,1,0,0:0:0:0:
375,92,65489,1,2,0:0:0:0:
96,135,65830,1,2,0:0:0:0:
375,92,66171,6,0,P|381:155|377:203,1,83.9999974365235,8|8,0:0|0:2,0:0:0:0:
424,270,66512,1,2,0:0:0:0:
322,281,66682,1,2,0:0:0:0:
147,197,66853,1,10,0:2:0:0:
249,208,67023,1,2,0:0:0:0:
152,369,67194,2,0,L|59:357,1,83.9999974365235,2|0,0:0|0:0,0:0:0:0:
17,286,67534,5,2,0:0:0:0:
17,286,67705,1,8,0:2:0:0:
117,198,67875,2,0,L|104:286,1,83.9999974365235,2|10,2:0|0:0,0:0:0:0:
210,180,68216,2,0,P|198:107|202:3,1,167.999994873047,10|0,0:2|0:0,0:0:0:0:
200,13,68728,1,8,0:2:0:0:
302,204,68898,6,0,P|314:277|310:381,1,167.999994873047,10|2,0:0|0:0,0:0:0:0:
311,370,69410,1,0,0:0:0:0:
200,384,69580,1,10,0:2:0:0:
456,366,69921,1,2,0:0:0:0:
200,384,70262,6,0,L|201:269,1,83.9999974365235,2|8,0:0|0:2,0:0:0:0:
143,218,70603,1,2,2:0:0:0:
264,237,70773,1,10,0:0:0:0:
39,322,70944,2,0,P|39:258|24:134,1,167.999994873047,10|10,0:2|0:0,0:0:0:0:
27,154,71455,1,8,0:2:0:0:
122,36,71625,6,0,L|113:126,1,83.9999974365235,8|8,0:0|0:2,0:0:0:0:
164,212,71966,1,2,0:0:0:0:
164,212,72137,1,2,0:0:0:0:
253,62,72307,1,10,0:2:0:0:
253,62,72478,1,2,0:0:0:0:
295,238,72648,1,2,0:0:0:0:
295,238,72819,1,0,0:0:0:0:
384,88,72989,6,0,L|375:178,1,83.9999974365235,2|8,0:0|0:2,0:0:0:0:
452,310,73330,2,0,P|453:254|462:218,1,83.9999974365235,2|10,0:0|0:0,0:0:0:0:
353,314,73671,2,0,P|268:347|172:348,1,167.999994873047,10|2,0:2|0:0,0:0:0:0:
192,350,74182,1,8,0:2:0:0:
164,212,74353,5,8,2:3:0:0:
164,212,74694,1,0,2:0:0:0:
348,172,75034,5,8,0:2:0:0:
348,172,75375,1,0,2:0:0:0:
238,47,75716,5,0,0:0:0:0:
238,47,76057,2,0,L|240:149,1,83.9999974365235,8|0,0:0|0:0,0:0:0:0:
164,212,76398,1,8,0:2:0:0:
164,212,76739,1,0,2:0:0:0:
164,212,77080,6,0,P|215:233|260:235,1,83.9999974365235,8|8,0:0|0:2,0:0:0:0:
212,356,77421,2,0,P|174:338|132:332,1,83.9999974365235,2|10,0:0|0:0,0:0:0:0:
45,368,77762,1,10,0:2:0:0:
67,263,77932,1,0,0:0:0:0:
67,263,78103,2,0,L|68:167,1,83.9999974365235,2|0,0:0|0:0,0:0:0:0:
156,49,78444,6,0,P|150:95|165:191,1,125.999996154785,2|0,0:0|0:0,0:0:0:0:
159,173,78784,2,0,L|249:174,1,83.9999974365235,2|10,0:0|0:0,0:0:0:0:
352,290,79125,2,0,L|262:289,1,83.9999974365235,10|0,0:2|0:0,0:0:0:0:
350,185,79466,1,0,0:0:0:0:
257,201,79637,1,8,0:2:0:0:
439,165,79807,6,0,P|439:81|460:0,1,167.999994873047,10|2,0:0|0:0,0:0:0:0:
193,0,80489,2,0,P|192:83|171:164,1,167.999994873047,10|10,0:2|0:0,0:0:0:0:
220,239,81000,1,0,0:0:0:0:
78,197,81171,6,0,L|93:89,1,83.9999974365235,2|8,0:0|0:2,0:0:0:0:
42,34,81512,1,2,2:0:0:0:
163,4,81682,1,10,0:0:0:0:
14,50,81853,2,0,L|3:133,1,83.9999974365235,10|0,0:2|0:0,0:0:0:0:
75,226,82194,1,10,0:0:0:0:
187,194,82364,1,0,0:0:0:0:
295,237,82534,5,0,0:0:0:0:
187,72,87989,6,0,P|176:126|183:186,1,105.000004005432,14|8,0:0|0:2,0:0:0:0:
98,228,88330,2,0,P|115:280|151:328,1,105.000004005432,2|0,0:0|0:0,0:0:0:0:
421,328,88671,1,10,0:2:0:0:
421,328,89012,2,0,L|429:221,1,105.000004005432,2|2,0:0|0:0,0:0:0:0:
492,162,89353,5,2,0:0:0:0:
492,162,89523,1,10,0:2:0:0:
357,155,89694,1,2,2:0:0:0:
364,20,89864,1,10,0:0:0:0:
503,31,90034,1,10,0:2:0:0:
503,31,90375,1,2,0:0:0:0:
438,103,90546,1,8,0:2:0:0:
505,185,90716,6,0,P|497:273|487:316,1,105.000004005432,10|2,0:0|2:0,0:0:0:0:
327,348,91057,2,0,P|335:260|345:217,1,105.000004005432,2|8,0:0|0:0,0:0:0:0:
422,78,91398,2,0,P|414:166|404:209,1,105.000004005432,10|0,0:2|0:0,0:0:0:0:
244,241,91739,2,0,P|252:153|262:110,1,105.000004005432,10|0,0:0|0:0,0:0:0:0:
330,77,92080,5,2,0:0:0:0:
242,23,92250,1,10,0:2:0:0:
150,72,92421,2,0,L|45:79,1,105.000004005432,2|10,2:0|0:0,0:0:0:0:
54,167,92762,2,0,L|158:159,1,105.000004005432,10|0,0:2|0:0,0:0:0:0:
259,253,93103,1,10,0:0:0:0:
301,119,93273,1,8,0:2:0:0:
398,198,93444,6,0,P|400:261|388:309,1,105.000004005432,10|8,0:0|0:2,0:0:0:0:
496,136,93784,2,0,P|494:73|506:25,1,105.000004005432,2|0,0:0|0:0,0:0:0:0:
382,0,94125,2,0,P|311:28|206:25,1,157.500006008148,10|0,0:2|0:0,0:0:0:0:
230,30,94466,2,0,P|227:113|231:157,1,105.000004005432,2|2,0:0|0:0,0:0:0:0:
309,207,94807,5,2,0:0:0:0:
195,236,94978,1,10,0:2:0:0:
338,321,95148,1,2,0:0:0:0:
224,350,95319,1,10,0:0:0:0:
136,383,95489,2,0,P|75:365|36:225,1,210.000008010865,10|2,0:2|0:0,0:0:0:0:
31,237,96000,1,8,0:2:0:0:
152,165,96171,6,0,P|150:218|138:269,1,105.000004005432,10|2,0:0|0:0,0:0:0:0:
301,194,96512,2,0,P|288:143|286:90,1,105.000004005432,2|0,0:0|0:0,0:0:0:0:
414,54,96853,2,0,P|461:151|465:278,1,210.000008010865,10|2,0:2|0:0,0:0:0:0:
469,252,97534,6,0,P|462:187|474:122,1,105.000004005432,10|8,0:0|0:2,0:0:0:0:
369,73,97875,1,2,0:0:0:0:
469,37,98046,1,0,0:0:0:0:
257,10,98216,1,10,0:2:0:0:
281,298,98557,1,0,2:0:0:0:
257,10,98898,5,14,0:0:0:0:
146,68,99069,1,8,0:2:0:0:
278,17,99239,2,0,P|283:70|281:138,1,105.000004005432,2|8,0:0|0:0,0:0:0:0:
342,207,99580,1,10,0:2:0:0:
342,207,99750,1,2,0:0:0:0:
492,118,99921,2,0,L|387:121,1,105.000004005432,2|2,0:0|0:0,0:0:0:0:
211,197,100262,6,0,L|106:193,1,105.000004005432,2|8,0:0|0:2,0:0:0:0:
34,118,100603,2,0,P|29:68|37:13,1,105.000004005432,2|10,2:0|0:0,0:0:0:0:
112,176,100944,2,0,P|114:254|59:373,1,210.000008010865,8|2,0:2|0:0,0:0:0:0:
59,371,101455,1,8,0:2:0:0:
222,226,101625,6,0,L|209:330,1,105.000004005432,10|2,0:0|0:0,0:0:0:0:
330,229,101966,2,0,L|318:334,1,105.000004005432,0|0,2:0|0:0,0:0:0:0:
428,384,102307,2,0,P|426:306|481:187,1,210.000008010865,10|2,0:2|0:0,0:0:0:0:
252,3,102989,6,0,P|254:81|199:200,1,210.000008010865,2|2,0:0|2:0,0:0:0:0:
229,292,103500,1,8,0:0:0:0:
102,237,103671,2,0,P|99:185|122:125,1,105.000004005432,10|0,0:2|0:0,0:0:0:0:
319,148,104012,1,10,0:0:0:0:
260,280,104182,1,8,0:2:0:0:
445,239,104353,5,2,2:0:0:0:
445,239,109807,6,0,P|371:222|252:335,1,251.999992309571,10|10,2:3|2:3,0:0:0:0:
38,87,112534,5,2,2:0:0:0:
38,87,112875,2,0,L|126:95,1,83.9999974365235,8|2,2:3|2:0,0:0:0:0:
457,148,114239,2,0,L|369:156,1,83.9999974365235,0|2,2:0|2:0,0:0:0:0:
37,315,115262,5,10,2:3:0:0:
37,315,116284,2,0,P|104:313|184:156,1,251.999992309571,10|10,2:3|2:3,0:0:0:0:
187,167,119353,6,0,L|248:163,1,56,0|0,2:0|2:0,0:0:0:0:
359,89,120034,6,0,L|276:78,1,83.9999974365235,2|0,2:0|0:0,0:0:0:0:
332,242,120716,6,0,B|398:236|398:236|431:243|431:243|506:234,1,167.999994873047,10|2,2:3|2:0,0:0:0:0:
509,16,121739,2,0,P|448:86|445:173,1,167.999994873047,10|2,2:3|2:0,0:0:0:0:
255,357,122762,2,0,P|315:286|319:200,1,167.999994873047,10|2,2:3|2:0,0:0:0:0:
376,151,123784,5,0,2:0:0:0:
268,67,124125,1,10,2:3:0:0:
408,13,124466,1,2,2:0:0:0:
202,11,124807,5,2,2:0:0:0:
202,11,125148,1,0,2:0:0:0:
361,86,125489,1,10,2:3:0:0:
361,86,125830,1,2,2:0:0:0:
224,254,126171,5,2,2:0:0:0:
224,254,130262,6,0,P|240:226|231:92,1,167.999994873047,2|2,2:0|2:0,0:0:0:0:
233,95,131625,6,0,P|302:103|356:90,1,105.000004005432,14|8,0:0|0:2,0:0:0:0:
218,221,131966,2,0,P|166:214|114:222,1,105.000004005432,2|0,0:0|0:0,0:0:0:0:
414,156,132307,1,10,0:2:0:0:
414,156,132648,2,0,L|424:272,1,105.000004005432,2|2,0:0|0:0,0:0:0:0:
489,326,132989,5,2,0:0:0:0:
375,352,133159,1,10,0:2:0:0:
284,274,133330,1,2,2:0:0:0:
223,384,133500,1,10,0:0:0:0:
223,384,133671,2,8,L|118:380,1,105.000004005432,10|0,0:2|0:0,0:0:0:0:
22,310,134012,2,8,P|16:257|25:205,1,105.000004005432,2|8,0:0|0:2,0:0:0:0:
162,77,134353,6,0,P|158:166|135:289,1,210.000008010865,10|2,0:0|0:0,0:0:0:0:
136,284,134864,1,0,0:0:0:0:
228,347,135034,2,0,L|335:338,1,105.000004005432,10|0,0:2|0:0,0:0:0:0:
365,219,135375,2,0,L|260:227,1,105.000004005432,2|0,0:0|0:0,0:0:0:0:
155,167,135716,5,2,0:0:0:0:
200,71,135887,1,10,0:2:0:0:
104,26,136057,1,2,2:0:0:0:
59,122,136228,1,10,0:0:0:0:
253,151,136398,2,0,P|319:161|464:139,1,210.000008010865,10|10,0:2|0:0,0:0:0:0:
459,140,136909,1,8,0:2:0:0:
512,251,137080,6,0,L|407:265,1,105.000004005432,10|8,0:0|0:2,0:0:0:0:
309,278,137421,2,0,L|323:382,1,105.000004005432,2|0,0:0|0:0,0:0:0:0:
353,189,137762,2,0,P|360:122|331:25,1,157.500006008148,10|0,0:2|0:0,0:0:0:0:
336,35,138103,2,0,P|409:47|457:47,1,105.000004005432,2|2,0:0|0:0,0:0:0:0:
229,8,138444,5,2,0:0:0:0:
251,108,138614,1,2,0:0:0:0:
129,30,138784,1,2,0:0:0:0:
151,130,138955,1,10,0:0:0:0:
101,209,139125,2,0,L|101:327,1,105.000004005432,10|0,0:2|0:0,0:0:0:0:
169,362,139466,1,2,0:0:0:0:
46,384,139637,1,8,0:2:0:0:
200,353,139807,6,0,P|272:338|422:335,1,210.000008010865,10|2,0:0|0:0,0:0:0:0:
251,108,140489,2,0,P|179:123|29:126,1,210.000008010865,10|2,0:2|0:0,0:0:0:0:
44,128,141171,6,0,P|108:136|158:175,1,105.000004005432,8|0,2:3|0:0,0:0:0:0:
218,229,141512,2,0,P|210:293|171:343,1,105.000004005432,10|2,0:0|2:0,0:0:0:0:
16,330,141853,1,10,0:2:0:0:
262,365,142194,1,0,0:0:0:0:
508,330,142534,5,14,0:0:0:0:
369,305,142705,1,8,0:2:0:0:
238,360,142875,2,0,P|164:365|11:347,1,210.000008010865,2|10,0:0|0:2,0:0:0:0:
8,259,143387,1,2,0:0:0:0:
102,200,143557,1,2,0:0:0:0:
81,108,143727,1,2,0:0:0:0:
151,42,143898,6,0,P|202:53|261:51,1,105.000004005432,2|8,0:0|0:2,0:0:0:0:
340,104,144239,1,8,2:3:0:0:
327,4,144409,1,2,0:0:0:0:
446,43,144580,1,10,0:2:0:0:
446,43,144921,1,2,0:0:0:0:
357,87,145091,1,8,0:2:0:0:
446,43,145262,6,0,P|446:112|429:203,1,157.500006008148,10|0,0:0|0:0,0:0:0:0:
430,198,145603,2,0,L|311:202,1,105.000004005432,2|0,0:0|0:0,0:0:0:0:
173,210,145944,2,0,P|173:279|190:370,1,157.500006008148,10|0,0:2|0:0,0:0:0:0:
188,365,146285,2,0,L|307:368,1,105.000004005432,10|0,0:0|0:0,0:0:0:0:
307,194,146625,5,2,0:0:0:0:
187,195,146796,1,10,0:2:0:0:
67,197,146966,2,0,P|59:121|75:67,1,105.000004005432,2|8,2:0|0:3,0:0:0:0:
200,206,147307,2,0,P|219:134|204:1,1,210.000008010865,10|8,0:2|0:0,0:0:0:0:
203,0,147819,1,0,0:0:0:0:
330,0,147989,6,0,L|322:111,1,105.000004005432,10|0,0:0|0:0,0:0:0:0:
424,149,148330,2,0,L|416:260,1,105.000004005432,2|0,0:0|0:0,0:0:0:0:
512,302,148671,1,10,0:2:0:0:
512,302,148841,1,2,0:0:0:0:
339,309,149012,1,2,0:0:0:0:
339,309,149182,1,2,0:0:0:0:
166,316,149353,6,0,L|46:309,1,105.000004005432,2|0,0:0|0:0,0:0:0:0:
259,166,149694,2,0,P|258:218|249:270,1,105.000004005432,10|10,0:2|0:0,0:0:0:0:
3,242,150034,1,10,0:2:0:0:
3,242,150375,1,2,0:0:0:0:
80,190,150546,1,8,0:2:0:0:
11,126,150716,6,0,P|11:73|22:13,2,105.000004005432,8|0|2,2:3|2:0|2:0,0:0:0:0:
260,261,151398,1,10,2:0:0:0:
260,261,151739,1,2,2:0:0:0:
501,126,152080,5,0,2:0:0:0:
407,97,152250,1,0,0:0:0:0:
479,29,152421,1,0,2:0:0:0:
260,261,152762,1,2,2:0:0:0:
260,261,153103,1,2,2:0:0:0:
256,0,153444,5,4,2:0:0:0:
