osu file format v14

[General]
AudioFilename: audio.mp3
AudioLeadIn: 0
PreviewTime: 88020
Countdown: 0
SampleSet: Drum
StackLeniency: 0.9
Mode: 0
LetterboxInBreaks: 0
WidescreenStoryboard: 1

[Editor]
Bookmarks: 44394,60757,66202,82575,109848,120757,131666,153485
DistanceSpacing: 2.5
BeatDivisor: 4
GridSize: 16
TimelineZoom: 3.099999

[Metadata]
Title:Obedient
TitleUnicode:Obedient
Artist:bladee & ECCO2K
ArtistUnicode:bladee & ECCO2K
Creator:Fixxis
Version:frostwich's Hard
Source:
Tags:Rap Hip-Hop Drain Gang Black Man Vinxis Synderes Frostwich Xenon- Xehn Xen mishima yurara Hip Hop English Amity
BeatmapID:2460849
BeatmapSetID:1170997

[Difficulty]
HPDrainRate:4
CircleSize:3.5
OverallDifficulty:6
ApproachRate:8
SliderMultiplier:1.4
SliderTickRate:1

[Events]
//Background and Video events
0,0,"fixxis_2.jpg",0,0
//Break Periods
2,60916,65421
2,82734,86898
2,110007,119966
//Storyboard Layer 0 (Background)
//Storyboard Layer 1 (Fail)
//Storyboard Layer 2 (Pass)
//Storyboard Layer 3 (Foreground)
//Storyboard Layer 4 (Overlay)
//Storyboard Sound Samples

[TimingPoints]
22535,340.909090909091,4,3,1,60,1,0
31398,-142.857142857143,4,3,1,60,0,0
32762,-100,4,3,1,60,0,0
43671,-150,4,3,1,60,0,0
44353,-150,4,2,1,30,0,0
44363,-133.333333333333,4,2,1,30,0,0
46398,-100,4,2,1,30,0,0
47080,-133.333333333333,4,2,1,30,0,0
52194,-400,4,2,1,30,0,0
54921,-133.333333333333,4,2,1,30,0,0
55177,-133.333333333333,4,2,1,5,0,0
55187,-133.333333333333,4,2,1,5,0,0
55262,-133.333333333333,4,2,1,30,0,0
57307,-100,4,2,1,30,0,0
57989,-133.333333333333,4,2,1,30,0,0
60631,-133.333333333333,4,2,1,5,0,0
60641,-133.333333333333,4,2,1,5,0,0
60716,-133.333333333333,4,2,1,30,0,0
66000,-133.333333333333,4,3,1,5,0,0
66010,-100,4,3,1,5,0,0
66171,-100,4,3,1,60,0,0
75034,-142.857142857143,4,3,1,60,0,0
75972,-200,4,3,1,5,0,0
75982,-200,4,3,1,5,0,0
76057,-142.857142857143,4,3,1,60,0,0
76398,-100,4,3,1,60,0,0
85262,-100,4,3,1,30,0,0
85272,-100,4,3,1,30,0,0
87648,-125,4,3,1,30,0,0
87989,-90.9090909090909,4,3,1,70,0,0
90290,-90.9090909090909,4,3,1,5,0,0
90300,-90.9090909090909,4,3,1,5,0,0
90375,-90.9090909090909,4,3,1,70,0,0
95745,-90.9090909090909,4,3,1,5,0,0
95755,-90.9090909090909,4,3,1,5,0,0
95830,-90.9090909090909,4,3,1,70,0,0
104353,-100,4,3,1,40,0,0
104694,-133.333333333333,4,3,1,40,0,0
106398,-133.333333333333,4,3,1,40,0,0
108784,-133.333333333333,4,3,1,40,0,0
109807,-100,4,3,1,40,0,0
120716,-133.333333333333,4,3,1,40,0,0
122762,-100,4,3,1,40,0,0
123444,-133.333333333333,4,3,1,40,0,0
126853,-133.333333333333,4,3,1,40,0,0
131625,-90.9090909090909,4,3,1,70,0,0
133925,-90.9090909090909,4,3,1,5,0,0
134010,-90.9090909090909,4,3,1,70,0,0
134012,-90.9090909090909,4,3,1,70,0,0
139381,-90.9090909090909,4,3,1,5,0,0
139466,-90.9090909090909,4,3,1,70,0,0
144836,-90.9090909090909,4,3,1,5,0,0
144921,-90.9090909090909,4,3,1,70,0,0
147563,-90.9090909090909,4,3,1,5,0,0
147648,-90.9090909090909,4,3,1,70,0,0
150290,-90.9090909090909,4,3,1,5,0,0
150375,-90.9090909090909,4,3,1,70,0,0
151398,-125,4,3,1,70,0,0
152762,-125,4,3,1,70,0,0
153444,-83.3333333333333,4,3,1,70,0,0

[Colours]
Combo1 : 98,98,255
Combo2 : 0,64,128
Combo3 : 192,192,192

[HitObjects]
56,32,22535,6,0,P|58:116|51:204,1,140,8|2,0:0|0:0,0:0:0:0:
42,262,23046,1,8,2:3:0:0:
99,336,23216,2,0,B|138:330|138:330|189:337,1,70,10|0,0:2|0:0,0:0:0:0:
240,274,23557,2,0,P|281:284|317:385,2,140,10|2|2,0:0|0:0|0:0,0:0:0:0:
176,212,24409,1,10,0:0:0:0:
219,128,24580,6,0,P|248:98|251:26,1,105,10|0,0:2|0:0,0:0:0:0:
266,37,24921,2,0,P|298:42|347:44,1,70,2|0,0:0|0:0,0:0:0:0:
388,127,25262,6,0,B|449:95|449:95|529:154,1,140,10|2,0:0|0:0,0:0:0:0:
506,222,25773,1,2,0:0:0:0:
451,296,25944,2,0,P|414:299|357:282,1,70,10|0,0:2|0:0,0:0:0:0:
291,253,26284,2,0,P|312:220|355:179,1,70,10|0,0:0|0:0,0:0:0:0:
303,122,26625,6,0,P|342:158|447:146,1,140,2|2,0:0|2:0,0:0:0:0:
498,207,27137,1,10,0:0:0:0:
503,114,27307,2,0,B|508:80|508:80|499:23,1,70,10|0,0:2|0:0,0:0:0:0:
396,6,27648,2,0,L|405:89,1,70,10|0,0:0|0:0,0:0:0:0:
321,95,27989,5,8,0:0:0:0:
321,95,28159,1,8,0:2:0:0:
239,39,28330,2,0,P|139:46|80:57,1,140,2|10,0:0|0:2,0:0:0:0:
31,133,28841,1,0,0:0:0:0:
92,195,29012,2,0,P|92:232|91:289,1,70,2|0,0:0|0:0,0:0:0:0:
38,370,29353,2,0,B|73:364|73:364|112:372,1,70,2|8,0:0|0:2,0:0:0:0:
195,330,29694,1,2,0:0:0:0:
289,373,29864,1,10,0:0:0:0:
352,309,30034,2,0,B|441:284|438:336|515:321,1,140,10|2,0:2|0:0,0:0:0:0:
488,323,30716,5,8,2:3:0:0:
408,180,31398,2,0,P|374:189|308:217,2,97.9999970092774,8|0|8,0:2|2:0|0:0,0:0:0:0:
508,192,32250,1,8,0:0:0:0:
481,116,32421,2,0,P|483:92|485:60,1,48.9999985046387,8|0,0:2|0:0,0:0:0:0:
419,6,32762,6,0,P|392:52|292:101,1,140,0|0,3:0|0:0,0:0:0:0:
238,139,33273,1,0,2:0:0:0:
306,204,33444,5,8,0:0:0:0:
306,204,33614,1,8,0:2:0:0:
258,278,33784,2,0,P|235:316|219:347,1,70,2|2,0:0|2:0,0:0:0:0:
152,292,34125,2,0,P|102:253|98:178,2,140,10|2|2,0:2|0:0|0:0,0:0:0:0:
186,208,34978,1,8,0:2:0:0:
162,116,35148,2,0,B|168:78|168:78|155:39,1,70,2|10,0:0|0:0,0:0:0:0:
238,18,35489,2,0,B|312:13|308:51|394:40,1,140,10|10,0:2|0:0,0:0:0:0:
449,107,36000,1,8,0:2:0:0:
361,152,36171,6,0,P|323:166|287:176,1,70,10|0,0:0|0:0,0:0:0:0:
412,232,36512,2,0,P|422:288|434:359,1,105,2|0,0:0|0:0,0:0:0:0:
431,362,36853,2,0,P|394:358|356:367,1,70,10|0,0:2|0:0,0:0:0:0:
270,337,37194,2,0,P|238:340|200:347,1,70,2|0,0:0|0:0,0:0:0:0:
199,260,37534,1,2,0:0:0:0:
274,213,37705,5,8,0:2:0:0:
254,128,37875,2,0,P|217:118|165:102,1,70,2|8,0:0|0:0,0:0:0:0:
145,210,38216,2,0,P|79:227|-11:254,1,140,10|10,0:2|0:0,0:0:0:0:
68,331,38728,1,8,0:2:0:0:
180,296,38898,6,0,P|224:303|311:375,1,140,8|2,0:0|0:0,0:0:0:0:
403,339,39409,1,2,0:0:0:0:
346,278,39580,2,0,B|340:244|340:244|347:188,1,70,8|2,0:2|0:0,0:0:0:0:
397,132,39921,1,10,0:0:0:0:
397,132,40091,1,0,0:0:0:0:
287,127,40262,6,0,P|208:67|197:9,1,140,2|2,0:0|0:0,0:0:0:0:
115,79,40773,1,10,0:0:0:0:
48,10,40944,2,0,P|48:71|42:168,2,140,10|2|8,0:2|0:0|2:3,0:0:0:0:
263,45,41966,6,0,P|225:48|185:58,1,70,0|0,2:0|2:0,0:0:0:0:
155,133,42307,2,0,P|217:146|288:220,1,140,8|0,0:2|2:0,0:0:0:0:
500,290,43671,6,0,P|443:301|379:368,1,140,8|0,0:2|0:0,0:0:0:0:
297,366,44353,6,0,P|239:359|186:361,1,93.3333333333333,10|2,0:3|0:0,0:0:0:0:
124,331,44864,1,2,0:0:0:0:
124,331,45034,2,0,P|120:295|121:266,1,52.5000020027161,0|2,0:0|0:0,0:0:0:0:
193,200,45375,2,0,P|196:224|196:254,1,52.5000020027161,8|2,0:3|0:0,0:0:0:0:
267,303,45716,6,0,P|322:295|390:285,1,105.000004005432,2|0,0:0|0:0,0:0:0:0:
441,244,46228,1,0,0:0:0:0:
441,244,46398,1,10,0:3:0:0:
349,145,46739,1,0,0:0:0:0:
503,64,47080,6,0,P|465:60|398:35,1,105.000004005432,2|2,0:0|0:0,0:0:0:0:
318,0,47591,1,0,0:0:0:0:
260,60,47762,2,0,P|262:111|262:182,2,105.000004005432,10|2|2,0:3|0:0|0:0,0:0:0:0:
260,60,48784,2,0,P|230:70|197:81,1,52.5000020027161,2|0,0:0|0:0,0:0:0:0:
139,26,49125,2,0,P|97:61|81:109,1,105.000004005432,2|2,0:0|0:0,0:0:0:0:
69,201,49637,1,0,0:0:0:0:
69,201,49807,1,8,0:3:0:0:
222,219,50148,2,0,L|233:279,1,52.5000020027161,2|0,0:0|0:0,0:0:0:0:
174,335,50489,2,0,P|142:341|114:350,1,52.5000020027161,2|0,0:0|0:0,0:0:0:0:
250,369,50830,2,0,P|282:375|310:384,1,52.5000020027161,10|0,0:3|0:0,0:0:0:0:
374,315,51171,6,0,P|407:307|468:251,1,105.000004005432,2|0,0:0|0:0,0:0:0:0:
496,192,51682,1,0,0:0:0:0:
496,192,51853,1,2,0:0:0:0:
415,20,52194,6,0,L|422:39,1,17.5,0|0,0:0|0:0,0:0:0:0:
408,113,54580,5,10,0:3:0:0:
408,113,54750,1,0,0:0:0:0:
333,78,54921,2,0,P|335:46|341:1,1,52.5000020027161,2|0,0:0|0:0,0:0:0:0:
257,5,55262,2,0,P|225:3|180:-3,1,52.5000020027161,8|0,0:3|0:0,0:0:0:0:
147,55,55603,2,0,B|122:59|122:59|92:53,1,52.5000020027161,2|0,0:0|0:0,0:0:0:0:
91,135,55944,2,0,P|44:144|-1:189,2,105.000004005432,2|10|2,0:0|0:3|0:0,0:0:0:0:
91,135,56966,2,0,L|159:142,1,52.5000020027161,0|0,0:0|0:0,0:0:0:0:
233,166,57307,2,0,B|317:160|296:204|377:207,1,140,10|0,0:3|0:0,0:0:0:0:
363,206,57989,6,0,P|368:258|373:319,1,105.000004005432,2|2,0:0|0:0,0:0:0:0:
372,310,58671,2,0,B|347:306|347:306|316:311,1,52.5000020027161,2|0,0:0|0:0,0:0:0:0:
237,327,59012,2,0,P|203:320|160:242,1,105.000004005432,2|2,0:0|0:0,0:0:0:0:
161,267,59694,2,0,P|182:249|199:227,1,52.5000020027161,2|0,0:0|0:0,0:0:0:0:
267,136,60034,2,0,P|284:187|341:235,1,105.000004005432,10|2,0:3|0:0,0:0:0:0:
319,224,60716,5,4,0:0:0:0:
466,319,66171,5,8,0:0:0:0:
466,319,66341,1,8,0:2:0:0:
404,242,66512,2,0,P|366:243|329:243,1,70,2|2,0:0|0:0,0:0:0:0:
261,295,66853,1,10,0:2:0:0:
173,281,67023,2,0,L|167:333,2,35,2|0|2,0:0|0:0|0:0,0:0:0:0:
95,220,67364,1,0,0:0:0:0:
0,291,67534,6,0,P|49:298|103:381,1,140,2|2,0:0|2:0,0:0:0:0:
168,315,68046,1,10,0:0:0:0:
260,372,68216,2,0,P|320:369|381:369,1,105,10|0,0:2|0:0,0:0:0:0:
386,359,68557,2,0,P|427:362|465:376,1,70,0|8,0:0|0:2,0:0:0:0:
384,271,68898,6,0,P|434:257|494:169,2,140,10|2|10,0:0|0:0|0:2,0:0:0:0:
298,195,69750,1,0,0:0:0:0:
218,235,69921,2,0,B|178:226|178:226|144:234,1,70,2|0,0:0|0:0,0:0:0:0:
54,203,70262,2,0,P|52:132|59:53,1,140,2|2,0:0|2:0,0:0:0:0:
141,6,70773,1,10,0:0:0:0:
235,52,70944,2,0,B|314:34|325:85|394:84,1,140,10|10,0:2|0:0,0:0:0:0:
456,106,71455,1,8,0:2:0:0:
370,167,71625,5,8,0:0:0:0:
370,167,71796,1,8,0:2:0:0:
447,232,71966,2,0,P|470:281|481:314,1,70,2|2,0:0|0:0,0:0:0:0:
376,295,72307,2,0,P|371:348|364:383,1,70,10|2,0:2|0:0,0:0:0:0:
276,325,72648,1,2,0:0:0:0:
276,325,72819,1,0,0:0:0:0:
173,359,72989,6,0,B|117:313|117:313|50:345,1,140,2|2,0:0|0:0,0:0:0:0:
19,248,73500,1,10,0:0:0:0:
85,193,73671,2,0,L|84:104,1,70,10|0,0:2|0:0,0:0:0:0:
62,12,74012,2,0,P|124:23|180:110,1,140,2|8,0:0|2:3,0:0:0:0:
173,78,75034,6,0,P|175:119|170:179,2,97.9999970092774,8|0|0,0:2|2:0|0:0,0:0:0:0:
87,68,75887,1,0,0:0:0:0:
23,121,76057,2,0,L|19:176,1,48.9999985046387,8|0,0:0|0:0,0:0:0:0:
6,268,76398,6,0,P|67:282|141:330,1,140,8|0,0:2|2:0,0:0:0:0:
219,368,76909,1,0,2:0:0:0:
320,353,77080,5,8,0:0:0:0:
320,353,77250,1,8,0:2:0:0:
294,259,77421,2,0,P|285:230|261:174,1,70,2|10,0:0|0:0,0:0:0:0:
326,113,77762,2,0,P|355:64|452:57,1,140,10|2,0:2|0:0,0:0:0:0:
497,110,78273,1,0,0:0:0:0:
491,206,78444,6,0,B|427:176|427:176|353:205,1,140,2|2,0:0|0:0,0:0:0:0:
248,259,78955,1,10,0:0:0:0:
328,299,79125,2,0,P|373:322|452:394,2,140,10|0|10,0:2|0:0|0:0,0:0:0:0:
328,299,80148,2,0,P|323:255|322:212,1,70,2|0,0:0|0:0,0:0:0:0:
222,110,80489,6,0,P|229:175|230:240,1,105,10|0,0:2|0:0,0:0:0:0:
212,234,80830,2,0,B|178:224|178:224|139:234,1,70,10|0,0:0|0:0,0:0:0:0:
216,331,81171,2,0,B|177:341|177:341|143:331,1,70,2|8,0:0|0:2,0:0:0:0:
74,294,81512,1,2,2:0:0:0:
0,320,81682,1,10,0:0:0:0:
1,229,81853,2,0,P|4:160|-1:70,1,140,10|10,0:2|0:0,0:0:0:0:
142,6,82364,2,0,P|140:42|143:89,1,70,0|0,0:0|0:0,0:0:0:0:
497,353,87648,6,0,L|405:337,1,84,2|0,2:0|0:0,0:0:0:0:
408,323,87989,6,0,B|369:308|369:308|331:318,1,77.0000023498536,14|8,0:0|0:2,0:0:0:0:
246,362,88330,2,0,P|224:285|150:255,1,154.000004699707,2|10,0:0|0:2,0:0:0:0:
40,279,88841,1,2,0:0:0:0:
75,350,89012,2,0,P|111:355|171:369,1,77.0000023498536,2|2,0:0|0:0,0:0:0:0:
246,362,89353,1,2,0:0:0:0:
333,329,89523,1,10,0:2:0:0:
417,375,89694,2,0,B|457:365|457:365|501:376,1,77.0000023498536,2|10,2:0|0:0,0:0:0:0:
512,225,90034,2,0,B|427:197|425:252|341:246,1,154.000004699707,10|2,0:2|0:0,0:0:0:0:
363,246,90716,6,0,P|408:250|462:265,1,77.0000023498536,10|2,0:0|2:0,0:0:0:0:
299,174,91057,1,2,0:0:0:0:
299,174,91228,1,8,0:0:0:0:
223,222,91398,2,0,P|170:238|136:269,1,77.0000023498536,10|0,0:2|0:0,0:0:0:0:
50,308,91739,2,0,P|62:251|80:168,1,115.50000352478,10|0,0:0|0:0,0:0:0:0:
97,169,92080,5,2,0:0:0:0:
47,103,92250,1,10,0:2:0:0:
126,57,92421,2,0,P|170:46|219:34,1,77.0000023498536,2|10,2:0|0:0,0:0:0:0:
294,75,92762,1,10,0:2:0:0:
294,75,92932,1,0,0:0:0:0:
226,130,93103,2,0,P|204:183|195:225,1,77.0000023498536,10|8,0:0|0:2,0:0:0:0:
109,283,93444,6,0,P|137:312|161:345,1,77.0000023498536,10|8,0:0|0:2,0:0:0:0:
256,298,93784,2,0,P|314:306|374:269,1,115.50000352478,2|0,0:0|0:0,0:0:0:0:
382,256,94125,2,0,L|482:265,1,77.0000023498536,10|2,0:2|0:0,0:0:0:0:
505,182,94466,1,2,0:0:0:0:
505,182,94637,1,2,0:0:0:0:
429,104,94807,5,2,0:0:0:0:
336,145,94978,2,0,B|328:103|328:103|336:64,1,77.0000023498536,10|2,0:2|0:0,0:0:0:0:
239,9,95319,1,10,0:0:0:0:
201,101,95489,2,0,P|158:104|99:108,1,77.0000023498536,10|0,0:2|0:0,0:0:0:0:
23,124,95830,2,0,P|15:164|24:220,1,77.0000023498536,2|8,0:0|0:2,0:0:0:0:
10,325,96171,6,0,L|111:350,1,77.0000023498536,10|2,0:0|0:0,0:0:0:0:
167,291,96512,1,2,0:0:0:0:
167,291,96682,1,0,0:0:0:0:
239,371,96853,2,0,B|275:359|275:359|331:372,1,77.0000023498536,10|0,0:2|0:0,0:0:0:0:
399,301,97194,2,0,P|394:216|370:128,1,154.000004699707,2|10,0:0|0:0,0:0:0:0:
311,58,97705,1,8,0:2:0:0:
252,123,97875,2,0,L|171:112,1,77.0000023498536,2|0,0:0|0:0,0:0:0:0:
107,173,98216,2,0,L|26:184,1,77.0000023498536,10|0,0:2|0:0,0:0:0:0:
0,267,98557,1,0,2:0:0:0:
0,267,98898,6,0,B|37:285|37:285|88:269,1,77.0000023498536,14|8,0:0|0:2,0:0:0:0:
161,314,99239,2,0,P|215:319|262:392,1,115.50000352478,2|0,0:0|0:0,0:0:0:0:
292,373,99580,1,10,0:2:0:0:
369,349,99750,1,2,0:0:0:0:
451,381,99921,2,0,L|460:291,1,77.0000023498536,2|2,0:0|0:0,0:0:0:0:
400,212,100262,1,2,0:0:0:0:
425,128,100432,2,0,P|467:124|514:129,1,77.0000023498536,8|2,0:2|2:0,0:0:0:0:
468,36,100773,1,10,0:0:0:0:
354,56,100944,2,0,P|306:98|307:202,1,154.000004699707,8|2,0:2|0:0,0:0:0:0:
298,183,101625,5,10,0:0:0:0:
298,183,101796,1,2,0:0:0:0:
236,258,101966,2,0,P|198:266|146:277,1,77.0000023498536,0|0,2:0|0:0,0:0:0:0:
37,349,102307,2,0,P|118:364|179:383,1,115.50000352478,10|0,0:2|0:0,0:0:0:0:
176,384,102648,2,0,P|216:375|257:367,1,77.0000023498536,2|0,0:0|0:0,0:0:0:0:
331,303,102989,1,2,0:0:0:0:
331,303,103159,1,8,0:2:0:0:
271,212,103330,2,0,B|265:171|265:171|292:107,1,77.0000023498536,2|8,2:0|0:0,0:0:0:0:
304,23,103671,2,0,B|209:25|234:74|140:65,1,154.000004699707,10|10,0:2|0:0,0:0:0:0:
75,29,104182,5,8,0:2:0:0:
29,96,104353,1,2,2:0:0:0:
29,96,104694,6,0,P|37:154|40:223,1,105.000004005432,0|2,0:0|2:0,0:0:0:0:
139,252,105205,1,0,2:0:0:0:
139,252,105375,2,0,P|178:263|214:271,1,52.5000020027161,10|0,2:3|2:0,0:0:0:0:
91,333,105716,2,0,P|70:356|45:384,1,52.5000020027161,2|0,2:0|2:0,0:0:0:0:
0,307,106057,1,2,2:0:0:0:
0,307,106228,1,0,2:0:0:0:
17,227,106398,2,0,P|21:186|3:121,1,105.000004005432,2|2,2:0|2:0,0:0:0:0:
17,117,107080,6,0,L|75:127,1,52.5000020027161,2|0,2:0|2:0,0:0:0:0:
154,118,107421,2,0,P|150:77|178:16,2,105.000004005432,0|2|2,2:0|2:0|2:0,0:0:0:0:
154,118,108444,2,0,L|146:180,1,52.5000020027161,2|0,2:0|2:0,0:0:0:0:
203,247,108784,2,0,B|265:249|244:274|320:275,2,105.000004005432,2|2|2,2:0|2:0|2:0,0:0:0:0:
129,311,109637,1,0,2:0:0:0:
129,311,109807,1,10,2:3:0:0:
479,90,120716,6,0,P|447:90|412:95,1,52.5000020027161,10|0,2:3|0:0,0:0:0:0:
406,171,121057,2,0,P|369:179|326:250,1,105.000004005432,0|2,2:0|2:0,0:0:0:0:
387,297,121569,1,0,2:0:0:0:
387,297,121739,2,0,P|390:324|395:372,1,52.5000020027161,10|0,2:3|2:0,0:0:0:0:
304,334,122080,2,0,P|277:338|233:342,1,52.5000020027161,2|0,2:0|2:0,0:0:0:0:
197,279,122421,1,2,2:0:0:0:
197,279,122591,1,0,2:0:0:0:
134,357,122762,6,0,B|70:321|70:321|-11:358,1,140,10|2,2:3|2:0,0:0:0:0:
9,348,123444,2,0,P|9:309|6:280,1,52.5000020027161,2|0,2:0|2:0,0:0:0:0:
50,228,123784,1,0,2:0:0:0:
50,228,123955,1,0,2:0:0:0:
2,147,124125,2,0,P|48:136|88:99,1,78.7500030040742,10|0,2:3|0:0,0:0:0:0:
101,96,124466,6,0,P|115:153|133:221,2,105.000004005432,2|2|0,2:0|2:0|2:0,0:0:0:0:
155,37,125319,1,0,2:0:0:0:
233,64,125489,1,10,2:3:0:0:
233,64,125659,1,0,2:0:0:0:
302,28,125830,2,0,P|324:28|366:23,1,52.5000020027161,2|0,2:0|2:0,0:0:0:0:
437,76,126171,6,0,P|451:127|445:193,1,105.000004005432,2|0,2:0|2:0,0:0:0:0:
448,178,126853,6,0,L|376:173,1,52.5000020027161,2|0,2:0|2:0,0:0:0:0:
308,211,127194,1,2,2:0:0:0:
308,211,127534,2,0,L|302:263,2,52.5000020027161,2|0|0,2:0|2:0|2:0,0:0:0:0:
349,130,128046,1,0,2:0:0:0:
272,91,128216,2,0,L|202:102,1,52.5000020027161,2|0,2:0|2:0,0:0:0:0:
192,179,128557,2,0,P|153:173|76:166,1,105.000004005432,2|2,2:0|2:0,0:0:0:0:
336,371,130944,6,0,L|346:304,1,52.5000020027161,2|0,2:0|0:0,0:0:0:0:
363,247,131284,1,0,0:0:0:0:
363,247,131625,6,0,P|359:209|351:138,1,77.0000023498536,14|8,0:0|0:2,0:0:0:0:
272,120,131966,2,0,B|202:95|188:161|103:149,1,154.000004699707,2|10,0:0|0:2,0:0:0:0:
40,74,132478,1,2,0:0:0:0:
108,19,132648,2,0,P|146:21|195:24,1,77.0000023498536,2|2,0:0|0:0,0:0:0:0:
276,39,132989,1,2,0:0:0:0:
354,5,133159,1,10,0:2:0:0:
437,58,133330,2,0,B|445:94|445:94|438:132,1,77.0000023498536,2|10,2:0|0:0,0:0:0:0:
349,212,133671,2,0,P|406:220|455:308,1,154.000004699707,10|2,0:2|0:0,0:0:0:0:
455,296,134353,6,0,P|414:302|368:313,1,77.0000023498536,10|2,0:0|0:0,0:0:0:0:
284,370,134694,1,2,0:0:0:0:
284,370,134864,1,0,0:0:0:0:
213,302,135034,2,0,P|175:293|137:287,1,77.0000023498536,10|0,0:2|0:0,0:0:0:0:
127,177,135375,2,0,P|75:154|62:96,1,115.50000352478,2|0,0:0|0:0,0:0:0:0:
81,87,135716,5,2,0:0:0:0:
146,36,135887,1,10,0:2:0:0:
225,93,136057,2,0,P|261:96|312:106,1,77.0000023498536,2|10,2:0|0:0,0:0:0:0:
381,162,136398,1,10,0:2:0:0:
381,162,136569,1,2,2:0:0:0:
466,97,136739,2,0,B|472:61|472:61|461:18,1,77.0000023498536,10|8,0:0|0:2,0:0:0:0:
348,20,137080,6,0,P|310:13|271:9,1,77.0000023498536,10|8,0:0|0:2,0:0:0:0:
192,95,137421,2,0,P|121:107|50:114,1,115.50000352478,2|0,0:0|0:0,0:0:0:0:
48,119,137762,2,0,P|52:159|55:209,1,77.0000023498536,10|2,0:2|0:0,0:0:0:0:
14,280,138103,1,2,0:0:0:0:
14,280,138273,1,2,0:0:0:0:
105,329,138444,5,2,0:0:0:0:
195,370,138614,2,0,P|197:331|201:293,1,77.0000023498536,2|2,0:0|0:0,0:0:0:0:
291,227,138955,1,10,0:0:0:0:
221,163,139125,2,0,P|228:132|234:85,1,77.0000023498536,10|0,0:2|0:0,0:0:0:0:
327,36,139466,2,0,P|396:50|428:88,1,115.50000352478,2|0,0:0|0:0,0:0:0:0:
453,82,139807,6,0,P|445:123|439:164,1,77.0000023498536,10|2,0:0|0:0,0:0:0:0:
359,242,140148,2,0,P|353:203|345:166,1,77.0000023498536,2|0,0:0|0:0,0:0:0:0:
256,221,140489,2,0,P|217:226|180:234,1,77.0000023498536,10|0,0:2|0:0,0:0:0:0:
39,305,140830,2,0,B|129:297|101:342|197:341,1,154.000004699707,2|8,0:0|2:3,0:0:0:0:
271,311,141341,1,0,0:0:0:0:
358,357,141512,2,0,P|364:317|370:276,1,77.0000023498536,10|2,0:0|2:0,0:0:0:0:
445,229,141853,2,0,P|438:189|433:148,1,77.0000023498536,10|0,0:2|0:0,0:0:0:0:
484,74,142194,1,0,0:0:0:0:
484,74,142534,6,0,P|439:70|402:41,1,77.0000023498536,14|8,0:0|0:2,0:0:0:0:
320,99,142875,2,0,P|265:109|188:120,1,115.50000352478,2|0,0:0|0:0,0:0:0:0:
192,132,143216,1,10,0:2:0:0:
111,96,143387,1,2,0:0:0:0:
34,155,143557,2,0,P|35:193|27:251,1,77.0000023498536,2|2,0:0|0:0,0:0:0:0:
126,214,143898,1,2,0:0:0:0:
211,275,144069,2,0,P|210:313|218:371,1,77.0000023498536,8|8,0:2|2:3,0:0:0:0:
318,296,144409,1,2,0:0:0:0:
305,181,144580,2,0,P|306:118|293:23,1,154.000004699707,10|2,0:2|0:0,0:0:0:0:
296,28,145262,5,10,0:0:0:0:
296,28,145432,1,2,0:0:0:0:
388,10,145603,2,0,P|426:14|493:21,1,77.0000023498536,2|0,0:0|0:0,0:0:0:0:
485,126,145944,2,0,B|484:200|456:166|456:254,1,115.50000352478,10|0,0:2|0:0,0:0:0:0:
473,259,146284,2,0,P|421:269|370:290,1,77.0000023498536,10|0,0:0|0:0,0:0:0:0:
327,345,146625,1,2,0:0:0:0:
327,345,146796,1,10,0:2:0:0:
253,275,146966,2,0,P|214:273|148:266,1,77.0000023498536,2|8,2:0|2:3,0:0:0:0:
58,259,147307,2,0,P|70:212|166:174,1,154.000004699707,10|8,0:2|0:0,0:0:0:0:
235,135,147819,1,0,0:0:0:0:
194,49,147989,6,0,P|157:46|102:44,1,77.0000023498536,10|0,0:0|0:0,0:0:0:0:
6,32,148330,2,0,P|0:94|3:158,1,115.50000352478,2|0,0:0|0:0,0:0:0:0:
0,176,148671,2,0,P|40:171|93:174,1,77.0000023498536,10|2,0:2|0:0,0:0:0:0:
153,227,149012,1,2,0:0:0:0:
157,232,149182,1,2,0:0:0:0:
117,314,149353,1,2,0:0:0:0:
196,368,149523,2,0,P|234:367|272:372,1,77.0000023498536,0|10,0:0|0:2,0:0:0:0:
347,312,149864,1,10,0:0:0:0:
436,359,150034,2,0,P|495:345|508:255,1,154.000004699707,10|2,0:2|0:0,0:0:0:0:
512,262,150716,5,8,2:3:0:0:
362,157,151398,2,0,P|360:121|364:45,2,112,10|2|0,2:0|2:0|2:0,0:0:0:0:
298,209,152250,1,0,0:0:0:0:
223,172,152421,2,0,P|216:195|215:236,1,56,0|0,2:0|0:0,0:0:0:0:
267,322,152762,2,0,B|170:313|207:375|110:363,1,168,2|0,2:0|0:0,0:0:0:0:
30,318,153444,5,4,2:0:0:0:
