osu file format v14

[General]
AudioFilename: audio.mp3
AudioLeadIn: 0
PreviewTime: 40905
Countdown: 0
SampleSet: Soft
StackLeniency: 0.7
Mode: 0
LetterboxInBreaks: 0
WidescreenStoryboard: 0

[Editor]
DistanceSpacing: 1.4
BeatDivisor: 4
GridSize: 4
TimelineZoom: 0.9999999

[Metadata]
Title:Praeteritum
TitleUnicode:Praeteritum
Artist:Blacklolita
ArtistUnicode:Blacklolita
Creator:JeZag
Version:Normal
Source:
Tags:pulvis et cinis Alphaversion Records AVRS-0009 Glitch Experimental Yukiyo 閣下 electronic instrumental
BeatmapID:1401975
BeatmapSetID:651006

[Difficulty]
HPDrainRate:3.5
CircleSize:3.5
OverallDifficulty:4.5
ApproachRate:5
SliderMultiplier:1.1
SliderTickRate:1

[Events]
//Background and Video events
0,0,"big room.jpg",0,0
//Break Periods
2,68610,78810
2,81410,91610
2,115410,117210
//Storyboard Layer 0 (Background)
//Storyboard Layer 1 (Fail)
//Storyboard Layer 2 (Pass)
//Storyboard Layer 3 (Foreground)
//Storyboard Layer 4 (Overlay)
//Storyboard Sound Samples

[TimingPoints]
3200,400,4,2,2,40,1,0
7200,-100,4,2,2,35,0,0
8000,-100,4,2,2,30,0,0
8800,-100,4,2,2,25,0,0
9600,-133.333333333333,4,2,1,15,0,0
10800,-133.333333333333,4,2,1,20,0,0
11600,-133.333333333333,4,2,1,25,0,0
12000,-133.333333333333,4,2,1,30,0,0
13550,-133.333333333333,4,2,1,35,0,0
15200,-133.333333333333,4,2,1,45,0,0
16000,400,4,2,2,40,1,8
16010,400,4,2,1,50,1,0
16010,-117.647058823529,4,2,1,50,0,0
28010,-117.647058823529,4,2,2,70,0,0
28810,-100,4,2,1,50,0,0
40810,-100,4,2,3,40,0,0
41610,-100,4,2,1,70,0,0
47810,-100,4,2,2,70,0,0
48010,-100,4,2,1,70,0,0
54010,-100,4,2,2,70,0,0
54410,-100,4,2,1,70,0,0
66610,-100,4,2,2,70,0,0
67210,-100,4,2,1,70,0,0
92810,-100,4,2,1,50,0,0
93210,-133.333333333333,4,2,1,50,0,0
115210,-133.333333333333,4,2,1,60,0,0
118410,-100,4,2,1,70,0,1
120810,-100,4,2,1,70,0,0
121610,-100,4,2,1,70,0,1
124010,-100,4,2,1,70,0,0
124810,-100,4,2,1,70,0,1
127210,-100,4,2,1,70,0,0
128010,-100,4,2,1,70,0,1
130410,-100,4,2,1,70,0,0
131210,-100,4,2,1,70,0,1
133610,-100,4,2,1,70,0,0
134410,-100,4,2,1,70,0,1
136810,-100,4,2,1,70,0,0
137610,-100,4,2,1,70,0,1
140010,-100,4,2,1,70,0,0
144010,-100,4,2,1,70,0,1
146410,-100,4,2,1,70,0,0
147210,-100,4,2,1,70,0,1
149610,-100,4,2,1,70,0,0
150410,-100,4,2,1,70,0,1
152810,-100,4,2,1,70,0,0
153610,-100,4,2,1,70,0,1
156010,-100,4,2,1,70,0,0
156410,-100,4,2,2,70,0,0
156810,-100,4,2,1,70,0,1
159210,-100,4,2,1,70,0,0
160010,-100,4,2,1,70,0,1
162410,-100,4,2,1,70,0,0
163210,-100,4,2,1,70,0,1
165610,-100,4,2,1,70,0,0
166410,-100,4,2,1,70,0,1
168810,-100,4,2,1,70,0,0
169610,-100,4,2,1,35,0,0

[Colours]
Combo1 : 171,171,118
Combo2 : 142,173,191
Combo3 : 68,98,200
Combo4 : 194,141,141

[HitObjects]
387,70,3200,5,2,2:0:0:0:
129,103,4000,1,2,2:0:0:0:
374,143,4800,1,2,2:0:0:0:
141,176,5600,1,2,2:0:0:0:
361,215,6400,5,2,2:0:0:0:
154,248,7200,1,2,2:0:0:0:
349,288,8000,1,2,2:0:0:0:
167,320,8800,1,2,2:0:0:0:
340,333,9600,38,0,P|358:247|330:117,1,165.000006294251,2|0,2:0|2:0,2:0:0:0:
243,165,10800,2,0,P|232:252|271:379,1,165.000006294251,2|2,2:0|2:0,2:0:0:0:
351,361,12000,6,0,P|382:263|354:106,1,247.500009441376,2|0,2:0|2:0,2:0:0:0:
317,15,13550,37,2,2:0:0:0:
241,101,13950,2,0,P|159:122|48:117,1,165.000006294251,2|2,2:0|2:0,2:0:0:0:
89,231,15200,2,0,P|169:245|209:241,1,82.5000031471254,2|0,2:0|2:0,2:0:0:0:
306,207,16010,38,0,B|288:294|288:294|304:355,1,140.250002675057,4|2,3:2|3:0,2:0:0:0:
364,358,16810,1,8,2:3:0:0:
493,340,17210,2,0,L|492:272,1,46.7500008916855,2|8,2:0|2:1,2:0:0:0:
448,243,17610,38,0,L|447:128,1,93.500001783371,0|2,3:0|2:0,2:0:0:0:
457,84,18210,1,2,3:2:0:0:
406,42,18410,2,0,P|343:28|301:43,1,93.500001783371,8|0,2:0|2:0,2:0:0:0:
244,145,19210,6,0,B|191:163|191:163|79:151,1,140.250002675057,0|2,3:0|3:0,2:0:0:0:
41,149,20010,1,8,2:3:0:0:
90,26,20410,2,0,L|148:31,1,46.7500008916855,2|8,2:0|2:1,2:0:0:0:
197,55,20810,38,0,L|309:59,1,93.500001783371,0|2,3:0|2:0,2:0:0:0:
352,79,21410,1,2,3:2:0:0:
392,130,21610,2,0,P|393:176|373:218,1,93.500001783371,8|0,2:0|2:0,2:0:0:0:
448,328,22410,6,0,B|402:314|402:314|287:329,1,140.250002675057,4|2,3:2|3:0,2:0:0:0:
252,356,23210,1,8,2:3:0:0:
121,347,23610,2,0,L|114:284,1,46.7500008916855,2|8,2:0|2:1,2:0:0:0:
73,250,24010,38,0,L|72:144,1,93.500001783371,0|2,3:0|2:0,2:0:0:0:
96,95,24610,1,2,3:2:0:0:
161,98,24810,2,0,P|176:150|162:201,1,93.500001783371,8|0,2:0|2:0,2:0:0:0:
165,318,25610,6,0,B|81:332|81:332|13:315,1,140.250002675057,0|2,3:0|3:0,2:0:0:0:
3,257,26410,1,8,2:3:0:0:
45,133,26810,2,0,L|44:87,1,46.7500008916855,2|8,2:0|2:1,2:0:0:0:
11,28,27210,38,0,L|135:25,1,93.500001783371,0|2,3:0|2:0,2:0:0:0:
147,75,27810,1,2,3:2:0:0:
212,70,28010,1,2,2:0:0:0:
334,23,28410,1,2,2:0:0:0:
442,132,28810,6,0,L|434:243,1,110,4|2,3:2|3:0,2:0:0:0:
275,303,29610,2,0,L|268:193,1,110,8|0,3:0|3:0,2:0:0:0:
248,40,30410,38,0,L|170:49,1,55,0|0,3:0|2:0,2:0:0:0:
118,62,30810,1,2,3:2:0:0:
7,168,31210,2,0,L|62:174,1,55,2|8,3:0|2:3,2:0:0:0:
138,180,31610,1,2,3:2:0:0:
279,239,32010,6,0,L|288:109,1,110,0|2,3:0|3:0,2:0:0:0:
437,98,32810,2,0,L|444:207,1,110,8|0,3:0|3:0,2:0:0:0:
511,346,33610,38,0,L|450:343,1,55,0|0,3:0|2:0,2:0:0:0:
382,368,34010,1,2,3:2:0:0:
343,218,34410,2,0,L|255:239,1,55,2|8,3:0|2:3,2:0:0:0:
265,304,34810,2,0,L|189:292,1,55,2|2,3:0|2:3,2:0:0:0:
140,263,35210,6,0,L|116:370,1,110,4|0,3:2|3:0,2:0:0:0:
44,344,35810,1,0,2:0:0:0:
6,276,36010,2,0,L|0:148,1,110,8|0,3:0|3:0,2:0:0:0:
36,16,36810,38,0,L|153:39,1,110,0|0,3:0|3:0,2:0:0:0:
217,60,37410,1,0,3:0:0:0:
236,134,37610,2,0,L|106:156,1,110,8|0,3:0|3:0,2:0:0:0:
158,303,38410,6,0,B|219:308|219:308,1,55,4|0,3:2|3:0,2:0:0:0:
296,361,38810,2,0,B|298:373|290:307,1,55,0|0,3:2|3:0,2:0:0:0:
364,289,39210,2,0,B|383:237|383:237|473:220|473:220|495:140|495:140|434:82|434:82|360:106|360:106|393:160|393:160,1,440,8|0,2:0|2:0,3:0:0:0:
235,280,41610,38,0,L|226:170,1,110,4|0,3:2|2:0,2:0:0:0:
187,25,42410,1,8,2:3:0:0:
187,25,42610,1,0,3:0:0:0:
327,83,43010,5,2,2:0:0:0:
327,83,43210,2,0,L|336:211,1,110,2|0,2:0|2:0,2:0:0:0:
362,264,43810,1,8,2:1:0:0:
344,339,44010,38,0,P|300:354|165:336,1,165,8|2,2:3|3:2,2:0:0:0:
113,307,44810,6,0,L|117:166,1,110,4|0,3:2|2:0,2:0:0:0:
74,57,45610,1,8,2:3:0:0:
74,57,45810,2,0,L|202:45,1,110,0|2,3:0|2:0,2:0:0:0:
225,113,46410,38,0,L|225:236,1,110,0|8,3:0|3:1,2:0:0:0:
176,284,47010,1,2,3:0:0:0:
218,348,47210,6,0,P|284:333|403:347,1,165,8|0,2:3|2:0,2:0:0:0:
455,364,48010,38,0,L|457:203,1,110,4|0,3:2|2:0,2:0:0:0:
453,178,48610,1,0,3:0:0:0:
453,178,48810,5,8,2:3:0:0:
297,148,49210,2,0,L|161:156,2,110,2|2|2,2:0|2:0|2:0,2:0:0:0:
346,86,50210,1,0,3:0:0:0:
327,11,50410,38,0,P|234:-2|183:13,1,110,8|0,2:3|2:0,2:0:0:0:
61,8,51210,6,0,L|68:140,1,110,4|0,3:2|2:0,2:0:0:0:
40,195,51810,1,0,2:0:0:0:
115,219,52010,1,8,2:3:0:0:
61,367,52410,38,0,L|211:379,1,110,2|0,2:0|3:0,2:0:0:0:
332,364,53210,1,8,3:1:0:0:
332,364,53410,1,2,3:0:0:0:
308,288,53610,1,0,2:0:0:0:
152,258,54010,1,2,2:0:0:0:
186,103,54410,6,0,L|310:109,1,110,4|0,3:2|2:0,2:0:0:0:
378,6,55210,1,8,2:3:0:0:
378,6,55410,2,0,P|461:9|503:53,1,110,0|2,3:0|2:0,2:0:0:0:
494,101,56010,38,0,L|488:210,1,110,2|0,2:0|2:0,2:0:0:0:
483,290,56610,1,8,2:1:0:0:
418,336,56810,6,0,P|310:353|230:328,1,165,8|0,2:3|3:0,2:0:0:0:
216,270,57610,38,0,L|211:119,1,110,4|0,3:2|2:0,2:0:0:0:
116,38,58410,1,8,2:3:0:0:
116,38,58610,1,2,2:0:0:0:
4,140,59010,5,2,2:0:0:0:
4,140,59210,2,0,L|7:249,1,110,0|8,3:0|2:1,2:0:0:0:
9,326,59810,1,2,2:3:0:0:
85,344,60010,38,0,P|153:328|263:346,1,165,8|0,2:3|2:0,2:0:0:0:
325,340,60810,6,0,L|315:210,1,110,4|0,3:2|2:0,2:0:0:0:
266,176,61410,1,0,3:0:0:0:
266,176,61610,37,8,2:3:0:0:
402,95,62010,2,0,L|536:107,2,110,2|2|2,2:0|2:0|2:0,2:0:0:0:
343,41,63010,1,8,2:1:0:0:
280,90,63210,5,8,2:3:0:0:
37,87,64010,37,4,3:2:0:0:
177,160,64410,2,0,L|253:162,1,55,0|0,3:0|3:0,2:0:0:0:
284,220,64810,1,8,2:3:0:0:
438,183,65210,5,0,3:0:0:0:
474,337,65610,2,0,L|398:335,1,55,2|0,2:3|3:0,2:0:0:0:
342,314,66010,1,0,3:0:0:0:
183,312,66410,2,0,L|175:373,2,55,8|0|2,2:3|2:0|2:0,2:0:0:0:
108,171,67210,38,0,L|-20:180,1,110,4|8,2:0|2:0,2:0:0:0:
0,257,67810,2,0,L|124:270,1,110,2|0,2:3|3:0,2:0:0:0:
170,223,68410,5,4,2:0:0:0:
397,100,80010,38,0,L|525:109,1,110,4|8,2:0|2:0,2:0:0:0:
505,186,80610,2,0,L|381:199,1,110,2|0,2:3|3:0,2:0:0:0:
335,152,81210,5,4,2:0:0:0:
223,127,92810,5,4,3:2:0:0:
335,152,93210,2,0,L|399:141,2,41.2500015735627,2|0|8,2:3|3:0|2:3,2:0:0:0:
241,219,94010,1,0,3:0:0:0:
132,259,94410,6,0,L|68:248,2,41.2500015735627,2|0|0,2:3|3:0|3:0,2:0:0:0:
228,322,95210,2,0,L|290:315,1,41.2500015735627,8|8,2:0|2:3,2:0:0:0:
324,300,95610,2,0,L|337:226,1,41.2500015735627,8|2,2:1|2:3,2:0:0:0:
340,202,96010,37,0,3:0:0:0:
394,100,96410,2,0,L|391:40,2,41.2500015735627,2|0|8,2:3|3:0|2:3,2:0:0:0:
437,207,97210,1,0,3:0:0:0:
387,311,97610,5,8,2:0:0:0:
277,272,98010,1,2,2:3:0:0:
176,328,98410,2,0,L|127:311,1,41.2500015735627,8|0,2:0|3:0,2:0:0:0:
126,257,98810,2,0,L|84:248,1,41.2500015735627,8|0,2:3|3:0,2:0:0:0:
41,210,99210,37,0,3:0:0:0:
104,113,99610,2,0,L|114:43,2,41.2500015735627,2|0|8,2:3|3:0|2:3,2:0:0:0:
194,185,100410,1,0,3:0:0:0:
267,95,100810,6,0,L|277:25,2,41.2500015735627,2|0|0,2:3|3:0|3:0,2:0:0:0:
348,177,101610,2,0,L|397:183,1,41.2500015735627,8|8,2:0|2:3,2:0:0:0:
441,207,102010,2,0,L|449:264,1,41.2500015735627,8|2,2:1|2:3,2:0:0:0:
437,305,102410,37,0,3:0:0:0:
335,360,102810,2,0,P|260:362|225:353,1,82.5000031471254,2|8,2:3|2:3,2:0:0:0:
202,135,104010,5,8,2:3:0:0:
307,189,104410,1,0,3:0:0:0:
422,155,104810,2,0,L|424:86,1,41.2500015735627,8|2,2:0|2:3,2:0:0:0:
474,86,105210,2,0,L|471:24,1,41.2500015735627,8|0,2:3|3:0,2:0:0:0:
426,9,105610,37,4,3:2:0:0:
325,62,106010,2,0,L|250:66,2,41.2500015735627,2|0|8,2:3|3:0|2:3,2:0:0:0:
424,120,106810,1,0,3:0:0:0:
315,159,107210,6,0,L|252:167,2,41.2500015735627,2|0|0,2:3|3:0|3:0,2:0:0:0:
414,218,108010,2,0,L|407:266,1,41.2500015735627,8|8,2:0|2:3,2:0:0:0:
384,311,108410,2,0,L|333:312,1,41.2500015735627,8|2,2:1|2:3,2:0:0:0:
284,311,108810,37,0,3:0:0:0:
172,341,109210,2,0,L|170:387,2,41.2500015735627,2|0|8,2:3|3:0|2:3,2:0:0:0:
215,233,110010,2,0,L|212:180,1,41.2500015735627,0|2,3:0|2:3,2:0:0:0:
209,134,110410,5,8,2:0:0:0:
108,77,110810,1,2,2:3:0:0:
14,144,111210,2,0,L|16:213,1,41.2500015735627,8|0,2:3|3:0,2:0:0:0:
12,358,112010,38,0,P|78:351|194:358,1,165.000006294251,2|2,3:0|2:3,2:0:0:0:
292,356,113210,1,0,3:0:0:0:
239,253,113610,2,0,L|246:136,1,82.5000031471254,8|2,2:3|2:0,2:0:0:0:
216,58,114410,2,0,P|273:64|359:64,1,123.750004720688,0|0,3:0|2:0,2:0:0:0:
396,53,115210,5,8,2:3:0:0:
419,103,118410,22,0,L|415:232,1,110,4|0,3:2|2:0,2:0:0:0:
300,321,119210,1,8,2:3:0:0:
300,321,119410,38,0,P|255:341|210:341,2,82.5,0|0|0,3:0|3:0|3:0,2:0:0:0:
317,243,120210,1,0,2:0:0:0:
271,178,120410,2,0,L|269:117,1,55,0|8,3:0|2:1,2:0:0:0:
257,35,120810,6,0,P|189:76|86:91,1,165,8|2,2:3|2:0,2:0:0:0:
28,79,121610,38,0,L|35:215,1,110,4|0,3:2|3:0,2:0:0:0:
106,335,122410,1,8,2:3:0:0:
106,335,122610,6,0,P|67:359|20:364,2,82.5,0|0|0,3:0|3:0|3:0,2:0:0:0:
185,337,123410,1,0,2:0:0:0:
246,282,123610,2,0,L|240:224,1,55,8|2,3:1|3:0,2:0:0:0:
260,150,124010,38,0,P|318:170|437:155,1,165,8|2,2:3|2:3,2:0:0:0:
498,164,124810,5,4,3:2:0:0:
502,168,125010,2,0,L|493:300,1,110,0|2,3:0|3:0,2:0:0:0:
440,336,125610,38,0,L|339:340,1,82.5,8|0,3:0|3:0,3:0:0:0:
281,309,126110,2,0,L|192:313,1,82.5,2|0,3:0|3:0,2:0:0:0:
191,202,126810,1,2,0:0:0:0:
261,173,127010,1,8,2:1:0:0:
319,226,127210,5,8,2:3:0:0:
463,162,127610,1,2,2:0:0:0:
392,41,128010,38,0,L|264:51,1,110,4|2,3:2|3:0,2:0:0:0:
208,20,128610,1,0,3:0:0:0:
178,93,128810,5,8,2:3:0:0:
109,235,129210,2,0,L|-13:230,2,110,2|0|8,2:0|3:0|3:1,2:0:0:0:
186,218,130210,1,2,3:0:0:0:
233,281,130410,38,0,P|304:264|413:272,1,165,8|0,2:3|2:0,2:0:0:0:
477,286,131210,6,0,L|496:162,1,110,4|0,3:2|2:0,2:0:0:0:
410,48,132010,1,8,2:3:0:0:
410,48,132210,38,0,P|439:20|491:-7,2,82.5,0|0|0,3:0|3:0|3:0,3:0:0:0:
332,67,133010,1,0,2:0:0:0:
301,140,133210,2,0,L|305:202,1,55,0|8,3:0|2:1,2:0:0:0:
327,270,133610,6,0,P|242:267|149:285,1,165,8|2,2:3|2:0,2:0:0:0:
82,323,134410,38,0,L|86:201,1,110,4|0,3:2|3:0,2:0:0:0:
61,59,135210,1,8,2:3:0:0:
61,59,135410,6,0,P|30:44|-2:6,2,82.5,0|0|0,3:0|3:0|3:0,3:0:0:0:
140,71,136210,1,0,2:0:0:0:
190,132,136410,2,0,L|171:200,1,55,8|2,3:1|3:0,2:0:0:0:
193,262,136810,38,0,P|246:250|369:273,1,165,8|2,2:3|2:3,2:0:0:0:
439,304,137610,5,4,3:2:0:0:
439,304,137810,2,0,L|434:178,1,110,0|0,3:2|3:0,2:0:0:0:
474,125,138410,38,0,L|391:102,1,82.5,8|0,2:3|3:0,2:0:0:0:
313,113,138910,2,0,L|343:199,1,82.5,0|0,3:0|3:0,2:0:0:0:
315,342,139610,1,2,0:0:0:0:
241,364,139810,1,8,2:1:0:0:
209,293,140010,37,8,2:3:0:0:
223,139,140410,1,2,2:0:0:0:
80,96,140810,37,4,3:2:0:0:
0,235,141210,2,0,L|2:296,1,55,8|2,2:1|2:3,2:0:0:0:
13,374,141610,1,8,2:3:0:0:
166,365,142010,1,0,3:0:0:0:
318,342,142410,2,0,L|320:278,1,55,2|0,2:3|3:0,2:0:0:0:
311,210,142810,1,0,3:0:0:0:
157,205,143210,6,0,P|141:138|151:91,1,110,8|0,2:3|2:0,2:0:0:0:
288,34,144010,22,0,L|419:50,1,110,4|0,3:2|2:0,2:0:0:0:
488,180,144810,1,8,2:3:0:0:
488,180,145010,2,0,L|469:302,1,110,0|2,3:0|2:0,2:0:0:0:
457,366,145610,38,0,L|333:348,1,110,2|0,2:0|2:0,2:0:0:0:
293,292,146210,1,8,2:1:0:0:
214,279,146410,6,0,P|225:234|209:98,1,165,8|2,2:3|2:0,2:0:0:0:
159,60,147210,38,0,L|58:69,1,82.5,4|0,3:2|3:0,2:0:0:0:
18,121,147710,2,0,L|27:214,1,82.5,0|8,3:0|2:3,2:0:0:0:
87,252,148210,1,2,2:3:0:0:
38,384,148610,5,2,2:0:0:0:
38,384,148810,2,0,L|154:371,1,110,0|8,3:0|3:1,2:0:0:0:
204,320,149410,1,2,3:0:0:0:
280,316,149610,38,0,P|270:253|285:140,1,165,8|0,2:3|2:0,2:0:0:0:
351,126,150410,6,0,L|481:137,1,110,4|0,3:2|2:0,2:0:0:0:
512,73,151010,1,0,3:0:0:0:
468,6,151210,37,8,2:3:0:0:
327,41,151610,2,0,L|206:29,2,110,2|2|2,2:0|2:0|2:0,2:0:0:0:
369,107,152610,1,8,2:1:0:0:
446,91,152810,5,8,2:3:0:0:
509,231,153210,1,2,3:2:0:0:
441,369,153610,38,0,L|357:361,1,82.5,4|0,3:2|3:0,2:0:0:0:
345,285,154110,2,0,L|337:193,1,82.5,0|8,3:0|2:3,2:0:0:0:
188,163,154810,1,0,3:0:0:0:
99,288,155210,5,0,3:0:0:0:
9,169,155610,1,8,3:1:0:0:
9,169,155810,1,2,3:0:0:0:
35,96,156010,38,0,P|106:83|152:96,1,110,8|2,2:3|2:0,2:0:0:0:
295,92,156810,6,0,L|288:227,1,110,4|0,3:2|2:0,2:0:0:0:
211,335,157610,1,8,2:3:0:0:
211,335,157810,2,0,L|91:331,1,110,0|0,3:0|2:0,2:0:0:0:
42,277,158410,38,0,L|48:153,1,110,2|0,2:0|2:0,2:0:0:0:
20,92,159010,1,8,2:1:0:0:
71,31,159210,6,0,P|124:24|204:32,1,110,8|0,2:3|3:0,2:0:0:0:
313,113,160010,38,0,L|297:212,1,82.5,4|0,3:2|3:0,2:0:0:0:
277,268,160510,2,0,L|381:285,1,82.5,0|8,3:0|2:3,2:0:0:0:
390,351,161010,1,2,2:0:0:0:
496,239,161410,5,2,2:0:0:0:
496,239,161610,2,0,L|486:118,1,110,0|8,3:0|3:1,2:0:0:0:
454,59,162210,1,2,3:0:0:0:
379,34,162410,38,0,P|311:22|188:29,1,165,8|0,2:3|2:0,2:0:0:0:
147,65,163210,6,0,L|152:187,1,110,4|0,3:2|2:0,2:0:0:0:
109,241,163810,1,0,3:0:0:0:
153,306,164010,37,8,2:3:0:0:
306,268,164410,2,0,L|454:258,2,110,2|2|2,2:0|2:0|2:0,2:0:0:0:
257,204,165410,1,8,2:1:0:0:
183,233,165610,5,8,2:3:0:0:
32,48,166410,38,0,L|135:43,1,82.5,4|0,3:2|3:0,2:0:0:0:
184,75,166910,2,0,L|274:70,1,82.5,0|8,3:0|0:3,3:0:0:0:
407,7,167610,1,0,3:0:0:0:
490,137,168010,5,0,3:0:0:0:
369,232,168410,1,8,3:1:0:0:
293,220,168610,1,2,3:0:0:0:
309,144,168810,1,8,2:3:0:0:
72,283,169610,37,4,3:2:0:0:
