osu file format v14

[General]
AudioFilename: audio.mp3
AudioLeadIn: 0
PreviewTime: 40905
Countdown: 0
SampleSet: Soft
StackLeniency: 0.7
Mode: 0
LetterboxInBreaks: 0
WidescreenStoryboard: 1

[Editor]
DistanceSpacing: 1
BeatDivisor: 8
GridSize: 8
TimelineZoom: 1.1

[Metadata]
Title:Praeteritum
TitleUnicode:Praeteritum
Artist:Blacklolita
ArtistUnicode:Blacklolita
Creator:JeZag
Version:Intermediate
Source:
Tags:pulvis et cinis Alphaversion Records AVRS-0009 Glitch Experimental Yukiyo 閣下 electronic instrumental
BeatmapID:3274295
BeatmapSetID:651006

[Difficulty]
HPDrainRate:4
CircleSize:4
OverallDifficulty:5.5
ApproachRate:7
SliderMultiplier:1.3
SliderTickRate:1

[Events]
//Background and Video events
0,0,"big room.jpg",0,0
//Break Periods
2,69310,79110
2,82110,91910
//Storyboard Layer 0 (Background)
//Storyboard Layer 1 (Fail)
//Storyboard Layer 2 (Pass)
//Storyboard Layer 3 (Foreground)
//Storyboard Layer 4 (Overlay)
//Storyboard Sound Samples

[TimingPoints]
3200,400,4,2,2,40,1,0
3200,-133.333333333333,4,2,2,40,0,0
3400,-133.333333333333,4,2,2,30,0,0
3600,-133.333333333333,4,2,2,25,0,0
3800,-133.333333333333,4,2,2,20,0,0
4000,-133.333333333333,4,2,2,40,0,0
4200,-133.333333333333,4,2,2,30,0,0
4400,-133.333333333333,4,2,2,25,0,0
4600,-133.333333333333,4,2,2,20,0,0
4800,-133.333333333333,4,2,2,40,0,0
5000,-133.333333333333,4,2,2,30,0,0
5200,-133.333333333333,4,2,2,25,0,0
5400,-133.333333333333,4,2,2,20,0,0
5600,-133.333333333333,4,2,2,40,0,0
5800,-133.333333333333,4,2,2,30,0,0
6000,-133.333333333333,4,2,2,25,0,0
6200,-133.333333333333,4,2,2,20,0,0
6400,-133.333333333333,4,2,2,40,0,0
6600,-133.333333333333,4,2,2,30,0,0
6800,-133.333333333333,4,2,2,25,0,0
7000,-133.333333333333,4,2,2,20,0,0
7200,-133.333333333333,4,2,2,35,0,0
7400,-133.333333333333,4,2,2,25,0,0
7600,-133.333333333333,4,2,2,20,0,0
7800,-133.333333333333,4,2,2,15,0,0
8000,-133.333333333333,4,2,2,30,0,0
8200,-133.333333333333,4,2,2,20,0,0
8400,-133.333333333333,4,2,2,15,0,0
8600,-133.333333333333,4,2,2,12,0,0
8800,-133.333333333333,4,2,2,25,0,0
9000,-133.333333333333,4,2,2,15,0,0
9200,-133.333333333333,4,2,2,12,0,0
9400,-133.333333333333,4,2,2,10,0,0
9600,-133.333333333333,4,2,1,15,0,0
10800,-133.333333333333,4,2,1,20,0,0
11600,-133.333333333333,4,2,1,25,0,0
12000,-133.333333333333,4,2,1,30,0,0
13550,-133.333333333333,4,2,1,35,0,0
14550,-133.333333333333,4,2,1,5,0,0
14750,-133.333333333333,4,2,1,40,0,0
15200,-133.333333333333,4,2,1,45,0,0
16000,400,4,2,2,40,1,8
16010,400,4,2,1,50,1,0
28010,-100,4,2,2,70,0,0
28810,-100,4,2,1,50,0,0
41610,-100,4,2,1,70,0,0
54010,-100,4,2,2,70,0,0
54410,-100,4,2,1,70,0,0
66810,-100,4,2,2,70,0,0
67210,-100,4,2,1,70,0,0
69110,-100,4,2,1,40,0,0
80010,-100,4,2,1,70,0,0
81910,-100,4,2,1,40,0,0
92810,-100,4,2,1,50,0,0
93610,-133.333333333333,4,2,1,50,0,0
115210,-133.333333333333,4,2,1,60,0,0
117610,-133.333333333333,4,2,1,20,0,0
118410,-100,4,2,1,70,0,1
120810,-100,4,2,1,70,0,0
121610,-100,4,2,1,70,0,1
124010,-100,4,2,1,70,0,0
124810,-100,4,2,1,70,0,1
127210,-100,4,2,1,70,0,0
128010,-100,4,2,1,70,0,1
130410,-100,4,2,1,70,0,0
131210,-100,4,2,1,70,0,1
133610,-100,4,2,1,70,0,0
134410,-100,4,2,1,70,0,1
136810,-100,4,2,1,70,0,0
137610,-100,4,2,1,70,0,1
140010,-100,4,2,1,70,0,0
144010,-100,4,2,1,70,0,1
146410,-100,4,2,1,70,0,0
147210,-100,4,2,1,70,0,1
149610,-100,4,2,1,70,0,0
150410,-100,4,2,1,70,0,1
152810,-100,4,2,1,70,0,0
153610,-100,4,2,1,70,0,1
156010,-100,4,2,1,70,0,0
156410,-100,4,2,2,70,0,0
156810,-100,4,2,1,70,0,1
159210,-100,4,2,1,70,0,0
160010,-100,4,2,1,70,0,1
162410,-100,4,2,1,70,0,0
163210,-100,4,2,1,70,0,1
165610,-100,4,2,1,70,0,0
166410,-100,4,2,1,70,0,1
168810,-100,4,2,1,70,0,0
169510,-100,4,2,1,5,0,0
169610,-100,4,2,1,35,0,0

[Colours]
Combo1 : 171,171,118
Combo2 : 142,173,191
Combo3 : 68,98,200
Combo4 : 194,141,141

[HitObjects]
164,28,3200,6,0,L|232:17,3,48.750001859665,2|0|0|0,2:0|2:0|2:0|2:0,2:0:0:0:
305,38,4000,2,0,L|354:45,3,48.750001859665,2|0|0|0,2:0|2:0|2:0|2:0,2:0:0:0:
352,126,4800,6,0,L|284:115,3,48.750001859665,2|0|0|0,2:0|2:0|2:0|2:0,2:0:0:0:
211,136,5600,2,0,L|163:143,3,48.750001859665,2|0|0|0,2:0|2:0|2:0|2:0,2:0:0:0:
163,228,6400,38,0,L|231:217,3,48.750001859665,2|0|0|0,2:0|2:0|2:0|2:0,2:0:0:0:
304,238,7200,2,0,L|353:245,3,48.750001859665,2|0|0|0,2:0|2:0|2:0|2:0,2:0:0:0:
351,326,8000,6,0,L|283:315,3,48.750001859665,2|0|0|0,2:0|2:0|2:0|2:0,2:0:0:0:
210,336,8800,2,0,L|162:343,3,48.750001859665,2|0|0|0,2:0|2:0|2:0|2:0,2:0:0:0:
70,378,9600,38,0,P|38:320|37:168,1,195.00000743866,2|0,2:0|2:0,2:0:0:0:
164,167,10800,2,0,P|196:225|197:377,1,195.00000743866,2|2,2:0|2:0,2:0:0:0:
339,377,12000,6,0,P|419:377|441:189,1,292.50001115799,2|0,2:0|2:0,2:0:0:0:
483,68,13550,37,2,2:0:0:0:
354,26,13950,2,0,P|319:89|321:161,1,146.250005578995,2|0,2:0|2:0,2:0:0:0:
261,221,14750,1,2,2:0:0:0:
135,160,15200,2,0,P|100:96|102:24,1,146.250005578995,2|0,2:0|2:0,2:0:0:0:
192,12,16010,38,0,B|222:70|222:70|215:183,1,130,4|2,3:2|2:3,2:0:0:0:
191,221,16610,1,2,3:0:0:0:
102,234,16810,2,0,L|29:243,2,65,8|0|0,2:3|2:0|2:0,2:0:0:0:
158,306,17410,1,8,2:1:0:0:
117,384,17610,38,0,P|54:380|4:340,1,130,0|2,3:0|2:0,2:0:0:0:
16,248,18210,1,2,3:2:0:0:
99,210,18410,2,0,L|169:222,1,65,8|8,2:0|2:3,2:0:0:0:
243,263,18810,2,0,L|233:327,1,65,2|8,2:3|2:1,2:0:0:0:
304,384,19210,6,0,P|369:382|427:354,1,130,0|2,3:0|2:3,2:0:0:0:
489,287,19810,1,2,3:0:0:0:
408,243,20010,2,0,L|320:251,2,65,8|0|0,2:3|2:0|2:0,2:0:0:0:
469,175,20610,1,8,2:1:0:0:
382,147,20810,38,0,P|347:91|340:27,1,130,0|2,3:0|2:0,2:0:0:0:
428,1,21410,1,2,3:2:0:0:
508,42,21610,2,0,L|501:106,1,65,8|8,2:0|2:3,2:0:0:0:
455,185,22010,1,2,2:3:0:0:
311,72,22410,6,0,B|217:47|217:47|176:62,1,130,4|2,3:2|2:3,2:0:0:0:
100,27,23010,1,2,3:0:0:0:
65,111,23210,2,0,P|25:108|-14:119,2,65,8|0|0,2:3|2:0|2:0,2:0:0:0:
154,129,23810,1,8,2:1:0:0:
158,219,24010,38,0,P|230:233|296:221,1,130,0|2,3:0|2:0,2:0:0:0:
351,161,24610,1,2,3:2:0:0:
354,70,24810,2,0,L|360:5,1,65,8|8,2:0|2:3,2:0:0:0:
448,28,25210,2,0,L|512:33,1,65,2|8,2:3|2:1,2:0:0:0:
489,119,25610,6,0,P|495:187|470:263,1,130,0|2,3:0|2:3,2:0:0:0:
482,336,26210,1,2,3:0:0:0:
392,342,26410,2,0,L|321:358,2,65,8|0|0,2:3|2:0|2:0,2:0:0:0:
385,251,27010,1,8,2:1:0:0:
307,204,27210,38,0,P|260:209|174:256,1,130,0|2,3:0|2:0,2:0:0:0:
97,261,27810,1,2,3:2:0:0:
30,322,28010,2,0,L|2:398,2,65,2|2|2,2:0|2:0|2:0,2:0:0:0:
30,140,28810,6,0,P|95:160|173:147,1,130,4|2,3:2|3:0,2:0:0:0:
300,41,29610,1,8,3:0:0:0:
300,41,30010,1,0,3:0:0:0:
480,13,30410,38,0,P|487:61|480:100,1,65,2|8,3:0|2:3,2:0:0:0:
465,166,30810,1,2,3:2:0:0:
288,120,31210,2,0,P|281:168|288:207,1,65,2|8,3:0|2:3,2:0:0:0:
308,271,31610,1,2,3:2:0:0:
459,373,32010,6,0,P|471:296|444:226,1,130,0|2,3:0|3:0,2:0:0:0:
283,184,32810,1,8,3:0:0:0:
283,184,33210,1,0,3:0:0:0:
240,360,33610,38,0,P|194:374|157:375,1,65,0|0,3:0|2:0,2:0:0:0:
87,357,34010,1,2,3:2:0:0:
28,185,34410,2,0,P|74:199|111:200,1,65,2|8,3:0|2:3,2:0:0:0:
181,182,34810,1,2,3:0:0:0:
281,29,35210,6,0,L|346:36,3,65,4|0|0|0,3:2|3:0|3:0|3:0,2:0:0:0:
411,100,36010,2,0,L|475:108,3,65,8|0|0|0,3:0|3:0|3:0|3:0,2:0:0:0:
486,198,36810,38,0,L|422:192,3,65,0|0|2|2,3:0|3:0|3:2|3:2,2:0:0:0:
428,283,37610,2,0,L|364:277,3,65,8|0|0|0,3:0|3:0|3:0|3:0,2:0:0:0:
315,354,38410,6,0,L|251:348,1,65,4|0,3:2|3:0,2:0:0:0:
173,299,38810,2,0,L|109:293,1,65,0|0,3:0|3:0,2:0:0:0:
82,205,39210,38,0,L|146:211,1,65,8|0,3:0|3:0,2:0:0:0:
224,161,39610,2,0,L|288:167,1,65,0|0,3:0|3:0,2:0:0:0:
333,86,40010,6,0,L|287:82,2,32.5,0|0|0,3:0|3:2|3:2,2:0:0:0:
233,39,40410,2,0,L|187:35,2,32.5,0|0|0,3:0|3:2|3:2,2:0:0:0:
8,74,41610,38,0,L|0:171,2,97.5,4|0|0,3:2|2:3|2:0,2:0:0:0:
86,24,42410,1,8,2:3:0:0:
166,68,42610,2,0,P|189:150|173:181,1,97.5,0|0,3:0|2:0,2:0:0:0:
238,232,43110,6,0,L|405:241,1,162.5,0|0,3:0|2:0,2:0:0:0:
446,164,43810,1,8,2:1:0:0:
369,116,44010,2,0,P|354:78|354:0,2,97.5,8|2|2,2:3|2:0|3:2,2:0:0:0:
446,164,44810,38,0,P|464:200|471:278,1,97.5,4|8,3:2|3:1,2:0:0:0:
483,346,45310,2,0,B|405:335|405:335|392:344,1,65,0|0,3:0|3:0,2:0:0:0:
401,345,45610,1,8,2:3:0:0:
321,290,45810,2,0,P|318:235|336:192,2,97.5,2|0|0,2:0|3:0|3:0,2:0:0:0:
262,359,46610,6,0,L|188:366,2,65,2|8|2,2:3|3:1|3:0,2:0:0:0:
226,275,47210,2,0,P|129:271|96:377,1,195,8|0,2:3|2:0,2:0:0:0:
181,347,48010,38,0,L|158:198,1,130,4|0,2:0|2:0,2:0:0:0:
157,206,48510,1,0,3:0:0:0:
157,206,48610,1,0,3:0:0:0:
234,133,48810,2,0,P|255:88|256:40,1,97.5,8|0,2:3|3:0,2:0:0:0:
171,6,49310,1,0,2:0:0:0:
171,6,49510,6,0,P|119:-15|8:11,1,162.5,0|0,3:0|2:0,2:0:0:0:
1,94,50210,1,8,2:1:0:0:
41,175,50410,2,0,P|101:189|151:180,2,97.5,8|2|2,2:3|2:0|3:2,2:0:0:0:
82,93,51210,38,0,B|132:85|132:85|196:97,1,97.5,4|8,3:2|2:1,2:0:0:0:
237,169,51710,1,0,3:0:0:0:
206,254,51910,1,0,3:0:0:0:
206,254,52010,2,0,L|336:259,1,130,8|0,2:3|2:0,2:0:0:0:
350,250,52510,2,0,B|359:296|359:296|351:346,1,97.5,0|0,3:0|3:0,2:0:0:0:
436,377,53010,6,0,L|510:385,2,65,2|8|2,2:3|3:1|3:0,2:0:0:0:
438,286,53610,2,0,P|463:228|535:178,1,130,8|2,2:3|2:0,2:0:0:0:
448,16,54410,38,0,B|456:63|456:63|446:111,2,97.5,4|0|0,3:2|2:0|2:0,2:0:0:0:
358,0,55210,1,8,2:3:0:0:
278,42,55410,2,0,P|282:107|323:145,1,97.5,0|0,3:0|2:0,2:0:0:0:
330,216,55910,6,0,B|365:227|365:227|449:205|449:205|483:223,1,162.5,0|0,3:0|2:0,2:0:0:0:
512,317,56610,1,8,2:1:0:0:
444,376,56810,2,0,P|384:365|344:344,2,97.5,8|2|0,2:3|2:0|3:0,2:0:0:0:
512,317,57610,38,0,P|515:268|504:221,1,97.5,4|8,3:2|2:1,2:0:0:0:
428,172,58110,1,0,3:0:0:0:
374,251,58310,1,0,3:0:0:0:
374,251,58410,2,0,L|261:223,1,97.5,8|0,2:3|2:0,2:0:0:0:
192,250,58910,2,0,P|181:297|184:345,1,97.5,0|0,3:0|3:0,2:0:0:0:
96,367,59410,6,0,L|22:359,2,65,2|8|2,2:3|2:1|2:3,2:0:0:0:
96,276,60010,2,0,P|57:246|10:235,1,97.5,8|8,2:3|3:1,3:0:0:0:
26,9,60810,38,0,L|161:14,1,130,4|0,3:2|2:0,2:0:0:0:
169,24,61310,1,0,3:0:0:0:
169,24,61410,1,0,3:0:0:0:
180,114,61610,2,0,L|75:118,1,97.5,8|0,2:3|3:0,2:0:0:0:
59,210,62110,1,0,2:0:0:0:
59,210,62310,6,0,P|117:242|218:253,1,162.5,0|0,3:0|2:0,2:0:0:0:
295,215,63010,1,8,2:1:0:0:
222,161,63210,2,0,P|205:98|204:47,2,97.5,8|2|2,2:3|2:0|3:2,2:0:0:0:
295,215,64010,38,0,B|353:187|353:187|427:190,1,130,4|0,3:2|3:0,2:0:0:0:
498,143,64610,1,0,3:0:0:0:
464,58,64810,2,0,P|381:44|314:67,1,130,8|0,2:3|3:0,2:0:0:0:
161,97,65610,5,2,2:3:0:0:
163,187,65810,1,0,3:0:0:0:
243,142,66010,1,0,3:0:0:0:
295,316,66410,2,0,B|233:337|233:337|170:327,1,130,10|2,2:3|2:0,2:0:0:0:
20,222,67210,37,4,2:0:0:0:
129,82,67610,1,8,2:0:0:0:
129,82,67810,2,0,P|209:72|259:89,1,130,2|0,2:3|3:0,2:0:0:0:
302,166,68410,6,0,P|204:210|83:164,1,227.5,4|0,2:0|2:0,2:0:0:0:
16,207,80010,37,4,2:0:0:0:
125,347,80410,1,8,2:0:0:0:
125,347,80610,2,0,P|205:357|255:340,1,130,2|0,2:3|3:0,2:0:0:0:
298,263,81210,6,0,P|200:219|79:265,1,227.5,4|0,2:0|2:0,2:0:0:0:
278,50,92810,5,4,3:2:0:0:
151,94,93210,1,2,2:3:0:0:
151,94,93410,1,0,3:0:0:0:
201,153,93610,2,0,L|318:154,1,97.50000371933,8|0,2:3|3:0,2:0:0:0:
425,189,94410,5,2,2:3:0:0:
412,268,94610,1,0,3:0:0:0:
412,268,94810,1,0,3:0:0:0:
260,229,95210,2,0,L|194:229,1,48.750001859665,8|8,2:0|2:3,2:0:0:0:
159,287,95610,2,0,L|93:287,1,48.750001859665,8|2,2:1|2:3,2:0:0:0:
48,334,96010,37,0,3:0:0:0:
5,188,96410,1,2,2:3:0:0:
5,188,96610,1,0,3:0:0:0:
80,168,96810,2,0,L|79:70,1,97.50000371933,8|0,2:3|3:0,2:0:0:0:
227,22,97610,6,0,L|228:70,1,48.750001859665,8|2,2:0|2:3,2:0:0:0:
230,149,98010,1,2,2:3:0:0:
385,131,98410,2,0,L|383:196,1,48.750001859665,8|0,2:0|3:0,2:0:0:0:
378,257,98810,1,8,2:3:0:0:
439,304,99010,1,0,3:0:0:0:
485,241,99210,37,0,3:0:0:0:
507,89,99610,1,2,2:3:0:0:
507,89,99810,1,0,3:0:0:0:
430,104,100010,2,0,L|425:6,1,97.50000371933,8|0,2:3|3:0,2:0:0:0:
268,7,100810,5,2,2:3:0:0:
219,68,101010,1,0,3:0:0:0:
219,68,101210,1,0,3:0:0:0:
260,218,101610,2,0,L|315:222,1,48.750001859665,8|8,2:0|2:3,2:0:0:0:
375,180,102010,2,0,L|423:183,1,48.750001859665,8|2,2:1|2:3,2:0:0:0:
473,243,102410,37,0,3:0:0:0:
401,383,102810,1,2,2:3:0:0:
401,383,103010,1,2,2:3:0:0:
346,327,103210,2,0,L|297:326,1,48.750001859665,8|0,2:3|2:0,2:0:0:0:
241,271,103610,2,0,L|192:270,1,48.750001859665,2|2,2:3|2:3,2:0:0:0:
118,296,104010,6,0,L|117:247,1,48.750001859665,8|2,2:3|2:3,2:0:0:0:
155,178,104410,1,0,3:0:0:0:
6,226,104810,2,0,L|5:178,1,48.750001859665,8|2,2:0|2:3,2:0:0:0:
1,98,105210,1,8,2:3:0:0:
50,37,105410,1,0,3:0:0:0:
116,77,105610,37,4,3:2:0:0:
256,8,106010,1,2,2:3:0:0:
309,64,106210,1,0,3:0:0:0:
256,121,106410,2,0,L|257:236,1,97.50000371933,8|0,2:3|3:0,2:0:0:0:
111,276,107210,5,2,2:3:0:0:
56,220,107410,1,0,3:0:0:0:
101,156,107610,1,0,3:0:0:0:
253,188,108010,2,0,L|322:190,1,48.750001859665,8|8,2:0|2:3,2:0:0:0:
361,138,108410,2,0,L|430:140,1,48.750001859665,8|2,2:1|2:3,2:0:0:0:
452,73,108810,37,0,3:0:0:0:
312,2,109210,1,2,2:3:0:0:
237,23,109410,1,0,3:0:0:0:
267,94,109610,1,8,2:3:0:0:
327,237,110010,2,0,L|300:300,1,48.750001859665,0|2,3:0|2:3,2:0:0:0:
298,359,110410,6,0,L|232:356,1,48.750001859665,8|2,2:0|2:3,2:0:0:0:
198,297,110810,2,0,L|149:294,1,48.750001859665,2|2,2:3|2:3,2:0:0:0:
71,289,111210,1,8,2:3:0:0:
80,366,111410,1,0,3:0:0:0:
251,206,112010,38,0,L|252:100,1,97.50000371933,2|0,3:0|2:0,2:0:0:0:
151,16,112810,1,2,2:3:0:0:
43,100,113210,1,0,3:0:0:0:
69,282,113610,6,0,L|180:291,1,97.50000371933,8|2,2:3|2:0,2:0:0:0:
402,220,114410,2,0,L|239:220,1,146.250005578995,0|0,3:0|2:0,2:0:0:0:
213,159,115210,6,0,P|198:110|203:80,1,73.1250027894975,8|2,2:3|2:3,2:0:0:0:
273,77,115710,2,0,P|287:125|282:155,1,73.1250027894975,0|8,3:0|2:3,2:0:0:0:
256,192,116410,12,8,117610,2:0:0:0:
190,161,118410,6,0,L|333:159,1,130,4|0,3:2|2:0,2:0:0:0:
338,150,118910,2,0,P|352:201|344:260,1,97.5,2|8,2:3|2:3,2:0:0:0:
280,305,119410,2,0,L|182:298,1,97.5,0|0,3:0|3:0,2:0:0:0:
93,317,119910,37,0,3:0:0:0:
93,317,120010,2,0,L|88:227,1,65,0|2,3:0|2:3,2:0:0:0:
16,198,120410,2,0,P|25:157|24:128,1,65,0|8,3:0|2:1,2:0:0:0:
78,59,120810,22,0,P|131:51|198:59,2,97.5,8|2|2,2:3|2:0|2:0,2:0:0:0:
110,144,121610,38,0,L|182:136,1,65,4|2,3:2|2:3,2:0:0:0:
251,87,122010,2,0,P|287:65|362:70,1,97.5,0|2,3:0|2:3,2:0:0:0:
353,48,122410,1,8,2:3:0:0:
401,125,122610,38,0,L|395:232,2,97.5,2|0|0,2:3|3:0|3:0,2:0:0:0:
469,63,123410,2,0,L|452:-15,2,65,2|8|2,2:3|3:1|3:0,2:0:0:0:
502,148,124010,38,0,P|511:203|490:252,2,97.5,8|8|2,2:3|2:1|2:3,2:0:0:0:
412,154,124810,22,0,P|396:200|431:292,1,130,4|0,3:2|2:3,2:0:0:0:
452,303,125310,1,0,2:0:0:0:
452,303,125410,1,0,2:0:0:0:
393,383,125610,2,0,B|346:386|346:386|297:373,1,97.5,8|0,2:3|3:0,2:0:0:0:
303,281,126110,38,0,L|308:181,1,97.5,0|0,3:0|3:0,2:0:0:0:
228,140,126610,1,2,2:3:0:0:
159,198,126810,2,0,L|162:280,1,65,0|8,3:0|2:1,2:0:0:0:
206,342,127210,21,8,2:3:0:0:
25,359,127610,2,0,B|20:305|20:305|34:252,1,97.5,2|0,2:0|2:0,2:0:0:0:
46,258,128010,38,0,L|46:181,1,65,4|2,3:2|2:3,2:0:0:0:
129,154,128410,2,0,P|148:199|153:247,1,97.5,2|0,3:0|3:0,2:0:0:0:
168,251,128810,1,8,2:3:0:0:
239,193,129010,38,0,L|337:197,2,97.5,2|0|0,2:3|3:0|3:0,2:0:0:0:
208,107,129810,2,0,L|214:29,2,65,2|8|2,2:3|3:1|3:0,2:0:0:0:
133,158,130410,38,0,P|64:94|73:0,1,195,8|0,2:3|2:0,2:0:0:0:
73,0,131210,22,0,P|81:72|49:136,1,130,4|0,3:2|2:0,2:0:0:0:
38,128,131710,2,0,B|24:173|24:173|31:228,1,97.5,2|8,2:3|2:3,2:0:0:0:
23,314,132210,2,0,L|141:305,1,97.5,0|0,3:0|3:0,2:0:0:0:
212,287,132710,37,0,3:0:0:0:
212,287,132810,2,0,P|221:318|218:371,1,65,0|2,3:0|2:3,2:0:0:0:
307,380,133210,2,0,P|339:379|370:370,1,65,0|8,3:0|2:1,2:0:0:0:
460,360,133610,22,0,P|487:310|491:250,2,97.5,8|2|2,2:3|2:0|2:0,2:0:0:0:
371,340,134410,38,0,L|363:249,1,65,4|2,3:2|2:3,2:0:0:0:
345,186,134810,2,0,L|459:167,1,97.5,0|0,3:0|3:0,2:0:0:0:
444,153,135210,1,8,2:3:0:0:
372,96,135410,38,0,P|326:72|292:29,2,97.5,2|0|0,2:3|3:0|3:0,2:0:0:0:
458,68,136210,2,0,L|467:-16,2,65,2|8|2,2:3|3:1|3:0,2:0:0:0:
372,96,136810,38,0,P|342:88|258:110,2,97.5,8|8|2,2:3|2:1|2:3,2:0:0:0:
392,184,137610,22,0,B|351:215|351:215|264:215,1,130,4|2,3:2|2:3,2:0:0:0:
255,232,138110,2,0,P|228:192|213:145,1,97.5,2|8,3:0|2:3,2:0:0:0:
132,103,138610,2,0,L|122:-17,1,97.5,0|0,3:0|3:0,2:0:0:0:
36,20,139110,37,0,3:0:0:0:
36,20,139210,2,0,P|20:61|22:106,1,65,0|2,3:0|2:3,2:0:0:0:
11,172,139610,2,0,L|100:175,1,65,0|8,3:0|2:1,2:0:0:0:
153,126,140010,21,8,2:3:0:0:
192,304,140410,2,0,P|145:294|96:298,1,97.5,2|0,2:0|2:0,2:0:0:0:
87,313,140810,6,0,L|235:319,1,130,4|8,3:2|2:1,2:0:0:0:
288,260,141410,1,2,2:3:0:0:
362,330,141610,2,0,L|368:201,1,130,8|0,2:3|3:0,2:0:0:0:
507,16,142410,37,2,2:3:0:0:
419,55,142610,1,0,3:0:0:0:
496,112,142810,1,0,3:0:0:0:
317,134,143210,2,0,P|333:72|303:17,1,130,8|0,2:3|2:0,2:0:0:0:
140,118,144010,38,0,B|157:164|157:164|156:212,1,97.5,4|0,3:2|2:0,2:0:0:0:
175,232,144410,2,0,L|110:241,1,65,2|0,2:0|2:0,2:0:0:0:
23,267,144810,1,8,2:3:0:0:
35,176,145010,2,0,L|44:62,1,97.5,0|0,3:0|2:0,2:0:0:0:
97,10,145510,37,0,3:0:0:0:
97,10,145610,2,0,P|166:-7|218:17,1,130,2|0,2:0|2:0,2:0:0:0:
308,6,146210,1,8,2:1:0:0:
300,96,146410,22,0,P|303:147|331:212,2,97.5,8|2|2,2:3|2:0|2:0,2:0:0:0:
308,6,147210,38,0,B|366:-1|366:-1|408:11,1,97.5,4|8,3:2|3:1,2:0:0:0:
494,0,147710,1,0,3:1:0:0:
509,93,147910,1,2,3:0:0:0:
509,93,148010,2,0,B|441:103|441:103|367:81,1,130,8|0,2:3|2:3,2:0:0:0:
364,102,148510,38,0,L|370:230,1,97.5,0|0,3:0|3:0,2:0:0:0:
305,264,149010,1,2,2:3:0:0:
219,231,149210,2,0,L|233:139,1,65,8|2,3:1|3:0,2:0:0:0:
206,78,149610,38,0,P|144:65|135:172,1,195,8|0,2:3|2:0,2:0:0:0:
211,223,150410,22,0,B|127:200|127:200|52:212,1,162.5,4|0,3:2|3:0,2:0:0:0:
44,228,151010,1,0,3:0:0:0:
34,323,151210,2,0,P|80:335|128:327,1,97.5,8|0,2:3|3:0,2:0:0:0:
209,367,151710,1,0,2:3:0:0:
209,367,151910,38,0,P|272:319|351:318,1,162.5,0|0,3:0|2:0,2:0:0:0:
340,225,152610,1,8,2:1:0:0:
256,186,152810,22,0,P|264:133|250:70,2,97.5,8|0|2,2:3|2:0|2:0,2:0:0:0:
354,136,153610,38,0,P|393:106|425:55,1,97.5,4|8,3:2|3:1,2:0:0:0:
504,125,154110,1,2,3:0:0:0:
512,211,154310,1,2,3:0:0:0:
512,211,154410,2,0,B|450:240|450:240|358:229,1,130,8|0,2:3|2:3,2:0:0:0:
376,253,154910,38,0,L|378:350,1,97.5,0|0,3:0|3:0,2:0:0:0:
288,380,155410,1,2,2:3:0:0:
221,314,155610,2,0,L|138:313,1,65,8|2,3:1|3:0,2:0:0:0:
89,250,156010,38,0,P|137:209|201:206,1,130,8|2,2:3|2:0,2:0:0:0:
439,251,156810,22,0,L|443:137,1,97.5,4|0,3:2|2:0,2:0:0:0:
436,140,157210,2,0,P|394:131|356:136,1,65,2|0,2:0|2:0,2:0:0:0:
299,187,157610,1,8,2:3:0:0:
228,129,157810,2,0,P|214:82|217:34,1,97.5,0|0,3:0|2:0,2:0:0:0:
130,34,158310,37,0,3:0:0:0:
130,34,158410,2,0,L|-18:53,1,130,2|0,2:0|2:0,2:0:0:0:
4,141,159010,1,8,2:1:0:0:
94,143,159210,22,0,P|132:193|130:257,1,130,8|0,2:3|3:0,2:0:0:0:
0,384,160010,38,0,L|9:268,1,97.5,4|8,3:2|3:1,2:0:0:0:
7,272,160510,1,2,3:0:0:0:
98,253,160710,1,2,3:0:0:0:
98,253,160810,2,0,L|107:385,1,130,8|0,2:3|2:0,2:0:0:0:
117,376,161310,38,0,L|233:370,1,97.5,0|0,3:0|3:0,2:0:0:0:
270,299,161810,1,2,2:3:0:0:
207,232,162010,2,0,L|204:167,1,65,8|2,3:1|3:0,2:0:0:0:
240,83,162410,38,0,P|285:67|333:73,1,97.5,8|8,2:3|3:1,2:0:0:0:
509,10,163210,22,0,L|500:172,1,162.5,4|0,3:2|3:0,2:0:0:0:
495,190,163810,1,0,3:0:0:0:
411,225,164010,2,0,P|408:273|423:319,1,97.5,8|0,2:3|3:0,2:0:0:0:
343,370,164510,1,0,2:0:0:0:
343,370,164710,38,0,B|259:379|259:379|172:333,1,162.5,0|0,3:0|2:0,2:0:0:0:
150,260,165410,1,8,2:1:0:0:
71,289,165610,22,0,P|13:335|4:373,2,97.5,8|2|2,2:3|2:0|3:2,2:0:0:0:
150,260,166410,38,0,L|146:162,1,97.5,4|8,3:2|3:1,2:0:0:0:
213,121,166910,1,2,3:0:0:0:
185,34,167110,1,2,3:0:0:0:
185,34,167210,2,0,P|129:20|46:38,1,130,8|0,2:3|2:3,2:0:0:0:
51,48,167710,38,0,L|152:61,1,97.5,0|0,3:0|3:0,2:0:0:0:
213,121,168210,1,2,2:3:0:0:
295,83,168410,2,0,L|359:86,1,65,8|2,3:1|3:0,2:0:0:0:
384,174,168810,38,0,P|332:212|166:197,1,227.5,8|0,2:3|2:0,2:0:0:0:
168,189,169610,37,4,3:2:0:0:
