osu file format v14

[General]
AudioFilename: audio.mp3
AudioLeadIn: 0
PreviewTime: 40905
Countdown: 0
SampleSet: Soft
StackLeniency: 0.7
Mode: 0
LetterboxInBreaks: 0
WidescreenStoryboard: 0

[Editor]
DistanceSpacing: 1.4
BeatDivisor: 4
GridSize: 4
TimelineZoom: 1.6

[Metadata]
Title:Praeteritum
TitleUnicode:Praeteritum
Artist:Blacklolita
ArtistUnicode:Blacklolita
Creator:JeZag
Version:Hyper
Source:
Tags:pulvis et cinis Alphaversion Records AVRS-0009 Glitch Experimental Yukiyo 閣下 electronic instrumental
BeatmapID:1405254
BeatmapSetID:651006

[Difficulty]
HPDrainRate:5
CircleSize:4
OverallDifficulty:6.5
ApproachRate:8.4
SliderMultiplier:1
SliderTickRate:1

[Events]
//Background and Video events
0,0,"big room.jpg",0,0
//Break Periods
2,69309,76060
2,82110,92060
//Storyboard Layer 0 (Background)
//Storyboard Layer 1 (Fail)
//Storyboard Layer 2 (Pass)
//Storyboard Layer 3 (Foreground)
//Storyboard Layer 4 (Overlay)
//Storyboard Sound Samples

[TimingPoints]
3200,400,4,2,2,40,1,0
3200,-133.333333333333,4,2,2,40,0,0
3400,-133.333333333333,4,2,2,30,0,0
3600,-133.333333333333,4,2,2,25,0,0
3800,-133.333333333333,4,2,2,20,0,0
4000,-133.333333333333,4,2,2,40,0,0
4200,-133.333333333333,4,2,2,30,0,0
4400,-133.333333333333,4,2,2,25,0,0
4600,-133.333333333333,4,2,2,20,0,0
4800,-133.333333333333,4,2,2,40,0,0
5000,-133.333333333333,4,2,2,30,0,0
5200,-133.333333333333,4,2,2,25,0,0
5400,-133.333333333333,4,2,2,20,0,0
5600,-133.333333333333,4,2,2,40,0,0
5800,-133.333333333333,4,2,2,30,0,0
6000,-133.333333333333,4,2,2,25,0,0
6200,-133.333333333333,4,2,2,20,0,0
6400,-133.333333333333,4,2,2,40,0,0
6600,-133.333333333333,4,2,2,30,0,0
6800,-133.333333333333,4,2,2,25,0,0
7000,-133.333333333333,4,2,2,20,0,0
7200,-133.333333333333,4,2,2,35,0,0
7400,-133.333333333333,4,2,2,25,0,0
7600,-133.333333333333,4,2,2,20,0,0
7800,-133.333333333333,4,2,2,15,0,0
8000,-133.333333333333,4,2,2,30,0,0
8200,-133.333333333333,4,2,2,20,0,0
8400,-133.333333333333,4,2,2,15,0,0
8600,-133.333333333333,4,2,2,12,0,0
8800,-133.333333333333,4,2,2,25,0,0
9000,-133.333333333333,4,2,2,15,0,0
9200,-133.333333333333,4,2,2,12,0,0
9400,-133.333333333333,4,2,2,10,0,0
9600,-133.333333333333,4,2,1,15,0,0
10700,-133.333333333333,4,2,1,5,0,0
10800,-133.333333333333,4,2,1,20,0,0
11600,-133.333333333333,4,2,1,25,0,0
12000,-133.333333333333,4,2,1,30,0,0
13550,-133.333333333333,4,2,1,35,0,0
13850,-133.333333333333,4,2,1,5,0,0
13950,-133.333333333333,4,2,1,35,0,0
14550,-133.333333333333,4,2,1,5,0,0
14750,-111.111111111111,4,2,1,45,0,0
15100,-111.111111111111,4,2,1,5,0,0
15200,-111.111111111111,4,2,1,45,0,0
16000,400,4,2,2,40,1,8
16010,400,4,2,1,50,1,0
16010,-66.6666666666667,4,2,1,50,0,0
17010,-66.6666666666667,4,2,3,50,0,0
17410,-66.6666666666667,4,2,1,50,0,0
20210,-66.6666666666667,4,2,3,50,0,0
20610,-66.6666666666667,4,2,1,50,0,0
23410,-66.6666666666667,4,2,3,50,0,0
23810,-66.6666666666667,4,2,1,50,0,0
26610,-66.6666666666667,4,2,3,50,0,0
27010,-66.6666666666667,4,2,1,50,0,0
28010,-66.6666666666667,4,2,2,70,0,0
28810,-66.6666666666667,4,2,1,50,0,0
40810,-66.6666666666667,4,2,3,40,0,0
41610,-66.6666666666667,4,2,1,70,0,0
43210,-66.6666666666667,4,2,4,70,0,0
43810,-66.6666666666667,4,2,1,70,0,0
44010,-100,4,2,1,70,0,0
44810,-66.6666666666667,4,2,1,70,0,0
47210,-100,4,2,1,70,0,0
47610,-100,4,2,2,70,0,0
48010,-66.6666666666667,4,2,1,70,0,0
50410,-100,4,2,1,70,0,0
51210,-66.6666666666667,4,2,1,70,0,0
53710,-66.6666666666667,4,2,2,70,0,0
54010,-100,4,2,2,70,0,0
54310,-100,4,2,1,5,0,0
54410,-66.6666666666667,4,2,1,70,0,0
56810,-100,4,2,1,70,0,0
57610,-66.6666666666667,4,2,1,70,0,0
60010,-100,4,2,1,70,0,0
60810,-66.6666666666667,4,2,1,70,0,0
63210,-100,4,2,1,70,0,0
64010,-66.6666666666667,4,2,1,70,0,0
66510,-66.6666666666667,4,2,2,70,0,0
66810,-100,4,2,2,70,0,0
67110,-100,4,2,1,5,0,0
67210,-66.6666666666667,4,2,1,70,0,0
68410,-100,4,2,1,70,0,0
69110,-100,4,2,1,40,0,0
76810,-100,4,2,1,25,0,0
77710,-100,4,2,1,30,0,0
78410,-100,4,2,1,40,0,0
78810,-100,4,2,1,45,0,0
79310,-100,4,2,1,50,0,0
79410,-100,4,2,1,60,0,0
79910,-100,4,2,1,5,0,0
80010,-66.6666666666667,4,2,1,70,0,0
81210,-100,4,2,1,70,0,0
81910,-100,4,2,1,40,0,0
92810,-133.333333333333,4,2,1,50,0,0
115210,-83.3333333333333,4,2,1,60,0,0
117610,-83.3333333333333,4,2,1,20,0,0
118210,-83.3333333333333,4,2,1,50,0,0
118309,-83.3333333333333,4,2,1,5,0,0
118410,-66.6666666666667,4,2,1,70,0,1
120810,-100,4,2,1,70,0,0
121610,-66.6666666666667,4,2,1,70,0,1
124010,-100,4,2,1,70,0,0
124810,-66.6666666666667,4,2,1,70,0,1
127210,-66.6666666666667,4,2,1,70,0,0
127610,-100,4,2,1,70,0,0
127910,-100,4,2,1,5,0,0
128010,-66.6666666666667,4,2,1,70,0,1
130410,-100,4,2,1,70,0,0
131210,-66.6666666666667,4,2,1,70,0,1
133610,-100,4,2,1,70,0,0
134410,-66.6666666666667,4,2,1,70,0,1
136810,-100,4,2,1,70,0,0
137610,-66.6666666666667,4,2,1,70,0,1
140010,-66.6666666666667,4,2,1,70,0,0
140410,-100,4,2,1,70,0,0
140710,-100,4,2,1,5,0,0
140810,-100,4,2,1,70,0,0
143210,-83.3333333333333,4,2,1,70,0,0
143909,-83.3333333333333,4,2,1,5,0,0
144010,-58.8235294117647,4,2,1,70,0,1
146410,-100,4,2,1,70,0,0
147210,-58.8235294117647,4,2,1,70,0,1
149610,-100,4,2,1,70,0,0
150010,-100,4,2,2,70,0,0
150410,-58.8235294117647,4,2,1,70,0,1
152810,-100,4,2,1,70,0,0
153610,-58.8235294117647,4,2,1,70,0,1
156010,-58.8235294117647,4,2,1,70,0,0
156110,-58.8235294117647,4,2,2,70,0,0
156410,-100,4,2,2,70,0,0
156710,-100,4,2,1,5,0,0
156810,-58.8235294117647,4,2,1,70,0,1
159210,-100,4,2,1,70,0,0
160010,-58.8235294117647,4,2,1,70,0,1
162410,-100,4,2,1,70,0,0
163210,-58.8235294117647,4,2,1,70,0,1
165610,-100,4,2,1,70,0,0
166410,-58.8235294117647,4,2,1,70,0,1
168810,-100,4,2,1,70,0,0
169510,-100,4,2,1,5,0,0
169610,-100,4,2,1,35,0,0

[Colours]
Combo1 : 171,171,118
Combo2 : 142,173,191
Combo3 : 68,98,200
Combo4 : 194,141,141

[HitObjects]
501,0,3200,6,0,L|509:64,1,37.5000014305115,2|0,2:0|2:0,2:0:0:0:
508,50,3600,2,0,L|512:87,1,37.5000014305115,0|0,2:0|2:0,2:0:0:0:
440,44,4000,6,0,L|432:107,1,37.5000014305115,2|0,2:0|2:0,2:0:0:0:
434,93,4400,2,0,L|429:130,1,37.5000014305115,0|0,2:0|2:0,2:0:0:0:
357,97,4800,38,0,L|365:161,1,37.5000014305115,2|0,2:0|2:0,2:0:0:0:
364,147,5200,2,0,L|369:184,1,37.5000014305115,0|0,2:0|2:0,2:0:0:0:
296,135,5600,6,0,L|288:198,1,37.5000014305115,2|0,2:0|2:0,2:0:0:0:
290,184,6000,2,0,L|285:221,1,37.5000014305115,0|0,2:0|2:0,2:0:0:0:
214,170,6400,38,0,L|222:234,1,37.5000014305115,2|0,2:0|2:0,2:0:0:0:
221,220,6800,2,0,L|226:257,1,37.5000014305115,0|0,2:0|2:0,2:0:0:0:
154,214,7200,6,0,L|149:257,1,37.5000014305115,2|0,2:0|2:0,2:0:0:0:
148,263,7600,2,0,L|143:300,1,37.5000014305115,0|0,2:0|2:0,2:0:0:0:
79,256,8000,38,0,L|87:320,1,37.5000014305115,2|0,2:0|2:0,2:0:0:0:
86,306,8400,2,0,L|91:343,1,37.5000014305115,0|0,2:0|2:0,2:0:0:0:
19,298,8800,6,0,L|11:361,1,37.5000014305115,2|0,2:0|2:0,2:0:0:0:
13,347,9200,2,0,L|8:384,1,37.5000014305115,0|0,2:0|2:0,2:0:0:0:
11,288,9600,38,0,P|84:309|218:279,1,206.250007867813,2|0,2:0|2:0,2:0:0:0:
226,296,10800,2,0,P|299:283|375:305,1,150.000005722046,2|2,2:0|2:0,2:0:0:0:
512,384,12000,6,0,P|497:338|494:161,1,225.000008583069,2|0,2:0|2:0,2:0:0:0:
512,0,13550,38,0,P|480:5|450:0,1,56.2500021457673,2|0,2:0|2:0,2:0:0:0:
447,23,13950,2,0,P|381:22|334:39,1,112.500004291535,2|0,2:0|2:0,2:0:0:0:
283,124,14750,6,0,P|245:125|208:105,1,78.7499975967408,2|0,2:0|2:0,2:0:0:0:
199,95,15200,2,0,P|142:62|69:57,1,134.999995880127,2|0,2:0|2:0,2:0:0:0:
0,0,16010,22,0,P|-7:42|8:158,1,150.000005722046,4|2,3:2|2:3,2:0:0:0:
169,198,16610,1,2,3:0:0:0:
104,330,16810,1,8,2:3:0:0:
82,329,16910,1,0,2:0:0:0:
60,328,17010,1,2,3:2:0:0:
38,327,17110,1,2,3:0:0:0:
16,326,17210,1,2,3:2:0:0:
0,237,17410,1,8,2:1:0:0:
88,216,17610,38,0,P|85:293|95:381,1,150.000005722046,0|2,3:0|2:0,2:0:0:0:
189,384,18210,1,2,3:2:0:0:
258,286,18410,2,0,P|291:272|325:287,1,75.0000028610231,8|8,2:0|2:3,2:0:0:0:
420,384,18810,1,8,2:0:0:0:
443,381,18910,1,8,2:0:0:0:
466,378,19010,1,8,2:3:0:0:
489,375,19110,1,8,2:3:0:0:
512,372,19210,6,0,P|512:287|505:218,1,150.000005722046,0|2,3:0|2:3,2:0:0:0:
404,145,19810,1,2,3:0:0:0:
493,26,20010,1,8,2:3:0:0:
473,31,20110,1,0,2:0:0:0:
451,31,20210,2,0,P|426:30|413:27,2,37.5000014305115,0|2|2,3:0|2:3|2:3,2:0:0:0:
501,124,20610,1,8,2:1:0:0:
347,83,20810,38,0,P|290:73|190:69,1,150.000005722046,0|2,3:0|2:0,2:0:0:0:
102,179,21410,1,2,3:2:0:0:
173,304,21610,2,0,P|190:273|176:240,1,75.0000028610231,8|8,2:0|2:3,2:0:0:0:
0,275,22010,1,8,2:0:0:0:
1,297,22110,1,8,2:0:0:0:
3,319,22210,1,8,2:3:0:0:
5,341,22310,1,8,2:3:0:0:
8,363,22410,6,0,P|68:380|163:384,1,150.000005722046,4|2,3:2|2:3,2:0:0:0:
263,311,23010,1,2,3:0:0:0:
195,163,23210,1,8,2:3:0:0:
195,141,23310,1,0,2:0:0:0:
196,119,23410,1,2,3:2:0:0:
197,97,23510,1,2,2:3:0:0:
198,75,23610,1,2,3:2:0:0:
106,136,23810,1,8,2:1:0:0:
114,234,24010,38,0,P|188:238|263:232,1,150.000005722046,0|2,3:0|2:0,2:0:0:0:
329,150,24610,1,2,3:2:0:0:
464,197,24810,2,0,P|478:163|464:130,1,75.0000028610231,8|8,2:0|2:3,2:0:0:0:
512,4,25210,1,8,2:0:0:0:
490,4,25310,1,8,2:0:0:0:
468,5,25410,1,8,2:3:0:0:
446,6,25510,1,8,2:3:0:0:
424,8,25610,6,0,P|361:2|254:20,1,150.000005722046,0|2,3:0|2:3,2:0:0:0:
210,84,26210,1,2,3:0:0:0:
102,48,26410,1,8,2:3:0:0:
80,48,26510,1,0,2:0:0:0:
58,48,26610,2,0,P|33:49|20:52,2,37.5000014305115,0|2|2,3:0|2:3|2:3,2:0:0:0:
78,131,27010,1,8,2:1:0:0:
154,195,27210,38,0,P|145:269|149:344,1,150.000005722046,0|2,3:0|2:0,2:0:0:0:
243,372,27810,1,2,3:2:0:0:
390,314,28010,6,0,L|427:319,2,37.5000014305115,2|2|2,2:0|2:0|2:0,2:0:0:0:
365,282,28310,2,0,P|317:283|241:291,1,112.500004291535,2|2,2:0|2:0,2:0:0:0:
61,169,28810,37,4,3:2:0:0:
256,206,29210,2,0,P|195:198|131:197,1,112.500004291535,2|0,3:0|2:3,2:0:0:0:
133,212,29610,5,8,3:0:0:0:
385,179,30010,1,0,3:0:0:0:
109,162,30410,38,0,P|152:162|199:153,1,75.0000028610231,0|0,3:0|2:0,2:0:0:0:
367,167,30810,1,2,3:2:0:0:
282,144,31010,1,2,2:0:0:0:
106,245,31210,6,0,P|151:253|200:245,1,75.0000028610231,2|8,3:0|2:3,2:0:0:0:
371,279,31610,2,0,P|312:258|261:284,1,112.500004291535,2|0,3:2|2:0,2:0:0:0:
262,294,32010,37,0,3:0:0:0:
223,198,32210,1,0,2:0:0:0:
251,85,32410,2,0,P|196:97|126:94,1,112.500004291535,2|0,3:0|2:3,2:0:0:0:
123,76,32810,5,8,3:0:0:0:
375,103,33210,1,0,3:0:0:0:
148,139,33610,38,0,P|191:141|252:133,1,75.0000028610231,0|0,3:0|2:0,2:0:0:0:
386,163,34010,1,2,3:2:0:0:
308,134,34210,1,2,2:0:0:0:
148,216,34410,6,0,P|192:224|236:216,1,75.0000028610231,2|8,3:0|2:3,2:0:0:0:
384,220,34810,2,0,P|340:212|296:220,1,75.0000028610231,2|2,3:0|2:3,2:0:0:0:
153,308,35210,38,0,P|193:312|237:315,1,75.0000028610231,4|0,3:2|3:0,2:0:0:0:
334,384,35610,2,0,P|340:342|341:300,1,75.0000028610231,0|0,3:0|3:0,2:0:0:0:
387,219,36010,2,0,P|349:214|303:212,1,75.0000028610231,8|0,3:0|3:0,2:0:0:0:
206,143,36410,2,0,P|201:180|199:227,1,75.0000028610231,0|0,3:0|3:0,2:0:0:0:
262,352,36810,6,0,L|255:261,1,75.0000028610231,0|0,3:0|3:0,2:0:0:0:
379,188,37210,2,0,L|288:195,1,75.0000028610231,2|2,3:2|3:2,2:0:0:0:
216,70,37610,2,0,L|223:161,1,75.0000028610231,8|0,3:0|3:0,2:0:0:0:
99,234,38010,2,0,L|190:227,1,75.0000028610231,0|0,3:0|3:0,2:0:0:0:
316,265,38410,38,0,L|325:211,7,37.5000014305115,4|0|0|0|0|0|0|0,3:2|3:0|3:0|3:0|3:0|3:0|3:0|3:0,2:0:0:0:
407,159,39210,6,0,L|418:223,7,37.5000014305115,8|0|0|0|0|0|0|0,3:0|3:0|3:0|3:0|3:0|3:0|3:0|3:0,2:0:0:0:
496,106,40010,38,0,L|505:52,7,37.5000014305115,0|0|0|0|0|0|0|0,3:0|3:0|3:0|3:0|3:0|3:0|3:0|3:0,2:0:0:0:
422,37,40810,22,0,L|423:-28,2,37.5000014305115,2|4|8,2:3|2:3|2:3,2:0:0:0:
408,56,41110,2,0,P|363:70|292:57,1,112.500004291535,2|2,2:3|2:3,2:0:0:0:
218,0,41610,38,0,L|223:128,1,112.500004291535,4|0,3:2|2:3,2:0:0:0:
225,151,42010,2,0,L|139:146,1,75.0000028610231,2|0,2:0|2:0,2:0:0:0:
92,94,42310,1,0,2:0:0:0:
70,123,42410,38,0,L|73:215,1,75.0000028610231,8|0,2:3|3:0,2:0:0:0:
74,286,42710,2,0,L|-32:285,2,75.0000028610231,2|2|2,2:0|2:0|3:2,2:0:0:0:
148,236,43210,5,2,2:0:0:0:
233,358,43410,1,2,2:0:0:0:
233,358,43510,1,2,2:0:0:0:
233,358,43610,1,2,2:0:0:0:
409,331,43810,1,8,2:1:0:0:
321,298,44010,6,0,P|317:260|322:223,2,75,8|2|2,2:3|2:0|3:2,2:0:0:0:
507,305,44810,38,0,L|514:170,1,112.500004291535,4|8,3:2|3:1,2:0:0:0:
411,26,45310,1,0,3:0:0:0:
506,110,45510,1,0,3:0:0:0:
506,110,45610,38,0,B|438:118|438:118|359:97,1,150.000005722046,8|0,2:3|2:0,2:0:0:0:
336,111,46110,2,0,P|329:71|301:24,1,75.0000028610231,0|0,3:0|2:0,2:0:0:0:
242,78,46410,6,0,P|202:63|90:55,1,150.000005722046,0|8,3:0|3:1,2:0:0:0:
132,158,47010,1,2,3:0:0:0:
14,2,47210,22,0,L|6:76,1,75,8|0,2:3|2:0,2:0:0:0:
50,155,47610,1,2,2:0:0:0:
50,155,47710,1,2,2:0:0:0:
0,384,48010,22,0,P|68:365|150:374,1,150.000005722046,4|0,3:2|2:0,2:0:0:0:
236,362,48510,1,0,3:0:0:0:
236,362,48610,1,0,3:0:0:0:
190,143,48810,38,0,L|108:142,1,75.0000028610231,8|0,2:3|2:0,2:0:0:0:
87,179,49110,2,0,L|10:179,2,75.0000028610231,2|2|2,3:2|2:0|3:2,2:0:0:0:
161,225,49610,5,2,2:0:0:0:
294,179,49810,1,2,2:0:0:0:
294,179,49910,1,2,2:0:0:0:
294,179,50010,1,2,2:0:0:0:
296,268,50210,1,8,2:1:0:0:
474,265,50410,6,0,P|489:209|489:174,2,75,8|2|2,2:3|2:0|3:2,2:0:0:0:
512,353,51210,38,0,L|408:341,1,75.0000028610231,4|0,3:2|2:1,2:0:0:0:
420,327,51510,1,8,2:1:0:0:
327,270,51710,1,0,3:0:0:0:
244,356,51910,1,0,3:0:0:0:
244,356,52010,38,0,P|235:296|248:200,1,150.000005722046,8|0,2:3|2:3,2:0:0:0:
266,127,52510,2,0,L|364:117,1,75.0000028610231,0|0,3:0|2:0,2:0:0:0:
317,110,52810,6,0,B|394:101|394:101|477:113,1,150.000005722046,0|8,3:0|3:1,2:0:0:0:
511,202,53410,1,2,3:0:0:0:
511,35,53610,21,8,2:3:0:0:
492,32,53710,1,0,2:0:0:0:
473,29,53810,1,2,2:0:0:0:
454,26,53910,1,2,2:0:0:0:
435,23,54010,2,0,P|384:18|347:30,1,75,2|0,2:0|2:0,2:0:0:0:
356,40,54410,22,0,L|348:181,1,112.500004291535,4|0,3:2|2:0,2:0:0:0:
350,174,54810,2,0,L|275:172,1,75.0000028610231,2|0,2:0|2:0,2:0:0:0:
234,239,55110,1,0,2:0:0:0:
205,221,55210,38,0,L|190:125,1,75.0000028610231,8|0,2:3|3:0,2:0:0:0:
174,139,55510,2,0,L|185:64,2,75.0000028610231,2|2|2,2:0|2:0|3:2,2:0:0:0:
122,205,56010,5,2,2:0:0:0:
81,58,56210,1,2,2:0:0:0:
81,58,56310,1,2,2:0:0:0:
81,58,56410,1,2,2:0:0:0:
13,216,56610,1,8,2:1:0:0:
0,138,56810,6,0,P|37:137|73:145,2,75,8|2|0,2:3|2:0|3:0,2:0:0:0:
13,216,57610,38,0,L|15:312,1,75.0000028610231,4|0,3:2|2:1,2:0:0:0:
4,306,57910,1,8,2:1:0:0:
98,271,58110,1,0,3:0:0:0:
184,383,58310,1,0,3:0:0:0:
184,383,58410,38,0,B|169:312|169:312|180:236,1,150.000005722046,8|0,2:3|2:0,2:0:0:0:
266,239,58910,2,0,L|340:234,1,75.0000028610231,0|0,3:0|2:0,2:0:0:0:
346,218,59210,6,0,B|380:279|380:279|385:360,1,150.000005722046,0|8,3:0|2:1,2:0:0:0:
286,384,59810,1,2,2:3:0:0:
470,273,60010,22,0,P|496:332|498:362,1,75,8|8,2:3|3:1,2:0:0:0:
512,349,60810,22,0,L|508:185,1,150.000005722046,4|0,3:2|2:0,2:0:0:0:
429,181,61310,1,0,3:0:0:0:
429,181,61410,1,0,3:0:0:0:
293,148,61610,38,0,L|197:144,1,75.0000028610231,8|0,2:3|2:0,2:0:0:0:
199,135,61910,2,0,L|107:135,2,75.0000028610231,2|2|2,3:2|2:0|3:2,2:0:0:0:
253,67,62410,5,2,2:0:0:0:
349,1,62610,1,2,2:0:0:0:
349,1,62710,1,2,2:0:0:0:
349,1,62810,1,2,2:0:0:0:
378,134,63010,1,8,2:1:0:0:
512,84,63210,6,0,P|513:39|506:-10,2,75,8|2|2,2:3|2:0|3:2,2:0:0:0:
512,209,64010,38,0,P|444:217|362:213,1,150.000005722046,4|0,3:2|3:0,2:0:0:0:
276,111,64610,1,0,3:0:0:0:
129,181,64810,2,0,P|136:198|143:215,2,37.5000014305115,8|0|0,2:3|2:0|2:0,2:0:0:0:
30,304,65210,38,0,P|105:299|179:301,1,150.000005722046,0|2,3:0|2:3,2:0:0:0:
276,200,65810,1,0,3:0:0:0:
468,354,66010,2,0,P|403:347|349:345,1,112.500004291535,0|0,3:0|2:0,2:0:0:0:
352,263,66410,21,10,2:3:0:0:
355,246,66510,1,0,2:0:0:0:
359,227,66610,1,2,2:0:0:0:
362,209,66710,1,2,2:0:0:0:
366,189,66810,2,0,P|410:187|442:182,1,75,2|0,2:0|2:0,2:0:0:0:
461,98,67210,38,0,P|380:92|311:95,1,150.000005722046,4|8,2:0|2:0,2:0:0:0:
258,221,67810,2,0,L|211:238,5,37.5000014305115,2|2|0|0|0|0,2:3|2:3|3:0|3:0|3:0|3:0,2:0:0:0:
189,225,68410,38,0,P|120:230|10:227,1,175,4|0,2:0|2:0,2:0:0:0:
268,172,76810,21,2,2:3:0:0:
167,175,77010,2,0,L|123:169,2,25,0|0|2,2:0|2:3|2:3,2:0:0:0:
207,255,77410,5,0,2:0:0:0:
222,265,77510,2,0,P|280:261|289:262,1,50,2|0,2:3|2:0,2:0:0:0:
290,250,77810,2,0,P|315:249|340:245,1,50,2|8,2:3|2:0,2:0:0:0:
450,237,78210,38,0,L|443:181,1,50,0|2,2:0|2:3,2:0:0:0:
422,167,78510,2,0,L|424:116,1,50,8|0,2:0|2:0,2:0:0:0:
445,94,78810,1,2,2:3:0:0:
329,28,79010,5,2,2:3:0:0:
298,54,79110,2,0,L|301:123,1,50,8|0,2:0|2:0,2:0:0:0:
318,135,79410,2,0,P|253:113|195:129,1,125,2|0,3:0|2:0,2:0:0:0:
200,155,80010,22,0,P|119:161|50:158,1,150.000005722046,4|8,2:0|2:0,2:0:0:0:
155,269,80610,2,0,L|202:252,5,37.5000014305115,2|2|0|0|0|0,2:3|2:3|3:0|3:0|3:0|3:0,2:0:0:0:
231,276,81210,38,0,P|300:271|410:275,1,175,4|0,2:0|2:0,2:0:0:0:
161,88,92810,22,0,L|108:87,1,37.5000014305115,4|0,3:2|2:0,2:0:0:0:
36,85,93210,1,2,2:3:0:0:
35,5,93410,1,0,3:0:0:0:
168,7,93610,6,0,L|221:9,1,37.5000014305115,8|0,2:3|2:0,2:0:0:0:
262,95,94010,2,0,L|183:92,1,75.0000028610231,0|2,3:0|2:3,2:0:0:0:
100,90,94610,37,0,3:0:0:0:
226,175,94810,2,0,L|188:174,1,37.5000014305115,0|0,3:0|2:0,2:0:0:0:
7,168,95210,5,8,2:0:0:0:
72,228,95410,1,8,2:3:0:0:
148,197,95610,1,8,2:1:0:0:
148,197,95810,1,2,2:3:0:0:
226,175,96010,38,0,L|229:220,1,37.5000014305115,0|0,3:0|2:0,2:0:0:0:
272,292,96410,1,2,2:3:0:0:
351,288,96610,1,0,3:0:0:0:
512,384,96810,6,0,L|509:339,1,37.5000014305115,8|0,2:3|2:0,2:0:0:0:
512,266,97210,2,0,L|474:265,1,37.5000014305115,0|2,3:0|2:3,2:0:0:0:
396,230,97610,37,8,2:0:0:0:
398,150,97810,1,2,2:3:0:0:
481,138,98010,2,0,L|481:175,1,37.5000014305115,2|2,2:3|2:3,2:0:0:0:
313,186,98410,5,8,2:0:0:0:
315,106,98610,1,0,3:0:0:0:
244,240,98810,37,8,2:3:0:0:
134,243,99010,1,0,3:0:0:0:
173,163,99210,6,0,L|210:163,1,37.5000014305115,0|0,3:0|2:0,2:0:0:0:
210,89,99610,1,2,2:3:0:0:
129,87,99810,1,0,3:0:0:0:
134,243,100010,38,0,L|135:292,1,37.5000014305115,8|0,2:3|2:3,2:0:0:0:
1,344,100410,2,0,L|76:345,1,75.0000028610231,0|2,3:0|2:3,2:0:0:0:
54,262,101010,5,0,3:0:0:0:
157,383,101210,2,0,L|204:385,1,37.5000014305115,0|0,3:0|2:0,2:0:0:0:
294,360,101610,37,8,2:0:0:0:
336,257,101810,1,8,2:3:0:0:
269,209,102010,1,8,2:1:0:0:
269,209,102210,1,2,2:3:0:0:
215,283,102410,6,0,L|265:284,1,37.5000014305115,0|0,3:0|2:0,2:0:0:0:
418,298,102810,1,2,2:3:0:0:
417,221,103010,1,2,2:3:0:0:
349,75,103210,38,0,L|350:38,1,37.5000014305115,8|0,2:3|2:0,2:0:0:0:
430,34,103610,1,2,2:3:0:0:
431,111,103810,1,2,2:3:0:0:
294,147,104010,6,0,L|256:148,1,37.5000014305115,8|2,2:3|2:3,2:0:0:0:
128,138,104410,2,0,L|165:139,1,37.5000014305115,0|0,3:0|2:0,2:0:0:0:
44,56,104810,37,8,2:0:0:0:
41,150,105010,1,2,2:3:0:0:
214,67,105210,5,8,2:3:0:0:
53,60,105410,1,0,3:0:0:0:
123,150,105610,38,0,L|198:152,1,75.0000028610231,4|2,3:2|2:3,2:0:0:0:
271,214,106210,1,0,3:0:0:0:
96,227,106410,6,0,L|98:278,1,37.5000014305115,8|0,2:3|2:0,2:0:0:0:
173,331,106810,2,0,L|248:333,1,75.0000028610231,0|2,3:0|2:3,2:0:0:0:
190,236,107410,37,0,3:0:0:0:
37,384,107610,2,0,L|-6:384,1,37.5000014305115,0|0,3:0|2:0,2:0:0:0:
0,286,108010,5,8,2:0:0:0:
90,309,108210,1,8,2:3:0:0:
112,216,108410,1,8,2:1:0:0:
112,216,108610,1,2,2:3:0:0:
27,210,108810,38,0,L|26:156,1,37.5000014305115,0|0,3:0|2:0,2:0:0:0:
23,93,109210,1,2,2:3:0:0:
116,102,109410,1,0,3:0:0:0:
238,170,109610,6,0,L|275:169,1,37.5000014305115,8|0,2:3|2:0,2:0:0:0:
362,95,110010,2,0,L|362:57,1,37.5000014305115,0|2,3:0|2:3,2:0:0:0:
447,18,110410,37,8,2:0:0:0:
460,168,110610,1,2,2:3:0:0:
370,179,110810,2,0,L|372:217,1,37.5000014305115,2|2,2:3|2:3,2:0:0:0:
458,264,111210,5,8,2:3:0:0:
300,265,111410,1,0,3:0:0:0:
309,279,112010,38,0,L|234:284,1,75.0000028610231,2|0,3:0|2:0,2:0:0:0:
160,219,112810,1,2,2:3:0:0:
75,322,113210,1,0,3:0:0:0:
254,205,113610,6,0,L|259:114,1,75.0000028610231,8|2,2:3|2:0,2:0:0:0:
498,184,114410,2,0,P|437:205|384:200,1,112.500004291535,0|0,3:0|2:0,2:0:0:0:
340,133,115210,38,0,L|339:16,1,89.9999972534181,8|2,2:3|2:3,2:0:0:0:
416,6,115610,1,2,2:3:0:0:
432,0,115710,2,0,L|425:102,1,89.9999972534181,0|8,3:0|2:3,2:0:0:0:
256,192,116410,12,8,117610,2:0:0:0:
391,355,118210,38,0,L|362:353,1,29.9999990844727,0|0,2:0|2:0,2:0:0:0:
328,384,118410,38,0,B|306:315|306:315|339:226,1,150.000005722046,4|0,3:2|2:0,2:0:0:0:
420,229,118910,2,0,L|418:266,2,37.5000014305115,2|0|2,2:3|2:3|2:3,2:0:0:0:
403,146,119210,6,0,L|478:148,1,75.0000028610231,8|0,2:3|3:0,2:0:0:0:
438,60,119510,2,0,L|363:60,1,75.0000028610231,0|0,3:0|3:0,2:0:0:0:
249,40,119910,1,0,3:0:0:0:
249,40,120010,38,0,P|227:93|230:133,1,75.0000028610231,0|2,3:0|2:3,2:0:0:0:
270,185,120310,1,2,2:3:0:0:
270,185,120410,1,0,3:0:0:0:
147,60,120610,1,8,2:1:0:0:
15,164,120810,22,0,P|1:205|2:253,2,75,8|2|2,2:3|2:0|2:0,2:0:0:0:
63,95,121610,38,0,L|67:5,1,75.0000028610231,4|2,3:2|2:3,2:0:0:0:
153,20,121910,1,2,2:3:0:0:
168,12,122010,2,0,L|152:141,1,112.500004291535,0|2,3:0|2:3,2:0:0:0:
118,209,122410,38,0,L|229:205,1,75.0000028610231,8|2,2:3|2:3,2:0:0:0:
213,192,122710,1,0,3:0:0:0:
262,303,122910,1,0,3:0:0:0:
143,313,123110,1,0,2:0:0:0:
143,313,123210,6,0,P|109:296|-17:310,1,150.000005722046,0|8,3:0|3:1,2:0:0:0:
83,384,123810,1,2,3:0:0:0:
262,303,124010,22,0,P|266:265|263:228,2,75,8|8|2,2:3|2:1|2:3,2:0:0:0:
324,363,124810,22,0,L|430:362,2,75.0000028610231,4|0|0,3:2|3:0|2:0,2:0:0:0:
245,384,125310,1,2,3:0:0:0:
245,384,125410,1,2,3:0:0:0:
361,275,125610,38,0,L|464:278,1,75.0000028610231,8|0,2:3|3:0,2:0:0:0:
438,254,125910,2,0,L|531:255,1,75.0000028610231,0|0,3:0|3:0,2:0:0:0:
373,198,126310,1,0,3:0:0:0:
373,198,126410,6,0,P|369:147|378:101,1,75.0000028610231,0|2,3:0|2:3,2:0:0:0:
290,93,126710,1,2,2:3:0:0:
290,93,126810,1,0,3:0:0:0:
461,152,127010,1,8,2:1:0:0:
288,219,127210,5,8,2:3:0:0:
288,219,127610,2,0,P|247:224|193:210,1,75,2|0,2:0|2:0,2:0:0:0:
210,210,128010,38,0,L|206:124,1,75.0000028610231,4|2,3:2|2:3,2:0:0:0:
206,108,128310,1,2,2:3:0:0:
206,108,128410,2,0,L|120:112,1,75.0000028610231,2|0,3:0|3:0,2:0:0:0:
56,94,128710,37,0,3:0:0:0:
56,94,128810,2,0,L|52:197,1,75.0000028610231,8|2,2:3|2:3,2:0:0:0:
40,176,129110,1,0,3:0:0:0:
17,275,129310,1,0,3:0:0:0:
102,228,129510,1,0,2:0:0:0:
102,228,129610,6,0,B|109:300|109:300|85:410,1,150.000005722046,0|8,3:0|3:1,2:0:0:0:
1,375,130210,1,2,3:0:0:0:
186,266,130410,22,0,P|260:258|332:277,1,150,8|0,2:3|2:0,2:0:0:0:
332,277,131210,22,0,B|268:300|268:300|160:284,1,150.000005722046,4|0,3:2|2:0,2:0:0:0:
109,277,131710,2,0,L|91:330,2,37.5000014305115,2|2|0,2:3|2:3|2:3,2:0:0:0:
168,213,132010,38,0,L|154:125,1,75.0000028610231,8|0,2:3|3:0,2:0:0:0:
144,127,132310,2,0,L|62:127,1,75.0000028610231,0|0,3:0|3:0,2:0:0:0:
205,78,132710,1,0,3:0:0:0:
205,78,132810,6,0,P|212:33|198:-14,1,75.0000028610231,0|2,3:0|2:3,2:0:0:0:
129,0,133110,1,2,2:3:0:0:
129,0,133210,1,0,3:0:0:0:
0,78,133410,1,8,2:1:0:0:
57,217,133610,6,0,P|94:216|130:207,2,75,8|2|2,2:3|2:0|2:0,2:0:0:0:
0,300,134410,38,0,L|92:306,1,75,4|2,3:2|2:3,2:0:0:0:
151,284,134710,1,2,2:3:0:0:
151,284,134810,2,0,L|269:287,1,112.500004291535,0|0,3:0|3:0,2:0:0:0:
339,319,135210,38,0,L|348:210,1,75.0000028610231,8|2,2:3|2:3,2:0:0:0:
333,212,135510,1,0,3:0:0:0:
302,111,135710,1,0,3:0:0:0:
250,209,135910,1,0,2:0:0:0:
250,209,136010,6,0,P|226:138|231:63,1,150.000005722046,0|8,3:0|3:1,2:0:0:0:
331,16,136610,1,2,3:0:0:0:
510,86,136810,22,0,P|515:122|507:159,2,75,8|8|2,2:3|2:1|2:3,2:0:0:0:
429,56,137610,22,0,L|425:131,2,75.0000028610231,4|0|2,3:2|3:2|2:3,2:0:0:0:
346,25,138110,1,2,3:0:0:0:
346,25,138210,1,0,3:0:0:0:
221,103,138410,38,0,L|139:103,1,75.0000028610231,8|0,2:3|3:0,2:0:0:0:
130,116,138710,2,0,L|119:39,1,75.0000028610231,0|0,3:0|3:0,2:0:0:0:
72,192,139110,1,0,3:0:0:0:
72,192,139210,6,0,P|28:203|-6:194,1,75.0000028610231,0|2,3:0|2:3,2:0:0:0:
0,114,139510,1,2,2:3:0:0:
0,114,139610,1,0,3:0:0:0:
155,197,139810,1,8,2:1:0:0:
0,302,140010,5,8,2:3:0:0:
0,302,140410,2,0,P|43:298|84:311,1,75,2|0,2:0|2:0,2:0:0:0:
75,318,140810,6,0,L|180:319,1,100,4|2,3:2|2:3,2:0:0:0:
255,263,141410,1,0,3:0:0:0:
451,210,141610,2,0,L|342:200,1,100,8|0,2:3|3:0,2:0:0:0:
179,124,142410,37,2,2:3:0:0:
175,233,142610,1,0,3:0:0:0:
349,194,142810,1,0,3:0:0:0:
180,220,143210,6,0,P|104:180|179:140,1,209.999993591309,8|0,2:3|2:0,2:0:0:0:
194,148,144010,22,0,L|337:135,1,127.50000243187,4|0,3:2|2:0,2:0:0:0:
356,210,144410,2,0,L|259:221,1,85.0000016212464,2|0,2:0|2:0,2:0:0:0:
210,309,144710,37,0,2:0:0:0:
210,309,144810,2,0,L|120:291,1,85.0000016212464,8|0,2:3|3:0,2:0:0:0:
115,304,145110,2,0,L|104:202,1,85.0000016212464,2|0,2:0|2:0,2:0:0:0:
21,49,145510,6,0,L|0:131,1,85.0000016212464,2|0,3:2|2:0,2:0:0:0:
26,222,145810,1,2,2:0:0:0:
26,222,145910,1,2,2:0:0:0:
26,222,146010,1,2,2:0:0:0:
158,133,146210,1,8,2:1:0:0:
293,215,146410,6,0,P|307:166|311:129,2,75,8|2|2,2:3|2:0|2:0,2:0:0:0:
251,288,147210,38,0,B|344:308,1,85.0000016212464,4|0,3:2|2:1,2:0:0:0:
402,358,147510,1,8,2:1:0:0:
469,185,147710,1,0,3:0:0:0:
512,284,147910,1,0,3:0:0:0:
512,284,148010,38,0,L|419:271,1,85.0000016212464,8|0,2:3|2:3,2:0:0:0:
357,222,148310,1,2,2:0:0:0:
357,222,148410,1,2,2:0:0:0:
357,222,148510,2,0,P|339:184|330:118,1,85.0000016212464,0|0,3:0|2:0,2:0:0:0:
259,105,148810,6,0,P|250:141|224:192,1,85.0000016212464,0|2,3:0|2:3,2:0:0:0:
148,213,149110,1,2,2:3:0:0:
148,213,149210,1,8,3:1:0:0:
26,113,149410,1,2,3:0:0:0:
168,12,149610,22,0,L|180:87,1,75,8|0,2:3|2:0,2:0:0:0:
116,134,150010,1,2,2:0:0:0:
116,134,150110,1,2,2:0:0:0:
0,349,150410,22,0,P|80:341|181:376,1,170.000003242493,4|0,3:2|2:0,2:0:0:0:
235,313,150910,1,0,3:0:0:0:
235,313,151010,1,0,3:0:0:0:
414,384,151210,38,0,L|411:273,1,85.0000016212464,8|0,2:3|2:0,2:0:0:0:
473,231,151510,2,0,P|488:180|485:132,2,85.0000016212464,2|0|0,3:2|2:3|3:0,2:0:0:0:
393,215,152010,6,0,L|301:205,1,85.0000016212464,2|2,2:0|2:0,2:0:0:0:
279,125,152310,1,2,2:0:0:0:
279,125,152410,1,2,2:0:0:0:
405,110,152610,1,8,2:1:0:0:
313,292,152810,6,0,P|265:280|235:257,2,75,8|2|2,2:3|2:0|2:0,2:0:0:0:
394,271,153610,38,0,B|402:220|402:220|386:162,1,85.0000016212464,4|0,3:2|2:1,2:0:0:0:
309,206,153910,1,8,2:1:0:0:
184,119,154110,1,0,3:0:0:0:
75,199,154310,1,0,3:0:0:0:
75,199,154410,38,0,P|59:151|64:87,1,85.0000016212464,8|0,2:3|2:0,2:0:0:0:
173,31,154810,1,2,2:3:0:0:
173,31,154910,1,0,3:0:0:0:
270,69,155110,1,2,2:3:0:0:
270,69,155210,6,0,B|392:58|392:58|449:93,1,170.000003242493,0|8,3:0|3:1,2:0:0:0:
504,246,155810,1,2,3:0:0:0:
333,377,156010,21,8,2:3:0:0:
352,374,156110,1,2,2:0:0:0:
371,371,156210,1,2,2:0:0:0:
390,368,156310,1,2,2:0:0:0:
409,365,156410,2,0,P|447:360|487:366,1,75,2|0,2:0|2:0,2:0:0:0:
506,374,156810,22,0,L|504:237,1,127.50000243187,4|0,3:2|2:0,2:0:0:0:
415,194,157210,2,0,L|415:287,1,85.0000016212464,2|0,2:0|2:0,2:0:0:0:
339,316,157510,1,0,2:0:0:0:
339,316,157610,38,0,L|231:309,1,85.0000016212464,8|0,2:3|3:0,2:0:0:0:
238,322,157910,2,0,L|242:227,1,85.0000016212464,2|0,2:0|2:0,2:0:0:0:
83,247,158310,5,2,3:2:0:0:
83,247,158410,2,0,L|-7:265,1,85.0000016212464,2|2,2:0|2:0,2:0:0:0:
0,347,158710,1,2,2:0:0:0:
0,347,158810,1,2,2:0:0:0:
157,285,159010,1,8,2:1:0:0:
37,162,159210,6,0,P|32:124|37:87,2,75,8|2|0,2:3|2:0|3:0,2:0:0:0:
94,213,160010,38,0,B|160:205|160:205|179:190,1,85.0000016212464,4|0,3:2|2:1,2:0:0:0:
246,232,160310,1,8,2:1:0:0:
225,82,160510,1,0,3:0:0:0:
350,11,160710,1,0,3:0:0:0:
350,11,160810,38,0,L|466:-5,1,85.0000016212464,8|0,2:3|2:0,2:0:0:0:
508,46,161110,1,2,2:0:0:0:
508,46,161210,1,2,2:0:0:0:
508,46,161310,2,0,P|493:122|476:140,1,85.0000016212464,0|0,3:0|2:0,2:0:0:0:
411,142,161610,6,0,P|428:195|421:240,1,85.0000016212464,0|2,3:0|2:3,2:0:0:0:
379,286,161910,1,2,2:3:0:0:
379,286,162010,1,8,3:1:0:0:
511,361,162210,1,2,3:0:0:0:
290,343,162410,22,0,P|249:324|202:321,1,75,8|8,2:3|3:1,2:0:0:0:
54,343,163210,22,0,B|181:353|181:353|229:320,1,170.000003242493,4|0,3:2|2:0,2:0:0:0:
296,356,163710,1,0,3:0:0:0:
296,356,163810,1,0,3:0:0:0:
489,322,164010,38,0,L|484:231,1,85.0000016212464,8|0,2:3|2:0,2:0:0:0:
441,169,164310,2,0,L|352:157,1,85.0000016212464,2|0,3:2|2:0,2:0:0:0:
197,242,164710,5,0,3:0:0:0:
197,242,164810,2,0,L|288:231,1,85.0000016212464,2|2,2:0|2:0,2:0:0:0:
274,150,165110,1,2,2:0:0:0:
274,150,165210,1,2,2:0:0:0:
391,247,165410,1,8,2:1:0:0:
496,73,165610,6,0,P|503:23|490:-12,2,75,8|2|2,2:3|2:0|3:2,2:0:0:0:
437,137,166410,38,0,L|331:144,1,85.0000016212464,4|0,3:2|2:1,2:0:0:0:
306,72,166710,1,8,2:1:0:0:
207,207,166910,1,0,3:0:0:0:
74,169,167110,1,0,3:0:0:0:
74,169,167210,38,0,L|68:53,1,85.0000016212464,8|0,2:3|2:0,2:0:0:0:
233,46,167610,1,2,2:3:0:0:
233,46,167710,1,0,3:0:0:0:
283,150,167910,1,2,2:3:0:0:
283,150,168010,6,0,P|246:133|145:120,1,127.50000243187,0|0,3:0|2:3,2:0:0:0:
74,169,168410,1,8,3:1:0:0:
215,243,168610,1,2,3:0:0:0:
37,362,168810,22,0,P|88:345|219:344,1,175,8|0,2:3|2:0,2:0:0:0:
222,328,169610,37,4,3:2:0:0:
