osu file format v14

[General]
AudioFilename: audio.mp3
AudioLeadIn: 0
PreviewTime: 40905
Countdown: 0
SampleSet: Soft
StackLeniency: 0.7
Mode: 0
LetterboxInBreaks: 0
WidescreenStoryboard: 1

[Editor]
DistanceSpacing: 1.2
BeatDivisor: 4
GridSize: 4
TimelineZoom: 0.5999998

[Metadata]
Title:Praeteritum
TitleUnicode:Praeteritum
Artist:Blacklolita
ArtistUnicode:Blacklolita
Creator:JeZag
Version:Beginner
Source:
Tags:pulvis et cinis Alphaversion Records AVRS-0009 Glitch Experimental Yukiyo 閣下 electronic instrumental
BeatmapID:1398317
BeatmapSetID:651006

[Difficulty]
HPDrainRate:2
CircleSize:3
OverallDifficulty:2
ApproachRate:3
SliderMultiplier:0.8
SliderTickRate:0.5

[Events]
//Background and Video events
0,0,"big room.jpg",0,0
//Break Periods
2,68610,78570
2,81410,91370
2,115410,116970
//Storyboard Layer 0 (Background)
//Storyboard Layer 1 (Fail)
//Storyboard Layer 2 (Pass)
//Storyboard Layer 3 (Foreground)
//Storyboard Layer 4 (Overlay)
//Storyboard Sound Samples

[TimingPoints]
3200,400,4,2,2,40,1,0
7200,-100,4,2,2,35,0,0
8000,-100,4,2,2,30,0,0
8800,-100,4,2,2,25,0,0
9600,-100,4,2,1,15,0,0
10800,-100,4,2,1,20,0,0
11600,-100,4,2,1,25,0,0
12000,-100,4,2,1,30,0,0
13550,-100,4,2,1,35,0,0
15200,-100,4,2,1,45,0,0
16000,400,4,2,2,40,1,8
16010,400,4,2,1,50,1,0
28010,-100,4,2,2,70,0,0
28810,-100,4,2,1,50,0,0
40810,-100,4,2,3,40,0,0
41610,-100,4,2,1,70,0,0
47610,-100,4,2,2,70,0,0
48010,-100,4,2,1,70,0,0
54010,-100,4,2,2,70,0,0
54410,-100,4,2,1,70,0,0
92810,-100,4,2,1,50,0,0
115210,-100,4,2,1,60,0,0
118410,-100,4,2,1,70,0,1
120810,-100,4,2,1,70,0,0
121610,-100,4,2,1,70,0,1
124010,-100,4,2,1,70,0,0
124810,-100,4,2,1,70,0,1
127210,-100,4,2,1,70,0,0
128010,-100,4,2,1,70,0,1
130410,-100,4,2,1,70,0,0
131210,-100,4,2,1,70,0,1
133610,-100,4,2,1,70,0,0
134410,-100,4,2,1,70,0,1
136810,-100,4,2,1,70,0,0
137610,-100,4,2,1,70,0,1
140010,-100,4,2,1,70,0,0
144010,-100,4,2,1,70,0,1
146410,-100,4,2,1,70,0,0
147210,-100,4,2,1,70,0,1
149610,-100,4,2,1,70,0,0
150010,-100,4,2,2,70,0,0
150410,-100,4,2,1,70,0,1
152810,-100,4,2,1,70,0,0
153610,-100,4,2,1,70,0,1
156010,-100,4,2,1,70,0,0
156410,-100,4,2,2,70,0,0
156810,-100,4,2,1,70,0,1
159210,-100,4,2,1,70,0,0
160010,-100,4,2,1,70,0,1
162410,-100,4,2,1,70,0,0
163210,-100,4,2,1,70,0,1
165610,-100,4,2,1,70,0,0
166410,-100,4,2,1,70,0,1
168810,-100,4,2,1,70,0,0
169610,-100,4,2,1,35,0,0

[Colours]
Combo1 : 171,171,118
Combo2 : 142,173,191
Combo3 : 68,98,200
Combo4 : 194,141,141

[HitObjects]
160,96,3200,5,2,2:0:0:0:
352,96,4000,1,2,2:0:0:0:
352,288,4800,1,2,2:0:0:0:
160,288,5600,1,2,2:0:0:0:
160,96,6400,5,2,2:0:0:0:
352,96,7200,1,2,2:0:0:0:
352,288,8000,1,2,2:0:0:0:
160,288,8800,1,2,2:0:0:0:
155,96,9600,38,0,P|240:82|342:110,1,160,2|0,2:0|2:0,2:0:0:0:
313,192,10800,2,0,P|227:205|126:178,1,160,2|2,2:0|2:0,2:0:0:0:
71,146,12000,2,0,P|16:180|69:327,1,240,2|0,2:0|2:0,2:0:0:0:
144,282,13550,5,2,2:0:0:0:
222,337,13950,2,0,P|277:347|403:333,1,160,2|2,2:0|2:0,2:0:0:0:
460,286,15200,1,2,2:0:0:0:
436,95,16010,21,4,3:2:0:0:
351,139,16410,2,0,L|236:140,1,80,2|8,2:3|2:3,2:0:0:0:
106,40,17610,1,0,3:0:0:0:
31,100,18010,1,2,2:0:0:0:
71,187,18410,2,0,L|162:188,1,80,8|0,2:0|2:0,2:0:0:0:
192,274,19210,37,0,3:0:0:0:
287,276,19610,2,0,L|289:175,1,80,2|8,2:3|2:3,2:0:0:0:
371,22,20810,1,0,3:0:0:0:
465,5,21210,1,2,2:0:0:0:
470,100,21610,2,0,L|464:196,1,80,8|0,2:0|2:0,2:0:0:0:
403,253,22410,5,4,3:2:0:0:
423,346,22810,2,0,L|338:345,1,80,2|8,2:3|2:3,2:0:0:0:
151,360,24010,1,0,3:0:0:0:
147,264,24410,1,2,2:0:0:0:
229,215,24810,2,0,L|232:129,1,80,8|0,2:0|2:0,2:0:0:0:
181,53,25610,37,0,3:0:0:0:
88,77,26010,2,0,L|91:169,1,80,2|8,2:3|2:3,2:0:0:0:
41,342,27210,1,0,3:0:0:0:
135,357,27610,1,2,2:0:0:0:
188,277,28010,1,2,2:0:0:0:
263,336,28410,1,2,2:0:0:0:
357,352,28810,6,0,L|362:260,1,80,4|0,3:2|3:0,2:0:0:0:
388,179,29610,2,0,L|296:174,1,80,8|0,3:0|3:0,2:0:0:0:
237,109,30410,1,0,3:0:0:0:
175,182,30810,1,0,3:0:0:0:
212,270,31210,38,0,P|294:285|392:270,1,160,2|0,3:0|3:0,2:0:0:0:
444,216,32410,1,0,3:0:0:0:
436,120,32810,2,0,P|351:101|256:120,1,160,8|0,3:0|3:0,2:0:0:0:
186,87,34010,1,0,3:0:0:0:
155,178,34410,1,0,3:0:0:0:
239,350,35210,6,0,L|339:351,1,80,4|0,3:2|3:0,2:0:0:0:
411,324,36010,2,0,P|424:228|409:149,1,160,8|0,3:0|3:0,2:0:0:0:
370,80,37210,1,2,2:0:0:0:
274,93,37610,2,0,L|272:195,1,80,8|0,3:0|3:2,2:0:0:0:
222,255,38410,38,0,P|40:215|186:63,1,480,4|0,3:2|2:0,2:0:0:0:
371,38,41610,5,4,3:2:0:0:
465,205,42410,2,0,B|470:285,1,80,8|0,2:3|2:0,2:0:0:0:
377,308,43210,2,0,B|383:229,1,80,2|0,2:0|2:0,2:0:0:0:
306,170,44010,1,8,2:3:0:0:
131,250,44810,37,4,3:2:0:0:
285,363,45610,2,0,L|282:283,1,80,8|0,2:3|2:0,2:0:0:0:
284,187,46410,2,0,L|191:178,1,80,0|0,3:0|3:0,2:0:0:0:
117,138,47210,2,0,P|109:98|117:60,1,80,8|2,2:3|2:0,2:0:0:0:
201,12,48010,5,4,3:2:0:0:
375,92,48810,2,0,L|380:171,1,80,8|0,2:3|2:0,2:0:0:0:
468,210,49610,2,0,L|480:114,1,80,2|0,2:0|2:0,2:0:0:0:
447,39,50410,1,8,2:3:0:0:
265,102,51210,37,4,3:2:0:0:
361,267,52010,2,0,L|346:345,1,80,8|0,2:3|2:3,2:0:0:0:
255,378,52810,1,0,3:0:0:0:
176,322,53210,1,0,2:0:0:0:
186,226,53610,2,0,P|236:220|287:236,1,80,8|2,2:3|2:0,2:0:0:0:
322,149,54410,5,4,3:2:0:0:
167,34,55210,2,0,L|87:28,1,80,8|0,2:3|2:0,2:0:0:0:
15,93,56010,2,0,L|21:173,1,80,2|0,2:0|2:0,2:0:0:0:
106,217,56810,1,8,2:3:0:0:
245,84,57610,37,4,3:2:0:0:
294,269,58410,2,0,L|410:258,1,80,8|0,2:3|2:0,2:0:0:0:
332,174,59210,2,0,L|249:173,1,80,0|0,3:0|3:1,2:0:0:0:
183,240,60010,2,0,P|171:277|176:317,1,80,8|0,2:3|2:0,2:0:0:0:
98,373,60810,5,4,3:2:0:0:
10,202,61610,2,0,L|0:122,1,80,8|0,2:3|2:0,2:0:0:0:
77,66,62410,2,0,L|159:77,1,80,2|0,2:0|2:0,2:0:0:0:
180,169,63210,1,8,2:3:0:0:
290,11,64010,37,4,3:2:0:0:
463,93,64810,1,8,2:3:0:0:
382,145,65210,2,0,L|375:304,1,160,0|0,3:0|3:0,2:0:0:0:
305,370,66410,1,10,2:3:0:0:
201,208,67210,6,0,P|141:202|82:213,2,120,4|2|4,2:0|2:3|2:0,2:0:0:0:
328,305,80010,54,0,P|387:299|446:310,2,120,4|2|4,2:0|2:3|2:0,2:0:0:0:
277,358,92810,5,4,3:2:0:0:
419,229,93610,1,8,2:3:0:0:
507,191,94010,2,0,L|500:20,1,160,0|0,3:0|3:0,2:0:0:0:
405,18,95210,2,0,L|400:106,1,80,8|8,2:0|2:1,2:0:0:0:
311,134,96010,5,0,3:2:0:0:
202,292,96810,2,0,L|107:283,1,80,8|0,2:3|3:0,2:0:0:0:
75,200,97610,1,8,2:3:0:0:
221,75,98410,2,0,L|305:40,1,80,8|8,2:0|2:3,2:0:0:0:
381,85,99210,5,0,3:2:0:0:
416,273,100010,1,8,2:3:0:0:
380,362,100410,2,0,L|221:378,1,160,0|0,3:0|3:0,2:0:0:0:
163,300,101610,2,0,L|63:298,1,80,8|8,2:0|2:1,2:0:0:0:
9,236,102410,5,0,3:2:0:0:
88,61,103210,1,8,2:0:0:0:
234,184,104010,2,0,L|329:172,1,80,8|0,2:3|3:2,2:0:0:0:
399,215,104810,2,0,L|478:204,1,80,8|8,2:0|2:3,2:0:0:0:
509,114,105610,5,4,3:2:0:0:
336,30,106410,1,8,2:3:0:0:
274,104,106810,2,0,L|279:263,1,160,0|0,3:0|3:0,2:0:0:0:
362,312,108010,2,0,L|448:309,1,80,8|8,2:0|2:1,2:0:0:0:
490,226,108810,5,0,3:2:0:0:
331,118,109610,2,0,L|233:121,1,80,8|0,2:3|3:2,2:0:0:0:
184,189,110410,2,0,L|86:192,1,80,8|0,2:0|3:2,2:0:0:0:
38,261,111210,1,8,2:3:0:0:
228,284,112010,38,0,L|207:81,1,160,2|0,3:0|3:0,2:0:0:0:
388,51,113610,2,0,L|383:210,1,160,8|0,2:3|3:0,2:0:0:0:
247,346,115210,5,8,2:3:0:0:
162,15,118410,6,0,L|135:137,1,120,4|0,3:2|2:0,2:0:0:0:
91,149,119210,2,0,L|112:233,1,80,8|0,2:3|2:0,2:0:0:0:
71,314,120010,2,0,L|151:325,1,80,0|0,3:0|3:0,2:0:0:0:
225,265,120810,1,8,2:3:0:0:
410,316,121610,6,0,L|417:236,1,80,4|0,3:2|3:0,2:0:0:0:
497,185,122410,1,8,2:3:0:0:
424,122,122810,1,2,2:0:0:0:
339,164,123210,2,0,L|237:164,1,80,0|0,3:0|3:0,2:0:0:0:
188,98,124010,2,0,L|49:93,1,120,8|0,2:3|2:0,2:0:0:0:
25,71,124810,38,0,L|16:156,1,80,4|0,3:2|2:0,2:0:0:0:
60,235,125610,2,0,L|165:231,1,80,8|0,2:3|2:0,2:0:0:0:
214,170,126410,1,0,3:0:0:0:
174,82,126810,1,0,3:0:0:0:
248,21,127210,1,8,2:3:0:0:
435,63,128010,6,0,L|446:155,1,80,4|2,3:2|3:0,2:0:0:0:
443,238,128810,2,0,L|345:221,1,80,8|0,2:3|2:0,2:0:0:0:
297,155,129610,2,0,L|194:168,1,80,0|0,3:0|3:1,2:0:0:0:
122,150,130410,2,0,P|108:208|147:284,1,120,8|0,2:3|2:0,2:0:0:0:
108,307,131210,37,4,3:2:0:0:
293,357,132010,2,0,L|303:259,1,80,8|0,2:3|2:0,2:0:0:0:
286,182,132810,2,0,L|365:188,1,80,0|0,3:0|3:0,2:0:0:0:
444,134,133610,1,8,2:3:0:0:
491,320,134410,6,0,L|411:329,1,80,4|0,3:2|3:0,2:0:0:0:
323,290,135210,1,8,2:3:0:0:
335,194,135610,1,2,2:0:0:0:
429,177,136010,2,0,L|460:90,1,80,0|0,3:0|3:1,2:0:0:0:
388,33,136810,2,0,P|331:63|282:112,1,120,8|0,2:3|2:0,2:0:0:0:
249,125,137610,38,0,L|242:29,1,80,4|0,3:2|2:3,2:0:0:0:
153,11,138410,2,0,L|58:22,1,80,8|0,2:3|2:0,2:0:0:0:
41,110,139210,1,0,3:0:0:0:
129,147,139610,1,0,3:0:0:0:
84,232,140010,1,8,2:3:0:0:
211,375,140810,6,0,L|348:383,1,80,4|0,3:2|2:3,2:0:0:0:
364,318,141610,1,8,2:3:0:0:
306,241,142010,1,0,3:0:0:0:
342,52,142810,1,0,3:0:0:0:
433,22,143210,1,8,2:3:0:0:
510,197,144010,38,0,P|517:255|475:329,1,120,4|0,3:2|2:0,2:0:0:0:
449,290,144810,2,0,L|369:285,1,80,8|0,2:3|2:0,2:0:0:0:
293,226,145610,2,0,L|288:147,1,80,2|0,2:0|2:0,2:0:0:0:
200,105,146410,2,0,P|197:45|160:0,1,120,8|0,2:3|2:0,2:0:0:0:
114,10,147210,5,4,3:2:0:0:
91,200,148010,2,0,L|170:193,1,80,8|0,2:3|2:3,2:0:0:0:
242,256,148810,2,0,L|235:335,1,80,0|0,3:0|3:1,2:0:0:0:
147,376,149610,1,8,2:3:0:0:
63,328,150010,1,2,2:0:0:0:
42,234,150410,38,0,L|177:223,1,120,4|0,3:2|2:0,2:0:0:0:
188,184,151210,2,0,L|283:174,1,80,8|0,2:3|2:0,2:0:0:0:
333,105,152010,1,2,2:0:0:0:
425,130,152410,1,0,2:0:0:0:
389,219,152810,2,0,L|398:320,1,80,8|0,2:3|3:2,2:0:0:0:
491,287,153610,6,0,L|515:154,1,120,4|0,3:2|2:0,2:0:0:0:
492,124,154410,2,0,L|412:130,1,80,8|0,2:3|2:3,2:0:0:0:
332,184,155210,2,0,L|345:279,1,80,0|0,3:0|3:1,2:0:0:0:
262,316,156010,2,0,P|225:278|209:229,1,80,8|2,2:3|2:0,2:0:0:0:
233,159,156810,37,4,3:2:0:0:
369,23,157610,2,0,L|472:29,1,80,8|0,2:3|2:0,2:0:0:0:
505,105,158410,2,0,L|499:184,1,80,2|0,2:0|2:0,2:0:0:0:
414,229,159210,1,8,2:3:0:0:
353,154,159610,1,0,3:0:0:0:
270,203,160010,5,4,3:2:0:0:
149,53,160810,2,0,L|35:44,1,80,8|0,2:3|2:0,2:0:0:0:
9,121,161610,2,0,L|9:219,1,80,0|0,3:0|3:1,2:0:0:0:
92,248,162410,2,0,P|110:271|125:325,1,80,8|0,2:3|2:0,2:0:0:0:
199,384,163210,38,0,L|318:376,1,120,4|0,3:2|2:0,2:0:0:0:
334,331,164010,2,0,L|329:237,1,80,8|0,2:3|2:0,2:0:0:0:
378,168,164810,1,2,2:0:0:0:
459,218,165210,1,0,2:0:0:0:
425,307,165610,1,8,2:3:0:0:
247,234,166410,6,0,L|115:206,1,120,4|0,3:2|2:0,2:0:0:0:
81,204,167210,2,0,L|97:121,1,80,8|0,2:3|2:3,2:0:0:0:
189,103,168010,2,0,P|231:97|276:74,1,80,0|0,3:0|3:1,2:0:0:0:
360,88,168810,2,0,P|406:27|482:40,1,160,8|4,2:3|2:0,2:0:0:0:
