osu file format v14

[General]
AudioFilename: audio.mp3
AudioLeadIn: 0
PreviewTime: 40905
Countdown: 0
SampleSet: Soft
StackLeniency: 0.5
Mode: 0
LetterboxInBreaks: 0
WidescreenStoryboard: 1

[Editor]
DistanceSpacing: 1.4
BeatDivisor: 16
GridSize: 4
TimelineZoom: 2

[Metadata]
Title:Praeteritum
TitleUnicode:Praeteritum
Artist:Blacklolita
ArtistUnicode:Blacklolita
Creator:JeZag
Version:Another
Source:
Tags:pulvis et cinis Alphaversion Records AVRS-0009 Glitch Experimental Yukiyo 閣下 electronic instrumental
BeatmapID:1515012
BeatmapSetID:651006

[Difficulty]
HPDrainRate:6
CircleSize:4.1
OverallDifficulty:7.5
ApproachRate:9
SliderMultiplier:1
SliderTickRate:1

[Events]
//Background and Video events
0,0,"big room.jpg",0,0
//Break Periods
2,69410,76210
2,82210,90210
//Storyboard Layer 0 (Background)
//Storyboard Layer 1 (Fail)
//Storyboard Layer 2 (Pass)
//Storyboard Layer 3 (Foreground)
//Storyboard Layer 4 (Overlay)
//Storyboard Sound Samples

[TimingPoints]
3200,400,4,2,2,40,1,0
3200,-133.333333333333,4,2,2,40,0,0
3400,-133.333333333333,4,2,2,30,0,0
3600,-133.333333333333,4,2,2,25,0,0
3800,-133.333333333333,4,2,2,20,0,0
4000,-133.333333333333,4,2,2,40,0,0
4200,-133.333333333333,4,2,2,30,0,0
4400,-133.333333333333,4,2,2,25,0,0
4600,-133.333333333333,4,2,2,20,0,0
4800,-133.333333333333,4,2,2,40,0,0
5000,-133.333333333333,4,2,2,30,0,0
5200,-133.333333333333,4,2,2,25,0,0
5400,-133.333333333333,4,2,2,20,0,0
5600,-133.333333333333,4,2,2,40,0,0
5800,-133.333333333333,4,2,2,30,0,0
6000,-133.333333333333,4,2,2,25,0,0
6200,-133.333333333333,4,2,2,20,0,0
6400,-133.333333333333,4,2,2,40,0,0
6600,-133.333333333333,4,2,2,30,0,0
6800,-133.333333333333,4,2,2,25,0,0
7000,-133.333333333333,4,2,2,20,0,0
7200,-133.333333333333,4,2,2,35,0,0
7400,-133.333333333333,4,2,2,25,0,0
7600,-133.333333333333,4,2,2,20,0,0
7800,-133.333333333333,4,2,2,15,0,0
8000,-133.333333333333,4,2,2,30,0,0
8200,-133.333333333333,4,2,2,20,0,0
8400,-133.333333333333,4,2,2,15,0,0
8600,-133.333333333333,4,2,2,12,0,0
8800,-133.333333333333,4,2,2,25,0,0
9000,-133.333333333333,4,2,2,15,0,0
9200,-133.333333333333,4,2,2,12,0,0
9400,-133.333333333333,4,2,2,10,0,0
9600,-200,4,2,1,15,0,0
10700,-200,4,2,1,5,0,0
10800,-200,4,2,1,20,0,0
11600,-200,4,2,1,25,0,0
11900,-200,4,2,1,5,0,0
12000,-200,4,2,1,30,0,0
13450,-200,4,2,1,5,0,0
13550,-133.333333333333,4,2,1,35,0,0
13850,-133.333333333333,4,2,1,5,0,0
13950,-166.666666666667,4,2,1,35,0,0
14650,-166.666666666667,4,2,1,5,0,0
14750,-100,4,2,1,45,0,0
15100,-100,4,2,1,5,0,0
15200,-117.647058823529,4,2,1,45,0,0
15925,-117.647058823529,4,2,1,5,0,0
16000,400,4,2,2,40,1,8
16010,400,4,2,1,50,1,0
16010,-66.6666666666667,4,2,1,50,0,0
17010,-66.6666666666667,4,2,3,50,0,0
17410,-66.6666666666667,4,2,1,50,0,0
18410,-100,4,2,1,50,0,0
18610,-100,4,2,1,50,0,0
19210,-66.6666666666667,4,2,1,50,0,0
20210,-66.6666666666667,4,2,3,50,0,0
20610,-66.6666666666667,4,2,1,50,0,0
21610,-100,4,2,1,50,0,0
22010,-66.6666666666667,4,2,1,50,0,0
23410,-66.6666666666667,4,2,3,50,0,0
23810,-66.6666666666667,4,2,1,50,0,0
24810,-100,4,2,1,50,0,0
25210,-66.6666666666667,4,2,1,50,0,0
26610,-66.6666666666667,4,2,3,50,0,0
27010,-66.6666666666667,4,2,1,50,0,0
28010,-66.6666666666667,4,2,2,70,0,0
28810,-66.6666666666667,4,2,1,50,0,0
30010,-50,4,2,1,50,0,0
30410,-66.6666666666667,4,2,1,50,0,0
31610,-100,4,2,1,50,0,0
31910,-100,4,2,1,5,0,0
32010,-66.6666666666667,4,2,1,50,0,0
40810,-100,4,2,3,40,0,0
41610,-57.1428571428571,4,2,1,70,0,0
41910,-57.1428571428571,4,2,3,70,0,0
42410,-57.1428571428571,4,2,1,70,0,0
42710,-57.1428571428571,4,2,3,70,0,0
43110,-57.1428571428571,4,2,1,70,0,0
43210,-57.1428571428571,4,2,3,70,0,0
43810,-57.1428571428571,4,2,1,70,0,0
44010,-100,4,2,1,70,0,0
44810,-57.1428571428571,4,2,1,70,0,0
45710,-57.1428571428571,4,2,3,70,0,0
46110,-57.1428571428571,4,2,1,70,0,0
47210,-100,4,2,1,70,0,0
47610,-100,4,2,2,70,0,0
48010,-57.1428571428571,4,2,1,70,0,0
48310,-57.1428571428571,4,2,3,70,0,0
48510,-57.1428571428571,4,2,1,70,0,0
49610,-57.1428571428571,4,2,3,70,0,0
50210,-57.1428571428571,4,2,1,70,0,0
50410,-100,4,2,1,70,0,0
51210,-57.1428571428571,4,2,1,70,0,0
52110,-57.1428571428571,4,2,3,70,0,0
52510,-57.1428571428571,4,2,1,70,0,0
53610,-100,4,2,1,70,0,0
53710,-100,4,2,2,70,0,0
54310,-100,4,2,1,5,0,0
54410,-57.1428571428571,4,2,1,70,0,0
54710,-57.1428571428571,4,2,3,70,0,0
55210,-57.1428571428571,4,2,1,70,0,0
55510,-57.1428571428571,4,2,3,70,0,0
55910,-57.1428571428571,4,2,1,70,0,0
56010,-57.1428571428571,4,2,3,70,0,0
56610,-57.1428571428571,4,2,1,70,0,0
56810,-100,4,2,1,70,0,0
57610,-57.1428571428571,4,2,1,70,0,0
57910,-57.1428571428571,4,2,1,70,0,0
58510,-57.1428571428571,4,2,3,70,0,0
58910,-57.1428571428571,4,2,1,70,0,0
60010,-100,4,2,1,70,0,0
60710,-100,4,2,1,5,0,0
60810,-57.1428571428571,4,2,1,70,0,0
61110,-57.1428571428571,4,2,3,70,0,0
61310,-57.1428571428571,4,2,1,70,0,0
62610,-57.1428571428571,4,2,3,70,0,0
63010,-57.1428571428571,4,2,1,70,0,0
63210,-100,4,2,1,70,0,0
64010,-57.1428571428571,4,2,1,70,0,0
65510,-57.1428571428571,4,2,1,5,0,0
65610,-57.1428571428571,4,2,1,70,0,0
66310,-66.6666666666667,4,2,1,5,0,0
66410,-100,4,2,1,70,0,0
66510,-100,4,2,2,70,0,0
67110,-100,4,2,1,5,0,0
67210,-57.1428571428571,4,2,1,70,0,0
67510,-57.1428571428571,4,2,1,5,0,0
67610,-57.1428571428571,4,2,1,70,0,0
68410,-100,4,2,1,70,0,0
69110,-100,4,2,1,40,0,0
69210,-100,4,2,1,40,0,0
76810,-100,4,2,1,25,0,0
77510,-100,4,2,1,25,0,0
77610,-100,4,2,1,30,0,0
78210,-100,4,2,1,30,0,0
78410,-100,4,2,1,40,0,0
78810,-100,4,2,1,45,0,0
79210,-100,4,2,1,50,0,0
79410,-100,4,2,1,60,0,0
79910,-100,4,2,1,5,0,0
80010,-57.1428571428571,4,2,1,70,0,0
80310,-57.1428571428571,4,2,1,5,0,0
80410,-57.1428571428571,4,2,1,70,0,0
81210,-100,4,2,1,70,0,0
81910,-100,4,2,1,40,0,0
82010,-100,4,2,1,40,0,0
90810,-100,4,2,1,40,0,0
92010,-100,4,2,1,5,0,0
92110,-200,4,2,1,60,0,0
92710,-200,4,2,1,5,0,0
92810,-133.333333333333,4,2,1,50,0,0
115110,-133.333333333333,4,2,1,5,0,0
115210,-83.3333333333333,4,2,1,60,0,0
116310,-83.3333333333333,4,2,1,5,0,0
116410,-83.3333333333333,4,2,1,25,0,0
116610,-83.3333333333333,4,2,1,30,0,0
116810,-83.3333333333333,4,2,1,25,0,0
117010,-83.3333333333333,4,2,1,20,0,0
117610,-83.3333333333333,4,2,1,30,0,0
117660,-83.3333333333333,4,2,1,5,0,0
118210,-83.3333333333333,4,2,1,50,0,0
118310,-83.3333333333333,4,2,1,5,0,0
118410,-57.1428571428571,4,2,1,70,0,1
120810,-100,4,2,1,70,0,0
121510,-100,4,2,1,5,0,0
121610,-57.1428571428571,4,2,1,70,0,1
124010,-100,4,2,1,70,0,0
124810,-57.1428571428571,4,2,1,70,0,1
127210,-100,4,2,1,70,0,0
127910,-100,4,2,1,5,0,0
128010,-57.1428571428571,4,2,1,70,0,1
130410,-100,4,2,1,70,0,0
131210,-57.1428571428571,4,2,1,70,0,1
133610,-100,4,2,1,70,0,0
134410,-57.1428571428571,4,2,1,70,0,1
136810,-100,4,2,1,70,0,0
137610,-57.1428571428571,4,2,1,70,0,1
140010,-100,4,2,1,70,0,0
140710,-100,4,2,1,5,0,0
140810,-66.6666666666667,4,2,1,70,0,0
143210,-83.3333333333333,4,2,1,70,0,0
143910,-83.3333333333333,4,2,1,5,0,0
144010,-50,4,2,1,70,0,1
144310,-50,4,2,3,70,0,1
144810,-50,4,2,1,70,0,1
145010,-50,4,2,1,70,0,1
145110,-50,4,2,3,70,0,1
145510,-50,4,2,1,70,0,1
145610,-50,4,2,3,70,0,1
146210,-50,4,2,1,70,0,1
146410,-100,4,2,1,70,0,0
147210,-50,4,2,1,70,0,1
148110,-50,4,2,3,70,0,1
148510,-50,4,2,1,70,0,1
149610,-100,4,2,1,70,0,0
150010,-100,4,2,2,70,0,0
150310,-100,4,2,1,5,0,0
150410,-50,4,2,1,70,0,1
150710,-50,4,2,3,70,0,1
150910,-50,4,2,1,70,0,1
152210,-50,4,2,3,70,0,1
152610,-50,4,2,1,70,0,1
152810,-100,4,2,1,70,0,0
153610,-50,4,2,1,70,0,1
154510,-50,4,2,3,70,0,1
154810,-50,4,2,1,70,0,1
156010,-100,4,2,1,70,0,0
156110,-100,4,2,2,70,0,0
156710,-100,4,2,1,5,0,0
156810,-50,4,2,1,70,0,1
157110,-50,4,2,3,70,0,1
157610,-50,4,2,1,70,0,1
157910,-50,4,2,3,70,0,1
158310,-50,4,2,1,70,0,1
158410,-50,4,2,3,70,0,1
159010,-50,4,2,1,70,0,1
159210,-100,4,2,1,70,0,0
160010,-50,4,2,1,70,0,1
160910,-50,4,2,3,70,0,1
161310,-50,4,2,1,70,0,1
162410,-100,4,2,1,70,0,0
163210,-50,4,2,1,70,0,1
163510,-50,4,2,3,70,0,1
163710,-50,4,2,1,70,0,1
164810,-50,4,2,3,70,0,1
165410,-50,4,2,1,70,0,1
165610,-100,4,2,1,70,0,0
166410,-50,4,2,1,70,0,1
167310,-50,4,2,3,70,0,1
167610,-50,4,2,1,70,0,1
168810,-100,4,2,1,70,0,0
169510,-100,4,2,1,5,0,0
169610,-133.333333333333,4,2,1,35,0,0

[Colours]
Combo1 : 171,171,118
Combo2 : 142,173,191
Combo3 : 68,98,200
Combo4 : 194,141,141

[HitObjects]
256,114,3200,5,2,0:0:0:0:
256,114,3400,1,0,0:0:0:0:
256,270,3600,1,0,0:0:0:0:
256,270,3800,1,0,0:0:0:0:
256,114,4000,5,2,0:0:0:0:
256,114,4200,1,0,0:0:0:0:
256,270,4400,1,0,0:0:0:0:
256,270,4600,1,0,0:0:0:0:
256,114,4800,37,2,0:0:0:0:
256,114,5000,1,0,0:0:0:0:
256,270,5200,1,0,0:0:0:0:
256,270,5400,1,0,0:0:0:0:
256,114,5600,5,2,0:0:0:0:
256,114,5800,1,0,0:0:0:0:
256,270,6000,1,0,0:0:0:0:
256,270,6200,1,0,0:0:0:0:
256,125,6400,37,2,0:0:0:0:
256,125,6600,1,0,0:0:0:0:
256,258,6800,1,0,0:0:0:0:
256,258,7000,1,0,0:0:0:0:
256,138,7200,5,2,0:0:0:0:
256,138,7400,1,0,0:0:0:0:
256,244,7600,1,0,0:0:0:0:
256,244,7800,1,0,0:0:0:0:
256,154,8000,37,2,0:0:0:0:
256,154,8200,1,0,0:0:0:0:
256,228,8400,1,0,0:0:0:0:
256,228,8600,1,0,0:0:0:0:
256,169,8800,5,2,0:0:0:0:
256,169,9000,1,0,0:0:0:0:
256,214,9200,1,0,0:0:0:0:
256,214,9400,1,0,0:0:0:0:
256,192,9600,38,0,P|182:179|120:192,1,137.5,2|0,0:0|0:0,0:0:0:0:
135,264,10800,2,0,P|183:271|240:258,1,100,2|2,0:0|0:0,0:0:0:0:
350,270,12000,6,0,P|345:231|293:99,1,181.25,2|0,0:0|0:0,0:0:0:0:
321,30,13550,38,0,P|283:23|257:31,1,56.2500021457673,2|0,0:0|0:0,0:0:0:0:
182,31,13950,2,0,P|198:84|184:139,1,104.999996795654,2|0,0:0|0:0,0:0:0:0:
224,203,14750,6,0,P|184:223|146:203,1,87.5,2|0,0:0|0:0,0:0:0:0:
63,208,15200,2,0,P|86:143|59:57,1,159.375003039837,2|0,0:0|0:0,0:0:0:0:
6,5,16010,38,0,P|-16:47|2:111,1,112.500004291535,4|0,3:2|0:0,0:0:0:0:
60,59,16410,2,0,L|93:58,2,18.7500007152558,2|2|2,0:3|0:3|0:3,0:0:0:0:
103,133,16610,2,0,L|136:132,2,18.7500007152558,2|2|2,3:3|0:3|0:3,0:0:0:0:
202,23,16810,5,8,0:3:0:0:
266,128,17010,1,2,3:2:0:0:
266,128,17110,1,2,2:3:0:0:
266,128,17210,1,2,3:2:0:0:
332,69,17410,1,8,0:1:0:0:
466,103,17610,38,0,P|485:139|464:216,1,112.500004291535,0|0,3:0|0:3,0:0:0:0:
402,251,18010,2,0,L|345:246,1,37.5000014305115,2|0,0:2|0:0,0:0:0:0:
378,235,18210,2,0,L|321:230,1,37.5000014305115,2|0,3:2|0:0,0:0:0:0:
268,278,18410,5,8,0:2:0:0:
188,330,18610,1,8,0:3:0:0:
105,194,18810,1,8,0:2:0:0:
90,193,18910,1,8,0:2:0:0:
75,191,19010,1,8,0:3:0:0:
60,189,19110,1,8,0:3:0:0:
18,208,19210,38,0,P|1:257|19:317,1,112.500004291535,0|0,3:0|0:0,0:0:0:0:
80,366,19610,2,0,L|82:394,2,18.7500007152558,2|2|2,0:3|0:3|0:3,0:0:0:0:
124,299,19810,2,0,L|126:271,2,18.7500007152558,2|2|2,3:3|0:3|0:3,0:0:0:0:
209,369,20010,5,8,0:3:0:0:
293,216,20210,1,2,2:2:0:0:
293,216,20310,1,2,3:3:0:0:
293,216,20410,1,6,3:3:0:0:
311,324,20610,1,8,0:1:0:0:
471,384,20810,38,0,P|500:336|492:278,1,112.500004291535,0|0,3:0|0:3,0:0:0:0:
440,228,21210,2,0,L|377:217,1,37.5000014305115,2|0,0:2|0:0,0:0:0:0:
423,242,21410,2,0,L|360:231,1,37.5000014305115,2|0,3:2|0:0,0:0:0:0:
355,148,21610,5,8,0:0:0:0:
428,0,21810,1,8,0:3:0:0:
470,150,22010,1,8,0:2:0:0:
448,147,22110,1,8,0:2:0:0:
426,145,22210,1,8,0:3:0:0:
403,142,22310,1,0,0:0:0:0:
355,148,22410,38,0,P|339:79|363:20,1,112.500004291535,4|0,3:2|0:0,0:0:0:0:
279,8,22810,2,0,L|260:7,2,18.7500007152558,2|2|2,0:3|0:3|0:3,0:0:0:0:
251,82,23010,2,0,L|232:81,2,18.7500007152558,2|2|2,0:3|0:3|0:3,0:0:0:0:
175,19,23210,5,8,0:3:0:0:
270,167,23410,1,2,3:2:0:0:
270,167,23510,1,2,2:3:0:0:
270,167,23610,1,2,3:2:0:0:
173,136,23810,1,8,0:1:0:0:
45,223,24010,38,0,P|45:278|79:322,1,112.500004291535,0|0,3:0|0:3,0:0:0:0:
168,318,24410,2,0,L|177:264,1,37.5000014305115,2|0,0:2|0:0,0:0:0:0:
179,307,24610,2,0,L|188:253,1,37.5000014305115,2|0,0:2|0:0,0:0:0:0:
132,218,24810,5,8,0:0:0:0:
122,60,25010,1,8,0:3:0:0:
223,200,25210,1,8,0:2:0:0:
245,201,25310,1,8,0:2:0:0:
267,203,25410,1,8,0:3:0:0:
290,205,25510,1,8,0:3:0:0:
329,237,25610,38,0,P|351:203|334:110,1,112.500004291535,0|0,3:0|0:0,0:0:0:0:
376,60,26010,2,0,L|380:27,2,18.7500007152558,2|2|2,0:3|0:3|0:3,0:0:0:0:
450,87,26210,2,0,L|454:54,2,18.7500007152558,2|2|2,0:3|0:3|0:3,0:0:0:0:
438,163,26410,5,8,0:3:0:0:
512,225,26610,1,2,2:2:0:0:
512,225,26710,1,2,3:3:0:0:
512,225,26810,1,6,3:3:0:0:
414,384,27010,1,8,0:1:0:0:
512,318,27210,38,0,P|462:293|406:294,1,112.500004291535,0|0,3:0|0:3,0:0:0:0:
345,346,27610,2,0,L|296:342,1,37.5000014305115,2|0,0:2|0:0,0:0:0:0:
332,333,27810,2,0,L|283:329,1,37.5000014305115,2|0,3:2|0:3,0:3:0:0:
218,345,28010,5,2,0:0:0:0:
218,345,28110,2,0,L|203:282,1,37.5000014305115,2|2,0:0|0:0,0:0:0:0:
274,248,28310,2,0,L|281:212,2,37.5000014305115,2|0|2,0:0|0:0|0:0,0:0:0:0:
261,247,28610,1,2,0:0:0:0:
111,344,28810,22,0,P|43:356|-27:358,1,112.500004291535,4|0,3:2|0:0,0:0:0:0:
65,222,29210,2,0,P|122:226|177:237,1,112.500004291535,2|0,3:3|0:3,0:0:0:0:
273,333,29610,2,0,P|328:341|384:338,1,112.500004291535,8|0,3:3|0:0,0:0:0:0:
456,246,30010,38,0,P|406:244|331:280,1,100,0|0,3:0|0:0,1:0:0:0:
273,333,30410,5,0,3:0:0:0:
300,167,30610,1,0,0:0:0:0:
386,166,30810,2,0,L|379:108,1,37.5000014305115,2|0,3:2|0:0,0:0:0:0:
399,152,31010,2,0,L|392:94,1,37.5000014305115,2|0,0:2|0:0,0:0:0:0:
324,61,31210,37,2,3:3:0:0:
481,142,31410,1,8,0:3:0:0:
298,166,31610,6,2,P|240:169|207:162,1,75,0|0,3:2|0:0,1:2:0:0:
212,154,32010,37,0,3:0:0:0:
147,3,32210,1,0,0:0:0:0:
33,114,32410,2,0,P|88:108|141:88,1,112.500004291535,2|0,3:3|0:3,0:0:0:0:
274,80,32810,2,0,P|327:63|383:54,1,112.500004291535,8|0,3:3|0:0,0:0:0:0:
406,195,33210,2,0,P|356:177|285:163,1,112.500004291535,0|0,3:0|0:0,3:0:0:0:
212,154,33610,5,0,3:0:0:0:
87,303,33810,1,0,0:0:0:0:
203,244,34010,2,0,L|241:245,1,37.5000014305115,2|0,3:2|0:0,0:0:0:0:
216,262,34210,2,0,L|254:263,1,37.5000014305115,2|0,0:2|0:0,0:0:0:0:
309,203,34410,37,2,3:3:0:0:
291,372,34610,1,8,0:3:0:0:
477,335,34810,2,0,L|468:266,1,37.5000014305115,2|0,3:3|0:0,0:0:0:0:
425,234,35010,2,0,L|416:165,1,37.5000014305115,2|0,0:3|0:0,0:0:0:0:
478,136,35210,5,4,3:2:0:0:
394,107,35410,1,0,3:0:0:0:
424,16,35610,1,0,3:0:0:0:
509,45,35810,1,0,3:2:0:0:
392,30,36010,37,8,3:3:0:0:
410,145,36210,1,0,3:0:0:0:
291,165,36410,1,0,3:0:0:0:
273,50,36610,1,0,3:0:0:0:
220,222,36810,5,0,3:0:0:0:
74,189,37010,1,0,3:0:0:0:
98,42,37210,1,2,3:2:0:0:
244,74,37410,1,2,3:2:0:0:
183,142,37610,37,8,3:0:0:0:
26,184,37810,1,0,3:0:0:0:
66,342,38010,1,0,3:0:0:0:
224,299,38210,1,0,3:0:0:0:
69,121,38410,5,4,3:2:0:0:
83,136,38510,1,0,3:0:0:0:
73,156,38610,1,0,3:0:0:0:
82,172,38710,1,0,3:0:0:0:
70,192,38810,1,0,3:0:0:0:
74,206,38910,1,0,3:0:0:0:
61,226,39010,1,0,3:0:0:0:
58,237,39110,1,0,3:0:0:0:
33,260,39210,37,8,3:0:0:0:
58,237,39310,1,0,3:0:0:0:
84,248,39410,1,0,3:0:0:0:
110,236,39510,1,0,3:0:0:0:
136,256,39610,1,0,3:0:0:0:
161,251,39710,1,0,3:0:0:0:
185,273,39810,1,0,3:0:0:0:
211,265,39910,1,0,3:0:0:0:
237,280,40010,5,0,3:0:0:0:
263,261,40110,1,0,3:0:0:0:
288,268,40210,1,0,3:0:0:0:
313,246,40310,1,0,3:0:0:0:
339,254,40410,1,0,3:0:0:0:
365,238,40510,1,0,3:0:0:0:
391,254,40610,1,0,3:0:0:0:
416,247,40710,1,0,3:0:0:0:
432,274,40810,6,0,L|431:316,2,25,2|4|8,0:3|0:3|0:3,0:0:0:0:
485,211,41110,2,0,P|496:170|491:145,1,50,2|8,0:3|0:3,0:0:0:0:
440,113,41410,2,2,L|398:116,1,25,2|0,2:3|0:0,1:2:0:0:
338,164,41610,38,0,L|330:32,1,131.250001251698,4|2,3:2|2:3,0:0:0:0:
349,22,42010,1,0,0:0:0:0:
254,109,42210,37,2,0:3:0:0:
254,109,42310,1,2,0:3:0:0:
183,59,42410,2,0,L|123:59,1,43.7500004172325,8|0,0:3|0:0,0:0:0:0:
59,5,42610,5,0,3:0:0:0:
59,5,42710,2,0,L|71:78,1,43.7500004172325,2|0,2:3|0:0,0:0:0:0:
41,124,42910,2,0,L|53:197,1,43.7500004172325,2|0,2:2|0:0,0:0:0:0:
3,246,43110,37,0,3:0:0:0:
3,246,43210,2,0,P|74:260|112:246,1,87.500000834465,2|0,3:3|3:3,0:0:0:0:
132,179,43510,1,0,3:0:0:0:
132,179,43610,1,0,3:0:0:0:
0,353,43810,1,8,0:1:0:0:
173,247,44010,22,0,B|201:235|233:233,1,50,8|2,0:3|0:2,0:0:0:0:
221,308,44310,2,0,P|260:304|279:305,1,50,2|0,0:2|3:0,0:0:0:0:
295,234,44610,2,0,P|316:236|329:243,1,25,2|0,3:2|3:0,0:0:0:0:
349,342,44810,38,0,P|387:362|430:371,1,87.500000834465,4|0,3:2|0:0,0:0:0:0:
512,384,45110,2,0,L|506:313,1,43.7500004172325,8|0,3:1|0:0,0:0:0:0:
489,207,45310,2,0,L|483:278,1,43.7500004172325,0|0,3:0|0:0,0:0:0:0:
414,289,45510,37,2,3:0:0:0:
395,214,45610,2,0,P|394:176|400:137,1,43.7500004172325,8|0,0:3|3:0,0:0:0:0:
319,140,45810,2,0,P|268:148|198:133,1,87.500000834465,0|0,3:0|3:0,0:0:0:0:
271,60,46110,6,0,L|375:55,1,87.500000834465,0|0,3:0|0:0,0:0:0:0:
425,96,46410,2,0,L|529:91,1,87.500000834465,0|2,3:0|0:3,0:0:0:0:
512,177,46710,1,2,0:3:0:0:
512,177,46810,1,8,3:1:0:0:
432,177,47010,1,2,3:3:0:0:
317,266,47210,21,8,0:3:0:0:
317,266,47310,2,0,P|365:265|397:275,1,75,2|2,0:0|0:0,0:0:0:0:
423,344,47710,1,2,0:0:0:0:
423,344,48010,22,0,P|342:355|289:336,1,131.250001251698,4|2,3:2|2:3,0:0:0:0:
169,212,48510,1,0,3:0:0:0:
169,212,48610,2,0,L|95:219,1,43.7500004172325,0|0,3:0|0:0,0:0:0:0:
4,306,48810,37,8,0:3:0:0:
39,376,48910,1,2,0:0:0:0:
118,384,49010,1,2,0:0:0:0:
178,332,49110,2,0,L|189:272,1,43.7500004172325,0|0,3:0|0:0,0:0:0:0:
169,212,49310,2,0,L|180:152,1,43.7500004172325,2|0,0:0|0:0,0:0:0:0:
104,138,49510,5,0,3:0:0:0:
104,138,49610,2,0,P|52:154|0:149,1,87.500000834465,2|0,3:3|3:0,0:0:0:0:
0,78,49910,1,0,3:0:0:0:
0,78,50010,1,0,3:0:0:0:
95,222,50210,1,8,0:1:0:0:
254,50,50410,6,0,P|300:54|341:69,2,75,8|2|2,0:3|0:2|3:2,0:0:0:0:
173,29,51210,38,0,L|182:128,1,87.500000834465,4|0,3:2|0:0,0:0:0:0:
169,204,51510,2,0,L|244:205,1,43.7500004172325,8|0,0:1|0:0,0:0:0:0:
294,133,51710,2,0,L|293:208,1,43.7500004172325,0|0,3:0|0:0,0:0:0:0:
392,237,51910,37,2,3:0:0:0:
470,232,52010,2,0,L|482:155,1,43.7500004172325,8|0,0:3|0:0,0:0:0:0:
430,72,52210,2,0,P|405:106|393:157,1,87.500000834465,2|0,3:3|0:3,0:0:0:0:
361,222,52510,6,0,L|368:320,1,87.500000834465,0|0,3:0|0:0,0:0:0:0:
286,260,52810,2,0,L|293:358,1,87.500000834465,0|2,3:0|0:3,0:0:0:0:
365,384,53110,1,2,0:3:0:0:
365,384,53210,1,8,3:1:0:0:
512,384,53410,1,2,3:3:0:0:
471,187,53610,21,8,0:3:0:0:
471,173,53710,1,0,0:0:0:0:
470,158,53810,1,2,0:0:0:0:
469,143,53910,1,2,0:0:0:0:
468,128,54010,2,0,P|483:88|484:44,1,75,2|0,0:0|0:0,0:0:0:0:
498,39,54410,22,0,L|359:34,1,131.250001251698,4|0,3:2|0:3,0:0:0:0:
356,47,54810,1,2,0:3:0:0:
236,0,55010,37,2,0:3:0:0:
236,0,55110,1,2,0:3:0:0:
276,74,55210,2,0,L|266:131,1,43.7500004172325,8|0,0:3|0:0,0:0:0:0:
340,156,55410,5,0,3:0:0:0:
340,156,55510,2,0,L|329:240,1,43.7500004172325,2|0,0:3|0:0,0:0:0:0:
256,202,55710,2,0,L|245:286,1,43.7500004172325,2|0,0:0|0:0,0:0:0:0:
332,330,55910,37,0,3:0:0:0:
332,330,56010,2,0,P|276:330|222:317,1,87.500000834465,2|0,3:3|3:0,0:0:0:0:
178,285,56310,1,0,3:0:0:0:
178,285,56410,1,0,3:0:0:0:
67,371,56610,1,8,0:1:0:0:
185,178,56810,22,0,L|174:114,1,50,8|2,0:3|0:2,0:0:0:0:
101,180,57110,1,2,0:2:0:0:
101,180,57210,2,0,L|94:134,1,25,0|2,0:0|3:2,0:0:0:0:
113,76,57410,2,0,L|106:30,1,25,0|0,3:0|3:0,0:0:0:0:
31,91,57610,38,0,P|15:131|13:175,1,87.500000834465,4|0,3:2|0:0,0:0:0:0:
0,256,57910,2,0,L|60:257,1,43.7500004172325,8|0,0:1|0:0,0:0:0:0:
179,368,58110,2,0,L|119:369,1,43.7500004172325,0|0,3:0|0:0,0:0:0:0:
53,332,58310,37,2,3:0:0:0:
119,287,58410,2,0,L|189:292,1,43.7500004172325,8|0,0:3|3:0,0:0:0:0:
261,225,58610,2,0,P|271:171|249:116,1,87.500000834465,0|0,3:0|3:0,0:0:0:0:
208,74,58910,6,0,L|83:93,1,87.500000834465,0|0,3:0|0:0,0:0:0:0:
186,156,59210,2,0,L|61:175,1,87.500000834465,0|2,3:0|0:3,0:0:0:0:
46,106,59510,1,2,0:3:0:0:
46,106,59610,1,8,0:1:0:0:
181,1,59810,1,2,0:3:0:0:
336,107,60010,21,8,0:3:0:0:
336,107,60110,1,2,0:0:0:0:
336,107,60210,1,2,0:0:0:0:
336,107,60310,2,0,P|326:73|328:3,1,100,8|0,3:1|0:0,0:0:0:0:
339,0,60810,22,0,L|475:12,1,131.250001251698,4|2,3:2|0:3,0:0:0:0:
506,191,61310,1,0,3:0:0:0:
506,191,61410,2,0,L|515:122,1,43.7500004172325,0|0,3:0|0:0,0:0:0:0:
347,99,61610,37,8,0:3:0:0:
277,133,61710,1,2,0:0:0:0:
268,212,61810,1,2,0:0:0:0:
333,256,61910,2,0,L|344:195,1,43.7500004172325,0|0,3:0|0:0,0:0:0:0:
412,169,62110,2,0,L|424:110,1,43.7500004172325,2|0,0:0|0:0,0:0:0:0:
495,270,62310,5,0,3:0:0:0:
495,270,62410,2,0,P|451:255|390:254,1,87.500000834465,0|0,0:0|3:1,0:0:0:0:
399,330,62710,1,0,3:1:0:0:
399,330,62810,1,0,3:0:0:0:
258,289,63010,1,8,0:1:0:0:
72,367,63210,6,0,P|33:372|-15:389,2,75,8|2|2,0:3|0:2|3:2,0:0:0:0:
163,384,64010,38,0,P|151:323|147:244,1,131.250001251698,4|0,3:2|0:0,0:0:0:0:
199,194,64410,1,0,3:0:0:0:
189,51,64610,1,0,3:0:0:0:
444,38,64810,37,8,0:3:0:0:
438,116,64910,1,2,0:0:0:0:
375,70,65010,1,2,0:0:0:0:
495,238,65210,2,0,P|435:226|352:224,1,131.250001251698,0|0,3:0|0:0,0:0:0:0:
352,239,65610,5,2,0:3:0:0:
512,157,65810,1,0,3:0:0:0:
303,153,66010,2,0,P|244:170|163:168,1,131.250001251698,0|0,3:0|0:0,0:0:0:0:
163,187,66410,21,10,0:3:0:0:
146,157,66510,1,0,0:0:0:0:
116,143,66610,1,2,0:2:0:0:
81,145,66710,1,2,0:2:0:0:
55,167,66810,2,0,L|59:259,1,75,2|0,0:0|0:0,0:0:0:0:
44,262,67210,22,2,P|139:271|202:256,1,131.250001251698,4|0,0:0|0:0,1:2:0:0:
182,278,67610,1,8,0:2:0:0:
402,210,67810,37,2,0:3:0:0:
388,220,67910,1,2,0:3:0:0:
372,225,68010,1,0,3:0:0:0:
354,227,68110,1,0,3:0:0:0:
337,225,68210,1,0,3:0:0:0:
320,220,68310,1,0,3:0:0:0:
297,253,68410,6,2,P|236:266|113:234,1,175,4|0,0:0|0:0,1:2:0:0:
121,255,69210,1,0,0:0:0:0:
125,326,76810,6,0,P|149:326|184:323,1,50,2|0,0:3|0:0,0:0:0:0:
201,350,77110,1,0,0:3:0:0:
201,350,77210,2,0,P|233:344|257:336,1,50,2|0,0:3|0:0,0:0:0:0:
300,276,77510,6,0,P|332:280|368:276,1,50,2|0,0:3|0:0,0:0:0:0:
372,268,77810,1,2,0:3:0:0:
474,235,78010,1,8,0:0:0:0:
411,161,78210,37,0,0:0:0:0:
392,169,78310,1,2,0:3:0:0:
372,173,78410,1,2,0:3:0:0:
352,175,78510,2,0,P|310:172|284:164,1,50,8|0,0:0|0:0,0:0:0:0:
239,100,78810,5,2,0:3:0:0:
220,108,78910,1,0,0:0:0:0:
200,112,79010,1,2,0:3:0:0:
180,114,79110,2,0,P|138:111|112:103,1,50,8|0,0:0|0:0,0:0:0:0:
81,47,79410,38,2,P|121:24|213:47,1,125,2|0,3:3|0:0,0:2:0:0:
206,34,80010,38,2,P|197:129|212:192,1,131.250001251698,4|0,0:0|0:0,1:2:0:0:
192,180,80410,1,8,0:0:0:0:
285,317,80610,37,2,0:3:0:0:
275,303,80710,1,2,0:3:0:0:
270,287,80810,1,0,3:0:0:0:
268,269,80910,1,0,3:0:0:0:
270,252,81010,1,0,3:0:0:0:
275,235,81110,1,0,3:0:0:0:
317,205,81210,6,2,P|311:145|339:27,1,175,4|0,0:0|0:0,1:2:0:0:
353,32,82010,1,0,0:0:0:0:
256,192,90810,12,0,92010,0:0:0:0:
380,142,92110,6,2,P|422:146|461:140,1,75,0|0,0:0|0:0,0:2:0:0:
470,137,92810,6,0,L|468:98,1,37.5000014305115,4|0,3:2|0:0,0:0:0:0:
512,20,93210,1,2,0:3:0:0:
423,23,93410,1,0,3:0:0:0:
278,72,93610,38,0,L|241:72,1,37.5000014305115,8|0,0:3|0:0,0:0:0:0:
212,148,94010,2,0,L|250:149,1,37.5000014305115,0|0,3:0|0:0,0:0:0:0:
155,102,94410,5,2,0:3:0:0:
156,191,94610,1,0,3:0:0:0:
1,80,94810,2,0,L|-1:30,1,37.5000014305115,0|0,3:0|0:0,0:0:0:0:
80,47,95210,37,8,0:2:0:0:
80,219,95410,1,8,0:3:0:0:
1,314,95610,1,8,2:1:0:0:
0,224,95810,1,2,0:3:0:0:
82,300,96010,6,0,L|119:297,1,37.5000014305115,0|0,3:0|0:0,0:0:0:0:
241,216,96410,1,2,0:3:0:0:
164,221,96610,1,0,3:0:0:0:
315,348,96810,38,0,L|315:311,1,37.5000014305115,8|0,0:3|0:0,0:0:0:0:
218,384,97210,1,0,3:0:0:0:
218,294,97410,1,2,0:3:0:0:
390,354,97610,5,8,0:2:0:0:
479,353,97810,1,2,0:3:0:0:
476,273,98010,2,0,L|475:221,1,37.5000014305115,2|2,0:3|0:3,0:3:0:0:
436,136,98410,37,8,0:0:0:0:
346,136,98610,1,0,3:3:0:0:
394,271,98810,1,8,0:3:0:0:
392,56,99010,1,0,3:3:0:0:
484,61,99210,6,0,L|485:23,1,37.5000014305115,0|0,3:0|0:0,0:0:0:0:
423,159,99610,1,2,0:3:0:0:
512,159,99810,1,0,3:0:0:0:
319,217,100010,38,0,L|319:254,1,37.5000014305115,8|0,0:3|0:3,0:0:0:0:
140,316,100410,2,0,L|142:262,1,37.5000014305115,0|0,3:0|0:0,0:0:0:0:
232,302,100810,5,2,0:3:0:0:
235,213,101010,1,0,3:0:0:0:
148,196,101210,2,0,L|94:195,1,37.5000014305115,0|0,3:0|0:0,0:0:0:0:
46,256,101610,37,8,0:0:0:0:
42,92,101810,1,8,0:3:0:0:
218,40,102010,1,8,0:1:0:0:
217,130,102210,1,2,0:3:0:0:
139,111,102410,6,0,L|138:62,1,37.5000014305115,0|0,3:0|0:0,0:0:0:0:
65,0,102810,2,0,L|102:0,1,37.5000014305115,2|2,0:3|0:3,0:0:0:0:
217,131,103210,37,8,0:3:0:0:
307,130,103410,1,0,0:0:0:0:
309,222,103610,1,2,0:3:0:0:
309,222,103810,1,2,0:3:0:0:
195,346,104010,6,0,L|142:345,1,37.5000014305115,8|2,0:3|0:3,0:0:0:0:
140,272,104410,2,0,L|178:272,1,37.5000014305115,0|0,3:0|0:0,0:0:0:0:
263,302,104810,37,8,0:0:0:0:
352,303,105010,1,2,0:3:0:0:
202,368,105210,1,8,0:3:0:0:
0,366,105410,1,0,3:3:0:0:
123,347,105610,6,0,L|124:384,1,37.5000014305115,4|0,3:2|0:0,0:0:0:0:
55,300,106010,1,0,3:0:0:0:
51,220,106210,1,2,0:3:0:0:
239,164,106410,38,0,L|290:163,1,37.5000014305115,8|0,0:3|0:0,0:0:0:0:
170,205,106810,2,0,L|133:205,1,37.5000014305115,0|0,3:0|0:0,0:0:0:0:
89,133,107210,5,2,0:3:0:0:
0,136,107410,1,0,3:0:0:0:
130,15,107610,2,0,L|130:62,1,37.5000014305115,0|0,3:0|0:0,0:0:0:0:
172,128,108010,37,8,0:0:0:0:
375,127,108210,1,8,0:3:0:0:
294,39,108410,1,8,0:1:0:0:
207,40,108610,1,2,0:3:0:0:
253,109,108810,6,0,L|254:163,1,37.5000014305115,0|0,3:0|0:0,0:0:0:0:
196,205,109210,1,2,0:3:0:0:
246,351,109410,1,0,3:0:0:0:
290,270,109610,38,0,L|253:270,1,37.5000014305115,8|0,0:3|0:0,0:0:0:0:
374,308,110010,1,0,3:0:0:0:
512,259,110210,1,2,0:3:0:0:
442,108,110410,6,0,L|445:61,1,37.5000014305115,8|2,0:0|0:3,0:0:0:0:
476,190,110810,2,0,L|429:193,1,46.8750017881394,2|2,0:3|0:3,0:0:0:0:
361,227,111210,37,8,0:3:0:0:
330,30,111410,1,0,3:3:0:0:
330,30,112010,6,2,L|239:36,1,75.0000028610231,2|0,3:3|0:0,0:2:0:0:
143,66,112810,37,2,0:3:0:0:
327,194,113210,1,0,3:0:0:0:
34,179,113610,6,2,L|33:96,1,75.0000028610231,8|2,0:3|2:2,0:0:0:0:
477,45,114410,2,0,L|471:192,1,131.25000500679,0|0,3:3|0:0,0:0:0:0:
500,257,115210,37,8,0:3:0:0:
227,309,115510,6,0,P|212:308|198:307,1,29.9999990844727,2|2,0:3|0:3,0:0:0:0:
310,298,115710,1,0,3:3:0:0:
253,0,116010,38,2,P|252:59|257:116,1,89.9999972534181,8|0,0:3|0:0,0:0:0:0:
295,124,116410,6,0,P|290:150|276:175,1,29.9999990844727,8|8,0:1|0:1,0:0:0:0:
223,150,116610,2,0,P|229:176|242:201,1,29.9999990844727,8|8,0:2|0:2,0:0:0:0:
286,194,116810,2,0,P|281:220|267:245,1,29.9999990844727,8|8,0:1|0:1,0:0:0:0:
243,236,117010,2,0,P|249:262|262:287,2,29.9999990844727,2|2|2,0:3|0:3|0:3,0:0:0:0:
259,354,117410,38,0,L|259:384,1,29.9999990844727,2|2,0:3|0:3,0:0:0:0:
259,280,117610,1,8,0:1:0:0:
259,280,118210,22,2,L|259:238,1,29.9999990844727,0|0,0:0|0:0,1:2:0:0:
319,199,118410,6,0,P|259:216|142:198,1,175.00000166893,4|0,3:2|0:0,0:0:0:0:
69,262,118910,1,2,0:3:0:0:
70,340,119010,1,0,0:3:0:0:
139,378,119110,1,2,0:3:0:0:
213,351,119210,38,0,L|280:352,1,43.7500004172325,8|0,0:3|0:0,0:0:0:0:
350,368,119410,1,0,3:0:0:0:
350,368,119510,2,0,L|346:311,1,43.7500004172325,0|0,3:0|0:0,0:0:0:0:
490,269,119710,2,0,B|486:312,1,43.7500004172325,0|0,3:0|0:0,0:0:0:0:
409,270,119910,5,0,3:0:0:0:
409,270,120010,2,0,L|400:194,1,43.7500004172325,0|0,3:0|3:0,0:0:0:0:
477,173,120210,1,2,0:3:0:0:
477,173,120310,1,2,0:3:0:0:
389,141,120410,38,0,L|328:146,1,43.7500004172325,0|0,3:3|3:3,0:0:0:0:
287,83,120610,2,0,L|282:22,1,43.7500004172325,8|2,0:1|0:3,0:0:0:0:
512,0,120810,22,0,P|482:17|447:23,1,50,8|0,0:3|0:0,0:0:0:0:
511,89,121110,2,0,P|478:98|442:94,1,50,2|0,0:2|0:0,0:0:0:0:
394,52,121410,2,0,P|374:47|360:41,1,25,2|0,0:2|0:0,0:0:0:0:
287,83,121610,38,0,B|243:75|243:75|199:75,1,87.500000834465,4|2,3:2|0:3,0:0:0:0:
97,16,121910,1,2,0:3:0:0:
42,82,122010,38,0,L|31:205,1,87.500000834465,0|0,3:3|0:0,0:0:0:0:
33,250,122310,1,2,0:3:0:0:
135,266,122410,6,0,L|133:194,1,43.7500004172325,8|0,0:3|0:0,0:0:0:0:
121,138,122610,1,2,0:3:0:0:
121,138,122710,2,0,L|192:149,1,43.7500004172325,0|0,3:0|0:0,0:0:0:0:
227,192,122910,2,0,L|298:203,1,43.7500004172325,0|0,3:0|0:0,0:0:0:0:
348,283,123110,1,0,0:0:0:0:
348,283,123210,38,0,P|276:279|209:288,1,131.250001251698,0|0,3:0|0:3,0:0:0:0:
151,359,123610,1,8,3:1:0:0:
153,222,123810,1,2,3:3:0:0:
16,384,124010,38,0,P|14:347|6:311,2,75,8|8|2,0:3|0:1|0:3,0:0:0:0:
70,244,124810,6,0,P|67:179|72:119,2,87.500000834465,4|0|0,3:2|3:0|0:0,0:0:0:0:
153,228,125310,1,2,3:3:0:0:
199,165,125410,2,0,L|191:103,1,43.7500004172325,2|0,3:3|0:0,0:0:0:0:
0,80,125610,6,0,L|74:75,1,43.7500004172325,8|0,0:3|0:0,0:0:0:0:
131,29,125810,1,0,3:0:0:0:
131,29,125910,2,0,L|124:85,1,43.7500004172325,0|0,3:0|0:0,0:0:0:0:
209,46,126110,2,0,L|252:40,1,43.7500004172325,0|0,3:0|0:0,0:0:0:0:
329,90,126310,37,0,3:0:0:0:
329,90,126410,2,0,L|389:86,1,43.7500004172325,0|0,3:0|3:0,0:0:0:0:
512,23,126610,1,2,0:3:0:0:
512,23,126710,1,2,0:3:0:0:
458,80,126810,6,0,L|455:139,1,43.7500004172325,0|0,3:3|3:3,0:0:0:0:
506,245,127010,2,0,L|462:247,1,43.7500004172325,8|2,0:1|0:3,0:0:0:0:
319,176,127210,1,8,0:3:0:0:
319,176,127610,22,2,P|376:190|413:192,1,75,0|0,0:0|0:0,1:2:0:0:
391,205,128010,22,0,P|347:202|304:208,1,87.500000834465,4|0,3:2|0:3,0:0:0:0:
252,130,128310,1,2,0:3:0:0:
209,191,128410,2,0,P|208:221|216:263,1,43.7500004172325,2|0,3:3|0:0,0:0:0:0:
155,353,128610,37,0,3:0:0:0:
222,319,128710,1,0,3:0:0:0:
298,341,128810,2,0,L|297:274,1,43.7500004172325,8|0,0:3|0:0,0:0:0:0:
472,277,129010,5,2,0:3:0:0:
472,277,129110,2,0,P|425:269|395:272,1,43.7500004172325,0|0,3:3|0:0,0:0:0:0:
303,217,129310,2,0,P|345:198|406:189,1,87.500000834465,0|0,3:0|0:0,0:0:0:0:
481,110,129610,38,0,P|431:111|385:99,1,87.500000834465,0|0,3:0|0:3,0:0:0:0:
349,33,129910,1,2,0:3:0:0:
349,33,130010,1,8,3:1:0:0:
267,132,130210,1,2,3:3:0:0:
78,161,130410,38,0,P|50:91|48:16,1,150,8|0,0:3|0:0,0:0:0:0:
70,10,131210,22,0,P|92:93|78:179,1,175.00000166893,4|0,3:2|0:0,0:0:0:0:
38,263,131710,2,0,L|81:264,1,43.7500004172325,2|0,0:3|0:3,0:0:0:0:
240,290,131910,1,2,0:3:0:0:
183,346,132010,38,0,L|119:350,1,43.7500004172325,8|0,0:3|0:0,0:0:0:0:
160,268,132210,1,0,3:0:0:0:
160,268,132310,2,0,L|151:194,1,43.7500004172325,0|0,3:0|0:0,0:0:0:0:
187,152,132510,2,0,L|178:78,1,43.7500004172325,0|0,3:0|0:0,0:0:0:0:
270,128,132710,5,0,3:0:0:0:
270,128,132810,2,0,L|349:128,1,43.7500004172325,0|0,3:0|0:0,0:0:0:0:
301,214,133010,1,2,0:3:0:0:
301,214,133110,1,2,0:3:0:0:
345,288,133210,38,0,L|424:288,1,43.7500004172325,0|0,3:3|3:3,0:0:0:0:
471,308,133410,1,8,0:1:0:0:
512,233,133510,1,2,0:3:0:0:
471,160,133610,22,0,L|467:107,1,50,8|0,0:3|0:0,0:0:0:0:
385,134,133910,1,2,0:2:0:0:
385,134,134010,2,0,L|381:81,1,50,2|2,0:2|0:2,0:0:0:0:
282,0,134410,38,0,P|291:68|283:120,1,87.500000834465,4|2,3:2|0:3,0:0:0:0:
217,168,134710,1,2,0:3:0:0:
150,126,134810,38,0,L|150:21,1,87.500000834465,0|0,3:3|0:0,0:0:0:0:
78,9,135110,1,0,3:3:0:0:
56,106,135210,6,0,L|70:165,1,43.7500004172325,8|0,0:3|0:0,0:0:0:0:
13,234,135410,1,2,0:3:0:0:
13,234,135510,2,0,P|45:235|74:232,1,43.7500004172325,0|0,3:0|0:0,0:0:0:0:
145,215,135710,2,0,P|193:263|233:285,1,87.500000834465,0|0,3:0|0:0,0:0:0:0:
296,254,136010,38,0,P|314:319|338:358,1,87.500000834465,0|0,3:0|0:3,0:0:0:0:
404,384,136310,1,2,0:3:0:0:
404,384,136410,1,8,3:1:0:0:
485,207,136610,1,2,3:3:0:0:
504,384,136810,38,0,P|510:347|510:309,2,75,8|8|2,0:3|0:1|0:3,0:0:0:0:
423,305,137610,22,0,P|406:250|405:204,2,87.500000834465,4|0|0,3:2|3:2|0:3,0:0:0:0:
332,320,138110,1,2,3:3:0:0:
289,255,138210,2,0,L|299:184,1,43.7500004172325,0|0,3:0|0:3,0:0:0:0:
146,357,138410,38,0,L|84:368,1,43.7500004172325,8|0,0:3|0:0,0:0:0:0:
50,302,138610,1,0,3:0:0:0:
50,302,138710,2,0,L|56:224,1,43.7500004172325,0|0,3:0|0:0,0:0:0:0:
103,199,138910,2,0,L|109:121,1,43.7500004172325,0|0,3:0|0:0,0:0:0:0:
174,273,139110,5,0,3:0:0:0:
174,273,139210,2,0,L|101:269,1,43.7500004172325,0|0,3:0|0:0,0:0:0:0:
187,184,139410,1,2,0:3:0:0:
187,184,139510,1,2,0:3:0:0:
230,118,139610,38,0,L|310:122,1,43.7500004172325,0|0,3:3|0:3,0:0:0:0:
260,40,139810,1,8,0:1:0:0:
194,0,139910,1,2,0:3:0:0:
124,40,140010,1,8,0:3:0:0:
117,51,140410,38,2,B|85:50|43:61,1,75,0|0,0:0|0:0,1:2:0:0:
21,57,140810,38,0,L|23:131,1,75.0000028610231,4|0,3:2|0:0,0:0:0:0:
211,197,141210,1,2,0:3:0:0:
218,113,141410,1,0,3:3:0:0:
393,274,141610,6,0,L|467:271,1,75.0000028610231,8|0,0:3|0:2,0:0:0:0:
122,242,142010,2,0,L|47:244,1,75.0000028610231,0|0,3:3|0:0,0:0:0:0:
367,141,142410,37,2,0:3:0:0:
380,230,142610,1,0,3:3:0:0:
137,139,142810,2,0,L|211:133,1,75.0000028610231,0|0,3:0|0:2,0:0:0:0:
512,60,143210,6,0,B|449:98|417:66|378:26|302:77,1,209.999993591309,8|0,0:3|0:0,0:0:0:0:
243,25,144010,22,0,P|232:73|243:144,1,100,4|0,3:2|0:0,0:0:0:0:
292,204,144310,1,2,0:3:0:0:
292,204,144410,2,0,L|224:204,1,50,2|0,0:3|0:0,0:0:0:0:
127,257,144610,37,2,0:3:0:0:
127,257,144710,1,2,0:3:0:0:
74,194,144810,2,0,L|80:121,1,50,8|0,0:3|0:0,0:0:0:0:
10,57,145010,5,0,3:0:0:0:
10,57,145110,2,0,L|79:57,1,50,2|0,2:3|0:0,0:0:0:0:
140,85,145310,2,0,L|209:85,1,50,2|0,0:0|0:0,0:0:0:0:
316,29,145510,37,0,3:0:0:0:
316,29,145610,2,0,L|319:138,1,100,2|0,3:0|3:0,0:0:0:0:
310,215,145910,1,0,3:0:0:0:
310,215,146010,6,0,L|373:216,1,50,0|0,3:0|0:0,0:0:0:0:
512,143,146210,2,0,L|463:142,1,50,8|0,0:1|0:0,0:0:0:0:
370,293,146410,6,0,L|372:342,1,50,8|2,0:3|0:2,0:0:0:0:
451,315,146710,2,0,L|512:312,1,50,2|0,0:2|3:3,0:0:0:0:
441,240,147010,2,0,L|439:197,1,25,2|0,0:2|3:3,0:0:0:0:
293,298,147210,38,0,P|243:296|198:274,1,100,4|0,3:2|0:0,0:0:0:0:
174,199,147510,2,0,L|124:204,1,50,8|0,3:1|0:0,0:0:0:0:
39,193,147710,2,0,L|31:265,1,50,2|0,3:0|0:0,0:0:0:0:
28,380,147910,37,2,3:3:0:0:
125,336,148010,2,0,L|117:264,1,50,8|0,0:3|3:0,0:0:0:0:
231,349,148210,1,0,3:3:0:0:
284,296,148310,1,0,3:3:0:0:
281,222,148410,1,0,3:3:0:0:
221,175,148510,6,0,L|122:177,1,100,0|0,3:0|0:0,0:0:0:0:
182,97,148810,2,0,L|66:99,1,100,0|0,3:0|0:3,0:0:0:0:
141,21,149110,37,2,0:3:0:0:
141,21,149210,2,0,L|212:23,1,50,8|0,3:1|0:0,0:0:0:0:
264,68,149410,2,0,L|335:70,1,50,2|0,3:3|0:0,0:0:0:0:
435,167,149610,37,8,0:3:0:0:
455,94,149710,2,0,P|419:92|400:99,1,50,2|0,0:2|0:0,0:0:0:0:
349,163,150010,1,2,0:0:0:0:
349,163,150110,2,0,P|315:148|295:148,1,50,2|0,0:0|0:0,0:0:0:0:
292,158,150410,22,0,L|298:310,1,150,4|0,3:2|0:3,0:0:0:0:
363,363,150810,1,2,2:3:0:0:
434,334,150910,1,0,3:3:0:0:
424,256,151010,2,0,L|374:257,1,50,0|0,3:0|0:0,0:0:0:0:
264,237,151210,37,8,0:3:0:0:
216,295,151310,1,2,0:0:0:0:
141,298,151410,1,2,0:0:0:0:
90,242,151510,2,0,L|88:167,1,50,0|0,3:3|0:0,0:0:0:0:
132,118,151710,2,0,L|130:43,1,50,2|0,2:2|0:0,0:0:0:0:
57,8,151910,5,0,3:0:0:0:
57,8,152010,2,0,L|45:121,1,100,2|0,0:0|3:3,0:0:0:0:
38,193,152310,37,0,3:3:0:0:
38,193,152410,2,0,L|103:191,1,50,0|0,3:3|0:0,0:0:0:0:
264,136,152610,2,0,L|170:120,1,50,8|0,0:1|0:0,0:0:0:0:
170,205,152810,22,0,P|163:241|164:279,2,75,8|2|2,0:3|0:0|0:0,0:0:0:0:
72,267,153610,38,0,P|75:343|86:379,1,100,4|0,3:2|0:0,0:0:0:0:
232,336,153910,2,0,L|281:334,1,50,8|0,3:1|0:0,0:0:0:0:
312,253,154110,2,0,L|251:251,1,50,2|0,3:0|0:0,0:0:0:0:
370,336,154310,37,2,3:0:0:0:
480,275,154410,2,0,L|467:226,1,50,8|0,0:3|3:0,0:0:0:0:
390,161,154610,2,0,P|385:197|404:272,1,100,2|0,3:3|0:3,0:0:0:0:
480,350,154910,6,0,L|366:342,1,100,0|0,3:0|0:0,0:0:0:0:
319,290,155210,2,0,L|205:282,1,100,0|0,3:0|0:0,0:0:0:0:
293,210,155510,37,2,0:3:0:0:
293,210,155610,2,0,L|296:143,1,50,8|0,3:1|0:0,0:0:0:0:
241,98,155810,2,0,L|244:31,1,50,2|0,3:3|0:0,0:0:0:0:
381,24,156010,21,8,0:3:0:0:
387,78,156110,1,2,0:0:0:0:
333,84,156210,1,2,0:0:0:0:
327,30,156310,1,2,0:0:0:0:
357,54,156410,6,0,P|365:75|380:133,1,75,2|0,0:0|0:0,0:0:0:0:
385,144,156810,22,0,P|328:151|264:148,1,100,4|0,3:2|0:0,0:0:0:0:
212,196,157110,1,2,0:3:0:0:
212,196,157210,2,0,L|154:192,1,50,2|0,0:3|0:0,0:0:0:0:
62,250,157410,37,2,0:3:0:0:
62,250,157510,1,2,0:3:0:0:
5,184,157610,2,0,L|4:113,1,50,8|0,0:3|0:0,0:0:0:0:
160,100,157810,5,0,3:0:0:0:
160,100,157910,2,0,L|162:36,1,50,2|0,0:3|0:0,0:0:0:0:
78,19,158110,2,0,L|76:83,1,50,2|0,0:0|0:0,0:0:0:0:
94,155,158310,37,0,3:0:0:0:
94,155,158410,2,0,L|89:262,1,100,2|0,3:3|3:0,0:0:0:0:
61,341,158710,1,0,3:0:0:0:
61,341,158810,6,0,L|124:333,1,50,0|0,3:0|0:0,0:0:0:0:
180,205,159010,2,0,L|185:255,1,50,8|0,0:1|0:0,0:0:0:0:
360,284,159210,6,0,L|369:219,1,50,8|2,0:3|0:0,0:0:0:0:
281,264,159510,1,2,0:0:0:0:
270,275,159610,5,0,3:3:0:0:
269,290,159710,1,2,3:2:0:0:
268,305,159810,1,0,3:3:0:0:
267,320,159910,1,0,3:3:0:0:
290,360,160010,22,0,P|342:370|407:355,1,100,4|0,3:2|0:0,0:0:0:0:
460,301,160310,2,0,L|449:229,1,50,8|0,3:1|0:0,0:0:0:0:
504,187,160510,2,0,L|512:138,1,50,2|0,3:3|0:0,0:0:0:0:
422,174,160710,37,2,3:3:0:0:
361,259,160810,2,0,L|283:261,1,50,8|0,0:3|3:0,0:0:0:0:
226,251,161010,1,0,3:0:0:0:
176,195,161110,1,0,3:0:0:0:
186,120,161210,1,0,3:0:0:0:
242,71,161310,6,0,L|358:89,1,100,0|0,3:0|0:0,0:0:0:0:
263,158,161610,2,0,L|379:176,1,100,0|2,3:0|0:3,0:0:0:0:
430,97,161910,37,2,0:3:0:0:
430,97,162010,2,0,L|430:2,1,50,8|0,3:1|0:0,0:0:0:0:
508,8,162210,2,0,L|508:103,1,50,2|0,3:0|0:0,0:0:0:0:
332,77,162410,38,0,P|334:17|347:-9,1,75,8|8,0:3|3:1,0:0:0:0:
333,22,163210,22,0,P|255:28|166:16,1,150,4|0,3:2|0:3,0:0:0:0:
61,64,163610,1,2,0:3:0:0:
29,133,163710,1,0,3:0:0:0:
73,195,163810,2,0,L|144:190,1,50,0|0,3:0|0:0,0:0:0:0:
220,130,164010,37,8,0:3:0:0:
292,106,164110,1,2,0:0:0:0:
362,134,164210,1,2,0:0:0:0:
393,202,164310,2,0,L|376:296,1,50,0|0,3:0|0:0,0:0:0:0:
320,301,164510,2,0,L|303:395,1,50,2|0,0:0|0:0,0:0:0:0:
240,278,164710,5,0,3:0:0:0:
240,278,164810,2,0,P|190:272|140:280,1,100,2|0,3:3|3:0,0:0:0:0:
104,364,165110,1,0,3:0:0:0:
104,364,165210,38,0,L|178:371,1,50,0|0,3:0|0:0,0:0:0:0:
54,280,165410,2,0,L|59:216,1,50,8|0,0:1|0:0,0:0:0:0:
242,194,165610,22,0,P|248:167|241:112,2,75,8|2|2,0:3|0:0|0:0,0:0:0:0:
166,153,166410,38,0,L|50:148,1,100,4|0,3:2|0:0,0:0:0:0:
98,71,166710,2,0,L|95:21,1,50,8|0,3:1|0:0,0:0:0:0:
268,16,166910,2,0,L|317:17,1,50,2|0,3:0|0:0,0:0:0:0:
192,48,167110,37,2,3:3:0:0:
259,123,167210,2,0,L|331:118,1,50,8|0,0:3|3:0,0:0:0:0:
386,161,167410,2,0,P|395:108|391:60,1,100,0|0,3:0|0:3,0:0:0:0:
471,194,167710,6,0,L|371:188,1,100,0|0,3:3|0:0,0:0:0:0:
407,281,168010,2,0,L|307:275,1,100,0|2,3:0|0:3,0:0:0:0:
214,315,168310,37,2,0:3:0:0:
214,315,168410,2,0,L|213:258,1,50,8|0,3:1|0:0,0:0:0:0:
259,194,168610,2,0,L|258:137,1,50,2|0,3:3|0:0,0:0:0:0:
21,154,168810,38,0,P|95:199|180:188,1,175,8|0,0:3|0:0,2:0:0:0:
182,171,169610,37,4,3:2:0:0:
