osu file format v14

[General]
AudioFilename: audio.mp3
AudioLeadIn: 0
PreviewTime: 40905
Countdown: 0
SampleSet: Soft
StackLeniency: 0.7
Mode: 0
LetterboxInBreaks: 0
WidescreenStoryboard: 1

[Editor]
DistanceSpacing: 1
BeatDivisor: 8
GridSize: 16
TimelineZoom: 3.899998

[Metadata]
Title:Praeteritum
TitleUnicode:Praeteritum
Artist:Blacklolita
ArtistUnicode:Blacklolita
Creator:JeZag
Version:Anachronism
Source:
Tags:pulvis et cinis Alphaversion Records AVRS-0009 Glitch Experimental Yukiyo 閣下 electronic instrumental
BeatmapID:2406944
BeatmapSetID:651006

[Difficulty]
HPDrainRate:5
CircleSize:4.4
OverallDifficulty:9
ApproachRate:9.4
SliderMultiplier:0.6
SliderTickRate:0.5

[Events]
//Background and Video events
0,0,"big room.jpg",0,0
//Break Periods
2,69409,76270
2,82209,90270
//Storyboard Layer 0 (Background)
//Storyboard Layer 1 (Fail)
//Storyboard Layer 2 (Pass)
//Storyboard Layer 3 (Foreground)
//Storyboard Layer 4 (Overlay)
//Storyboard Sound Samples

[TimingPoints]
3200,400,4,2,2,40,1,0
3200,-133.333333333333,4,2,2,40,0,0
3400,-133.333333333333,4,2,2,30,0,0
3600,-133.333333333333,4,2,2,25,0,0
3800,-133.333333333333,4,2,2,20,0,0
4000,-133.333333333333,4,2,2,40,0,0
4200,-133.333333333333,4,2,2,30,0,0
4400,-133.333333333333,4,2,2,25,0,0
4600,-133.333333333333,4,2,2,20,0,0
4800,-133.333333333333,4,2,2,40,0,0
5000,-133.333333333333,4,2,2,30,0,0
5200,-133.333333333333,4,2,2,25,0,0
5400,-133.333333333333,4,2,2,20,0,0
5600,-133.333333333333,4,2,2,40,0,0
5800,-133.333333333333,4,2,2,30,0,0
6000,-133.333333333333,4,2,2,25,0,0
6200,-133.333333333333,4,2,2,20,0,0
6400,-133.333333333333,4,2,2,40,0,0
6600,-133.333333333333,4,2,2,30,0,0
6800,-133.333333333333,4,2,2,25,0,0
7000,-133.333333333333,4,2,2,20,0,0
7200,-133.333333333333,4,2,2,35,0,0
7400,-133.333333333333,4,2,2,25,0,0
7600,-133.333333333333,4,2,2,20,0,0
7800,-133.333333333333,4,2,2,15,0,0
8000,-133.333333333333,4,2,2,30,0,0
8200,-133.333333333333,4,2,2,20,0,0
8400,-133.333333333333,4,2,2,15,0,0
8600,-133.333333333333,4,2,2,12,0,0
8800,-133.333333333333,4,2,2,25,0,0
9000,-133.333333333333,4,2,2,15,0,0
9200,-133.333333333333,4,2,2,12,0,0
9400,-133.333333333333,4,2,2,10,0,0
9600,-200,4,2,1,15,0,0
10700,-200,4,2,1,5,0,0
10800,-133.333333333333,4,2,1,20,0,0
11450,-133.333333333333,4,2,1,5,0,0
11550,-100,4,2,1,25,0,0
11900,-100,4,2,1,5,0,0
12000,-80,4,2,1,30,0,0
13450,-80,4,2,1,5,0,0
13550,-66.6666666666667,4,2,1,35,0,0
13850,-66.6666666666667,4,2,1,5,0,0
13950,-57.1428571428571,4,2,1,35,0,0
14650,-57.1428571428571,4,2,1,5,0,0
14750,-40,4,2,1,45,0,0
15100,-40,4,2,1,5,0,0
15200,-33.3333333333333,4,2,1,45,0,0
15925,-33.3333333333333,4,2,1,5,0,0
16000,400,4,2,2,40,1,8
16010,400,4,2,2,50,1,0
16010,-33.3333333333333,4,2,1,50,0,0
17010,-33.3333333333333,4,2,3,50,0,0
17410,-33.3333333333333,4,2,1,50,0,0
18560,-33.3333333333333,4,2,1,5,0,0
18610,-33.3333333333333,4,2,1,50,0,0
18760,-33.3333333333333,4,2,1,5,0,0
18810,-33.3333333333333,4,2,1,50,0,0
20210,-33.3333333333333,4,2,3,50,0,0
20610,-33.3333333333333,4,2,1,50,0,0
21760,-33.3333333333333,4,2,1,5,0,0
21810,-33.3333333333333,4,2,1,50,0,0
21960,-33.3333333333333,4,2,1,5,0,0
22010,-33.3333333333333,4,2,1,50,0,0
23410,-33.3333333333333,4,2,3,50,0,0
23810,-33.3333333333333,4,2,1,50,0,0
24960,-33.3333333333333,4,2,1,5,0,0
25010,-33.3333333333333,4,2,1,50,0,0
25160,-33.3333333333333,4,2,1,5,0,0
25210,-33.3333333333333,4,2,1,50,0,0
26610,-33.3333333333333,4,2,3,50,0,0
27010,-33.3333333333333,4,2,1,50,0,0
28010,-33.3333333333333,4,2,2,70,0,0
28810,-33.3333333333333,4,2,1,50,0,0
30010,-25,4,2,1,50,0,0
30410,-33.3333333333333,4,2,1,50,0,0
31610,-83.3333333333333,4,2,1,50,0,0
31960,-33.3333333333333,4,2,1,5,0,0
32010,-33.3333333333333,4,2,1,50,0,0
40810,-33.3333333333333,4,2,3,40,0,0
41410,-25,4,2,3,40,0,0
41560,-33.3333333333333,4,2,3,40,0,0
41610,-33.3333333333333,4,2,1,70,0,0
41860,-33.3333333333333,4,2,1,5,0,0
41910,-33.3333333333333,4,2,3,70,0,0
42410,-33.3333333333333,4,2,1,70,0,0
42710,-33.3333333333333,4,2,3,70,0,0
43110,-33.3333333333333,4,2,1,70,0,0
43210,-33.3333333333333,4,2,3,70,0,0
43810,-33.3333333333333,4,2,1,70,0,0
45060,-33.3333333333333,4,2,1,5,0,0
45110,-33.3333333333333,4,2,1,70,0,0
45710,-33.3333333333333,4,2,3,70,0,0
46110,-33.3333333333333,4,2,1,70,0,0
47210,-66.6666666666667,4,2,1,70,0,0
47610,-66.6666666666667,4,2,2,70,0,0
47960,-33.3333333333333,4,2,1,5,0,0
48010,-33.3333333333333,4,2,1,70,0,0
48310,-33.3333333333333,4,2,3,70,0,0
48510,-33.3333333333333,4,2,1,70,0,0
49510,-33.3333333333333,4,2,1,70,0,0
49610,-33.3333333333333,4,2,3,70,0,0
50210,-33.3333333333333,4,2,1,70,0,0
51160,-33.3333333333333,4,2,1,5,0,0
51210,-33.3333333333333,4,2,1,70,0,0
52110,-33.3333333333333,4,2,3,70,0,0
52510,-33.3333333333333,4,2,1,70,0,0
53710,-33.3333333333333,4,2,2,70,0,0
54010,-66.6666666666667,4,2,2,70,0,0
54360,-33.3333333333333,4,2,1,5,0,0
54410,-33.3333333333333,4,2,1,70,0,0
54710,-33.3333333333333,4,2,3,70,0,0
55210,-33.3333333333333,4,2,1,70,0,0
55510,-33.3333333333333,4,2,3,70,0,0
55910,-33.3333333333333,4,2,1,70,0,0
56010,-33.3333333333333,4,2,3,70,0,0
56610,-33.3333333333333,4,2,1,70,0,0
57860,-33.3333333333333,4,2,1,5,0,0
57910,-33.3333333333333,4,2,1,70,0,0
58510,-33.3333333333333,4,2,3,70,0,0
58910,-33.3333333333333,4,2,1,70,0,0
60310,-66.6666666666667,4,2,1,70,0,0
60760,-33.3333333333333,4,2,1,5,0,0
60810,-33.3333333333333,4,2,1,70,0,0
61110,-33.3333333333333,4,2,3,70,0,0
61310,-33.3333333333333,4,2,1,70,0,0
62610,-33.3333333333333,4,2,3,70,0,0
63010,-33.3333333333333,4,2,1,70,0,0
63960,-33.3333333333333,4,2,1,5,0,0
64010,-33.3333333333333,4,2,1,70,0,0
65560,-33.3333333333333,4,2,1,5,0,0
65610,-33.3333333333333,4,2,1,70,0,0
66360,-33.3333333333333,4,2,1,5,0,0
66410,-33.3333333333333,4,2,1,70,0,0
66510,-33.3333333333333,4,2,2,70,0,0
66810,-66.6666666666667,4,2,2,70,0,0
67160,-25,4,2,1,5,0,0
67210,-25,4,2,1,70,0,0
67560,-66.6666666666667,4,2,1,5,0,0
67610,-66.6666666666667,4,2,1,70,0,0
68010,-33.3333333333333,4,2,1,70,0,0
68410,-66.6666666666667,4,2,1,70,0,0
69060,-66.6666666666667,4,2,1,5,0,0
69110,-66.6666666666667,4,2,1,40,0,0
76810,-66.6666666666667,4,2,1,25,0,0
77610,-50,4,2,1,30,0,0
78410,-40,4,2,1,40,0,0
78810,-40,4,2,1,45,0,0
79210,-40,4,2,1,50,0,0
79410,-66.6666666666667,4,2,1,60,0,0
79960,-25,4,2,1,5,0,0
80010,-25,4,2,1,70,0,0
80360,-66.6666666666667,4,2,1,5,0,0
80410,-66.6666666666667,4,2,1,70,0,0
80810,-33.3333333333333,4,2,1,70,0,0
81210,-66.6666666666667,4,2,1,70,0,0
81860,-66.6666666666667,4,2,1,5,0,0
81910,-66.6666666666667,4,2,1,40,0,0
90810,-66.6666666666667,4,2,1,40,0,0
92010,-66.6666666666667,4,2,1,5,0,0
92110,-66.6666666666667,4,2,1,60,0,0
92760,-50,4,2,1,5,0,0
92810,-50,4,2,1,50,0,0
94360,-50,4,2,1,5,0,0
94410,-50,4,2,1,50,0,0
100760,-50,4,2,1,5,0,0
100810,-50,4,2,1,50,0,0
104760,-50,4,2,1,5,0,0
104810,-50,4,2,1,50,0,0
105960,-50,4,2,1,5,0,0
106010,-50,4,2,1,50,0,0
107160,-50,4,2,1,5,0,0
107210,-50,4,2,1,50,0,0
111610,-50,4,2,1,5,0,0
112010,-133.333333333333,4,2,1,50,0,0
114810,-66.6666666666667,4,2,1,50,0,0
115160,-50,4,2,1,5,0,0
115210,-50,4,2,1,60,0,0
116360,-50,4,2,1,5,0,0
116410,-50,4,2,1,25,0,0
116610,-33.3333333333333,4,2,1,30,0,0
116810,-50,4,2,1,25,0,0
117010,-66.6666666666667,4,2,1,20,0,0
117410,-100,4,2,1,20,0,0
117610,-50,4,2,1,30,0,0
117660,-50,4,2,1,5,0,0
118210,-33.3333333333333,4,2,1,50,0,0
118360,-33.3333333333333,4,2,1,5,0,0
118410,-33.3333333333333,4,2,1,70,0,1
118560,-33.3333333333333,4,2,1,5,0,1
118610,-33.3333333333333,4,2,1,70,0,1
120810,-50,4,2,1,70,0,0
121560,-33.3333333333333,4,2,1,5,0,0
121610,-33.3333333333333,4,2,1,70,0,1
124010,-50,4,2,1,70,0,0
124260,-50,4,2,1,5,0,0
124310,-50,4,2,1,70,0,0
124560,-50,4,2,1,5,0,0
124610,-50,4,2,1,70,0,0
124810,-33.3333333333333,4,2,1,70,0,1
124960,-33.3333333333333,4,2,1,5,0,1
125010,-33.3333333333333,4,2,1,70,0,1
127210,-66.6666666666667,4,2,1,70,0,0
127960,-33.3333333333333,4,2,1,5,0,0
128010,-33.3333333333333,4,2,1,70,0,1
130410,-100,4,2,1,70,0,0
130810,-100,4,2,1,10,0,0
130860,-100,4,2,1,70,0,0
131210,-33.3333333333333,4,2,1,70,0,1
131360,-33.3333333333333,4,2,1,5,0,1
131410,-33.3333333333333,4,2,1,70,0,1
133610,-50,4,2,1,70,0,0
134360,-33.3333333333333,4,2,1,5,0,0
134410,-33.3333333333333,4,2,1,70,0,1
136810,-50,4,2,1,70,0,0
137060,-50,4,2,1,5,0,0
137110,-50,4,2,1,70,0,0
137360,-50,4,2,1,5,0,0
137410,-50,4,2,1,70,0,0
137610,-33.3333333333333,4,2,1,70,0,1
137760,-33.3333333333333,4,2,1,5,0,1
137810,-33.3333333333333,4,2,1,70,0,1
140010,-66.6666666666667,4,2,1,70,0,0
140760,-50,4,2,1,5,0,0
140810,-50,4,2,1,70,0,0
141160,-50,4,2,1,5,0,0
141210,-50,4,2,1,70,0,0
142360,-50,4,2,1,5,0,0
142410,-50,4,2,1,70,0,0
143210,-33.3333333333333,4,2,1,70,0,0
143610,-33.3333333333333,4,2,1,100,0,0
143660,-33.3333333333333,4,2,1,70,0,0
143910,-33.3333333333333,4,2,1,5,0,0
144010,-25,4,2,1,70,0,1
144310,-25,4,2,3,70,0,1
144810,-25,4,2,1,70,0,1
145010,-25,4,2,1,70,0,1
145110,-25,4,2,3,70,0,1
145510,-25,4,2,1,70,0,1
145610,-25,4,2,3,70,0,1
146210,-25,4,2,1,70,0,1
146410,-40,4,2,1,70,0,0
147210,-25,4,2,1,70,0,1
148110,-25,4,2,3,70,0,1
148510,-25,4,2,1,70,0,1
149610,-40,4,2,1,70,0,0
150010,-40,4,2,2,70,0,0
150360,-25,4,2,1,5,0,0
150410,-25,4,2,1,70,0,1
150660,-25,4,2,1,5,0,1
150710,-25,4,2,3,70,0,1
150910,-25,4,2,1,70,0,1
152210,-25,4,2,3,70,0,1
152610,-25,4,2,1,70,0,1
152810,-40,4,2,1,70,0,0
153560,-25,4,2,1,5,0,0
153610,-25,4,2,1,70,0,1
153860,-25,4,2,1,5,0,1
153910,-25,4,2,1,70,0,1
154510,-25,4,2,3,70,0,1
154810,-25,4,2,1,70,0,1
156010,-57.1428571428571,4,2,1,70,0,0
156110,-57.1428571428571,4,2,2,70,0,0
156760,-25,4,2,1,5,0,0
156810,-25,4,2,1,70,0,1
157110,-25,4,2,3,70,0,1
157610,-25,4,2,1,70,0,1
157910,-25,4,2,3,70,0,1
158310,-25,4,2,1,70,0,1
158410,-25,4,2,3,70,0,1
159010,-25,4,2,1,70,0,1
159210,-25,4,2,1,70,0,0
160010,-25,4,2,1,70,0,1
160910,-25,4,2,3,70,0,1
161310,-25,4,2,1,70,0,1
162410,-66.6666666666667,4,2,1,70,0,0
163110,-66.6666666666667,4,2,1,11,0,0
163160,-25,4,2,1,5,0,0
163210,-25,4,2,1,70,0,1
163460,-25,4,2,1,5,0,1
163510,-25,4,2,3,70,0,1
163710,-25,4,2,1,70,0,1
164311,-25,4,2,1,70,0,1
164810,-25,4,2,3,70,0,1
165410,-25,4,2,1,70,0,1
165610,-50,4,2,1,70,0,0
166410,-25,4,2,1,70,0,1
166660,-25,4,2,1,5,0,1
166710,-25,4,2,1,70,0,1
167310,-25,4,2,3,70,0,1
167610,-25,4,2,1,70,0,1
168810,-66.6666666666667,4,2,1,70,0,0
169560,-200,4,2,1,5,0,0
169610,-200,4,2,1,35,0,0

[Colours]
Combo1 : 171,171,118
Combo2 : 142,173,191
Combo3 : 68,98,200
Combo4 : 194,141,141

[HitObjects]
344,165,3200,5,2,0:0:0:0:
324,289,3400,1,0,0:0:0:0:
200,270,3600,1,0,0:0:0:0:
216,145,3800,1,0,0:0:0:0:
342,161,4000,5,2,0:0:0:0:
329,285,4200,1,0,0:0:0:0:
204,273,4400,1,0,0:0:0:0:
213,147,4600,1,0,0:0:0:0:
340,156,4800,37,2,0:0:0:0:
334,281,5000,1,0,0:0:0:0:
208,275,5200,1,0,0:0:0:0:
211,149,5400,1,0,0:0:0:0:
338,152,5600,5,2,0:0:0:0:
338,277,5800,1,0,0:0:0:0:
212,277,6000,1,0,0:0:0:0:
208,152,6200,1,0,0:0:0:0:
317,166,6400,37,2,0:0:0:0:
323,254,6600,1,0,0:0:0:0:
235,258,6800,1,0,0:0:0:0:
229,171,7000,1,0,0:0:0:0:
307,174,7200,5,2,0:0:0:0:
315,242,7400,1,0,0:0:0:0:
248,249,7600,1,0,0:0:0:0:
239,182,7800,1,0,0:0:0:0:
299,177,8000,37,2,0:0:0:0:
308,229,8200,1,0,0:0:0:0:
257,237,8400,1,0,0:0:0:0:
248,187,8600,1,0,0:0:0:0:
294,181,8800,5,2,0:0:0:0:
303,218,9000,1,0,0:0:0:0:
266,227,9200,1,0,0:0:0:0:
257,189,9400,1,0,0:0:0:0:
294,188,9600,38,0,P|300:246|296:275,1,82.5,2|0,0:0|0:0,0:0:0:0:
218,268,10800,6,0,P|215:240|218:195,1,73.1250027894975,2|0,0:0|0:0,0:0:0:0:
234,111,11550,2,0,P|211:112|180:113,1,52.5,2|0,0:0|0:0,0:0:0:0:
106,90,12000,38,0,P|8:193|61:299,1,271.875,2|0,0:0|0:0,0:0:0:0:
141,292,13550,6,0,P|182:280|226:276,1,67.5000025749207,2|0,0:0|0:0,0:0:0:0:
289,300,13950,2,0,P|348:253|277:227,1,183.750001752377,2|0,0:0|0:0,0:0:0:0:
90,335,14750,38,0,P|150:342|223:330,1,131.25,2|0,0:0|0:0,0:0:0:0:
330,367,15200,2,0,P|405:368|312:250,1,337.500012874604,2|0,0:0|0:0,0:0:0:0:
278,311,16010,5,4,3:2:0:0:
440,256,16210,1,0,0:0:0:0:
217,215,16410,2,0,L|186:225,3,22.5000008583069,2|2|2|2,0:3|0:3|0:3|0:3,0:0:0:0:
233,224,16610,2,0,L|202:234,3,22.5000008583069,2|2|2|2,3:3|0:3|0:3|0:3,0:0:0:0:
281,163,16810,38,0,P|289:143|293:121,1,45.0000017166138,8|0,0:3|0:0,0:0:0:0:
407,121,17010,1,2,3:2:0:0:
393,106,17110,1,2,2:3:0:0:
385,88,17210,2,0,P|376:66|372:44,1,45.0000017166138,2|0,3:2|0:2,0:0:0:0:
191,0,17410,1,8,0:1:0:0:
270,39,17610,5,0,3:0:0:0:
55,127,17810,2,0,L|32:127,2,22.5000008583069,2|2|2,0:3|0:3|0:3,0:0:0:0:
110,14,18010,2,0,P|88:47|82:64,1,45.0000017166138,2|0,0:2|0:0,0:0:0:0:
139,116,18210,2,0,P|129:154|130:173,1,45.0000017166138,2|0,3:2|0:0,0:0:0:0:
231,242,18410,38,0,P|207:189|205:165,1,67.5000025749207,8|0,0:2|0:0,0:0:0:0:
216,177,18610,2,0,P|231:206|239:239,1,67.5000025749207,8|0,0:3|0:0,0:0:0:0:
162,318,18810,5,8,0:2:0:0:
141,316,18910,1,8,0:2:0:0:
109,279,19010,1,8,0:3:0:0:
92,269,19110,1,8,0:3:0:0:
46,297,19210,38,0,P|90:290|135:278,1,90.0000034332277,0|0,3:0|0:0,0:0:0:0:
409,335,19610,2,0,L|443:349,3,22.5000008583069,2|2|2|2,0:3|0:3|0:3|0:3,0:0:0:0:
415,354,19810,2,0,L|449:368,3,22.5000008583069,2|2|2|2,3:3|0:3|0:3|0:3,0:0:0:0:
333,352,20010,6,0,P|318:311|326:267,1,90.0000034332277,8|2,0:3|2:2,0:0:0:0:
434,255,20310,1,2,3:3:0:0:
417,245,20410,2,0,P|402:220|396:198,1,45.0000017166138,6|2,3:3|2:3,0:0:0:0:
454,65,20610,1,8,0:1:0:0:
483,150,20810,37,0,3:0:0:0:
273,44,21010,2,0,L|266:14,2,22.5000008583069,2|2|2,0:3|0:3|0:3,0:0:0:0:
376,117,21210,2,0,P|342:116|325:113,1,45.0000017166138,2|0,0:2|0:0,0:0:0:0:
251,159,21410,2,0,P|228:129|222:117,1,45.0000017166138,2|0,3:2|0:0,0:0:0:0:
96,80,21610,6,0,P|100:37|113:13,1,67.5000025749207,8|0,0:2|0:0,0:0:0:0:
119,18,21810,2,0,P|115:61|102:85,1,67.5000025749207,8|0,0:3|0:0,0:0:0:0:
48,147,22010,37,8,0:2:0:0:
38,171,22110,1,8,0:2:0:0:
1,220,22210,1,8,0:3:0:0:
8,249,22310,1,0,0:0:0:0:
57,278,22410,5,4,3:2:0:0:
8,68,22610,1,0,0:0:0:0:
126,162,22810,2,0,L|129:185,3,22.5000008583069,2|2|2|2,0:3|0:3|0:3|0:3,0:0:0:0:
150,178,23010,2,0,L|153:201,3,22.5000008583069,2|2|2|2,3:3|0:3|0:3|0:3,0:0:0:0:
179,107,23210,38,0,P|209:103|234:103,1,45.0000017166138,8|0,0:3|0:0,0:0:0:0:
321,196,23410,1,2,3:2:0:0:
302,198,23510,1,2,2:3:0:0:
284,197,23610,2,0,P|255:188|232:177,1,45.0000017166138,2|0,3:2|0:0,0:0:0:0:
443,100,23810,1,8,0:1:0:0:
409,224,24010,5,0,3:0:0:0:
512,68,24210,2,0,L|507:41,2,22.5000008583069,2|2|2,0:3|0:3|0:3,0:0:0:0:
512,156,24410,2,0,P|482:178|462:186,1,45.0000017166138,2|0,0:2|0:0,0:0:0:0:
383,154,24610,2,0,P|346:158|324:154,1,45.0000017166138,2|0,3:2|0:0,0:0:0:0:
238,64,24810,38,0,P|268:78|301:82,1,67.5000025749207,8|0,0:2|0:0,0:0:0:0:
305,74,25010,2,0,P|274:59|241:56,1,67.5000025749207,8|0,0:3|0:0,0:0:0:0:
167,3,25210,5,8,0:2:0:0:
139,9,25310,1,8,0:2:0:0:
94,52,25410,1,8,0:3:0:0:
65,53,25510,1,8,0:3:0:0:
0,27,25610,38,0,P|0:71|9:115,1,90.0000034332277,0|0,3:0|0:0,0:0:0:0:
220,163,26010,2,0,L|259:172,3,22.5000008583069,2|2|2|2,0:3|0:3|0:3|0:3,0:0:0:0:
234,180,26210,2,0,L|255:185,3,22.5000008583069,2|2|2|2,3:3|0:3|0:3|0:3,0:0:0:0:
170,221,26410,6,0,P|150:251|154:308,1,90.0000034332277,8|2,0:3|2:2,0:0:0:0:
88,369,26710,1,2,3:3:0:0:
75,361,26810,2,0,P|79:338|74:312,1,45.0000017166138,6|2,3:3|2:3,0:0:0:0:
0,197,27010,1,8,0:1:0:0:
0,333,27210,37,0,3:0:0:0:
80,218,27410,2,0,L|68:183,2,22.5000008583069,2|2|2,0:3|0:3|0:3,0:0:0:0:
221,346,27610,2,0,P|238:363|256:375,1,45.0000017166138,2|0,0:2|0:0,0:0:0:0:
315,319,27810,2,0,P|339:319|361:316,1,45.0000017166138,2|0,3:2|0:3,0:3:0:0:
511,232,28010,5,2,0:0:0:0:
512,266,28110,1,2,0:0:0:0:
476,271,28210,1,2,0:0:0:0:
445,204,28310,2,0,P|459:175|468:164,1,45.0000017166138,2|0,0:0|0:0,0:0:0:0:
374,227,28510,37,2,0:0:0:0:
314,165,28610,2,0,P|310:135|312:116,1,45.0000017166138,2|0,0:0|0:0,0:0:0:0:
205,12,28810,37,4,3:2:0:0:
207,291,29210,2,0,L|202:313,7,22.5000008583069,2|2|2|2|2|2|2|2,3:3|0:3|0:3|0:3|0:3|0:3|0:3|0:3,0:0:0:0:
244,223,29610,2,0,L|234:189,1,22.5000008583069,8|0,3:3|0:0,0:0:0:0:
505,24,30010,2,0,P|445:18|385:23,1,120,0|0,3:0|0:0,1:0:0:0:
20,47,30410,37,0,3:0:0:0:
11,227,30610,1,0,0:0:0:0:
202,94,30810,2,0,P|196:71|192:50,1,45.0000017166138,2|0,3:2|0:0,0:0:0:0:
103,83,31010,2,0,P|105:59|108:38,1,45.0000017166138,2|0,0:0|0:0,0:0:0:0:
44,158,31210,5,2,3:3:0:0:
282,83,31410,1,8,0:3:0:0:
448,208,31610,2,2,P|411:188|392:192,1,62.9999980773926,0|0,3:2|0:0,1:2:0:0:
379,208,32010,37,0,3:0:0:0:
512,384,32210,1,0,0:0:0:0:
292,226,32410,2,0,L|284:190,7,22.5000008583069,2|2|2|2|2|2|2|2,3:3|0:3|0:3|0:3|0:3|0:3|0:3|0:3,0:0:0:0:
256,295,32810,2,0,L|234:299,1,22.5000008583069,8|0,3:3|0:0,0:0:0:0:
0,375,33210,1,0,3:0:0:0:
14,261,33610,5,0,3:0:0:0:
166,376,33810,1,0,0:0:0:0:
296,131,34010,2,0,P|262:127|237:131,1,45.0000017166138,2|0,3:2|0:0,0:0:0:0:
194,182,34210,2,0,P|171:185|149:184,1,45.0000017166138,2|0,0:2|0:0,0:0:0:0:
46,141,34410,37,2,3:3:0:0:
232,44,34610,1,8,0:3:0:0:
404,227,34810,2,0,P|409:251|411:287,1,45.0000017166138,2|0,3:3|0:0,0:0:0:0:
314,272,35010,2,0,P|316:249|322:228,1,45.0000017166138,2|0,0:3|0:0,0:0:0:0:
356,120,35210,5,4,3:2:0:0:
353,148,35410,1,0,3:0:0:0:
381,151,35610,1,0,3:0:0:0:
384,123,35810,1,0,3:0:0:0:
192,167,36010,37,8,3:3:0:0:
190,81,36210,1,0,3:0:0:0:
105,81,36410,1,0,3:0:0:0:
107,167,36610,1,0,3:0:0:0:
323,109,36810,5,0,3:0:0:0:
337,255,37010,1,0,3:0:0:0:
484,247,37210,1,2,3:2:0:0:
470,101,37410,1,2,3:2:0:0:
232,334,37610,37,8,3:0:0:0:
278,126,37810,1,0,3:0:0:0:
70,77,38010,1,0,3:0:0:0:
24,285,38210,1,0,3:0:0:0:
271,336,38410,5,4,3:2:0:0:
229,329,38510,1,0,3:0:0:0:
217,283,38610,1,0,3:0:0:0:
174,268,38710,1,0,3:0:0:0:
168,226,38810,1,0,3:0:0:0:
131,216,38910,1,0,3:0:0:0:
92,193,39010,1,0,3:0:0:0:
58,217,39110,1,0,3:0:0:0:
34,281,39210,37,8,3:0:0:0:
3,253,39310,1,0,3:0:0:0:
38,233,39410,1,0,3:0:0:0:
5,208,39510,1,0,3:0:0:0:
41,191,39610,1,0,3:0:0:0:
5,173,39710,1,0,3:0:0:0:
43,161,39810,1,0,3:0:0:0:
7,142,39910,1,0,3:0:0:0:
45,133,40010,5,0,3:0:0:0:
6,121,40110,1,0,3:0:0:0:
46,113,40210,1,0,3:0:0:0:
6,103,40310,1,0,3:0:0:0:
46,101,40410,1,0,3:0:0:0:
7,90,40510,1,0,3:0:0:0:
47,89,40610,1,0,3:0:0:0:
7,83,40710,1,0,3:0:0:0:
27,83,40810,22,0,L|20:38,1,45.0000017166138,2|4,0:3|0:3,0:0:0:0:
115,102,41010,1,8,0:3:0:0:
121,36,41110,2,0,L|119:80,1,45.0000017166138,2|0,0:3|3:3,0:0:0:0:
157,169,41310,1,8,0:3:0:0:
241,61,41410,38,2,P|207:77|246:96,1,90,2|0,2:3|0:3,1:2:0:0:
255,99,41610,38,0,P|324:94|366:118,1,112.500004291535,4|0,3:2|0:0,0:0:0:0:
420,72,41910,2,0,P|432:110|409:168,1,90.0000034332277,2|0,2:3|0:0,0:3:0:0:
354,313,42210,37,2,0:3:0:0:
300,234,42310,1,2,0:3:0:0:
435,315,42410,2,0,L|443:359,1,45.0000017166138,8|0,0:3|0:0,0:0:0:0:
279,360,42610,5,0,3:0:0:0:
279,360,42710,2,0,L|264:281,1,45.0000017166138,2|0,2:3|0:0,0:0:0:0:
300,234,42910,2,0,L|285:155,1,45.0000017166138,2|0,2:2|0:0,0:0:0:0:
112,137,43110,37,0,3:0:0:0:
112,137,43210,2,0,B|155:146|155:146|206:144,1,90.0000034332277,2|0,3:3|3:3,0:0:0:0:
353,92,43510,5,0,3:0:0:0:
353,92,43610,2,0,L|292:97,1,45.0000017166138,0|0,3:0|0:0,0:0:0:0:
160,226,43810,2,0,L|205:223,1,45.0000017166138,8|0,0:1|0:0,0:0:0:0:
382,251,44010,6,0,L|386:199,1,45.0000017166138,8|0,0:3|0:0,0:0:0:0:
308,268,44210,1,2,0:2:0:0:
308,268,44310,2,0,L|312:216,1,45.0000017166138,2|0,0:2|0:0,0:0:0:0:
235,285,44510,1,0,3:0:0:0:
235,285,44610,2,0,L|240:230,1,45.0000017166138,2|0,3:2|3:0,0:0:0:0:
160,226,44810,38,0,P|109:205|47:237,1,112.500004291535,4|0,3:2|0:0,0:0:0:0:
108,276,45110,2,0,L|101:327,1,45.0000017166138,8|0,3:1|0:0,0:0:0:0:
254,250,45310,2,0,L|262:294,1,45.0000017166138,0|0,3:0|0:0,0:0:0:0:
280,380,45510,37,2,3:0:0:0:
413,347,45610,2,0,L|405:303,1,45.0000017166138,8|0,0:3|3:0,0:0:0:0:
388,145,45810,1,0,3:0:0:0:
388,145,45910,2,0,L|381:189,1,45.0000017166138,0|0,3:0|3:0,0:0:0:0:
322,330,46110,6,0,P|305:288|304:243,1,90.0000034332277,0|0,3:0|0:0,0:0:0:0:
275,59,46410,2,0,P|286:98|283:148,1,90.0000034332277,0|2,3:0|0:3,0:0:0:0:
293,158,46710,37,2,0:3:0:0:
151,27,46810,2,0,L|203:30,1,45.0000017166138,8|0,3:1|0:0,0:0:0:0:
297,71,47010,2,0,L|349:74,1,45.0000017166138,2|0,3:3|0:0,0:0:0:0:
512,0,47210,38,0,L|513:77,1,67.5000025749207,8|0,0:3|0:0,0:0:0:0:
512,86,47610,1,2,0:0:0:0:
421,113,47710,2,0,L|432:52,1,56.2500021457673,2|0,0:0|0:0,0:0:0:0:
420,47,48010,22,0,P|387:20|315:21,1,112.500004291535,4|0,3:2|0:0,0:0:0:0:
244,38,48310,2,0,L|236:95,1,45.0000017166138,2|0,2:3|0:0,0:0:0:0:
201,179,48510,1,0,3:0:0:0:
311,184,48610,2,0,L|304:139,1,45.0000017166138,0|0,3:0|0:0,0:0:0:0:
107,118,48810,38,0,L|93:160,1,45.0000017166138,8|0,0:3|0:0,0:0:0:0:
230,92,49010,1,2,0:0:0:0:
200,189,49110,6,0,L|196:233,1,45.0000017166138,0|0,3:0|0:0,0:0:0:0:
140,318,49310,2,0,L|136:362,1,45.0000017166138,2|0,0:0|0:0,0:0:0:0:
30,323,49510,37,0,3:0:0:0:
30,323,49610,2,0,B|38:233,1,90.0000034332277,2|0,3:3|3:0,0:0:0:0:
44,156,49910,1,0,3:0:0:0:
24,77,50010,6,0,L|78:80,1,45.0000017166138,0|0,3:0|0:0,0:0:0:0:
215,128,50210,2,0,L|259:130,1,45.0000017166138,8|0,0:1|0:0,0:0:0:0:
44,156,50410,5,8,0:3:0:0:
47,136,50710,1,2,0:2:0:0:
50,117,51010,2,2,P|58:93|84:125,1,67.5000025749207,2|0,3:2|0:0,1:2:0:0:
72,131,51210,38,0,L|62:244,1,112.500004291535,4|0,3:2|0:0,0:0:0:0:
141,288,51510,2,0,L|144:226,1,45.0000017166138,8|0,0:1|0:0,0:0:0:0:
195,78,51710,2,0,L|192:122,1,45.0000017166138,0|0,3:0|0:0,0:0:0:0:
145,222,51910,37,2,3:0:0:0:
272,160,52010,2,0,L|316:165,1,45.0000017166138,8|0,0:3|3:0,0:0:0:0:
366,285,52210,2,0,P|321:286|276:279,1,90.0000034332277,2|0,3:3|0:3,0:0:0:0:
145,222,52510,6,0,P|146:261|143:325,1,90.0000034332277,0|0,3:0|0:0,0:0:0:0:
257,157,52810,2,0,P|256:196|259:260,1,90.0000034332277,0|2,3:0|0:3,0:0:0:0:
349,288,53110,37,2,0:3:0:0:
447,267,53210,2,0,L|449:202,1,45.0000017166138,8|0,3:1|0:0,0:0:0:0:
428,135,53410,2,0,L|430:70,1,45.0000017166138,2|0,3:3|0:0,0:0:0:0:
236,153,53610,38,0,P|212:152|184:150,1,45.0000017166138,8|0,0:3|0:0,0:0:0:0:
317,121,53810,37,2,0:0:0:0:
312,198,53910,1,2,0:0:0:0:
176,176,54010,6,0,P|168:137|166:91,1,78.7500030040742,2|0,0:0|0:0,0:0:0:0:
136,88,54410,22,0,P|144:128|144:208,1,112.500004291535,4|0,3:2|0:0,0:0:0:0:
197,257,54710,2,0,P|149:273|93:257,1,90.0000034332277,2|0,0:3|0:0,0:0:0:0:
37,132,55010,37,2,0:3:0:0:
123,132,55110,1,2,0:3:0:0:
253,93,55210,2,0,L|195:97,1,45.0000017166138,8|0,0:3|0:0,0:0:0:0:
47,77,55410,5,0,3:0:0:0:
47,77,55510,2,0,L|49:139,1,45.0000017166138,2|0,0:3|0:0,0:0:0:0:
78,222,55710,2,0,L|81:288,1,45.0000017166138,2|0,0:0|0:0,0:0:0:0:
213,326,55910,37,0,3:0:0:0:
213,326,56010,2,0,P|186:264|178:226,1,90.0000034332277,2|0,3:3|3:0,0:0:0:0:
140,116,56310,5,0,3:0:0:0:
140,116,56410,2,0,L|139:182,1,45.0000017166138,0|0,3:0|0:0,0:0:0:0:
281,217,56610,2,0,L|335:217,1,45.0000017166138,8|0,0:1|0:0,0:0:0:0:
512,177,56810,6,0,L|458:177,1,45.0000017166138,8|0,0:3|0:0,0:0:0:0:
409,136,57010,1,2,0:2:0:0:
387,136,57110,2,0,L|333:136,1,45.0000017166138,2|0,0:2|0:0,0:0:0:0:
282,96,57310,5,2,3:2:0:0:
259,96,57410,1,0,3:0:0:0:
237,97,57510,1,0,3:0:0:0:
215,86,57610,22,0,L|222:207,1,112.500004291535,4|0,3:2|0:0,0:0:0:0:
207,279,57910,2,0,L|205:234,1,45.0000017166138,8|0,0:1|0:0,0:0:0:0:
136,94,58110,2,0,L|137:138,1,45.0000017166138,0|0,3:0|0:0,0:0:0:0:
127,284,58310,37,2,3:0:0:0:
284,277,58410,2,0,L|337:272,1,45.0000017166138,8|0,0:3|3:0,0:0:0:0:
206,367,58610,1,0,3:0:0:0:
206,367,58710,2,0,L|264:362,1,45.0000017166138,0|0,3:0|3:0,0:0:0:0:
458,362,58910,6,0,L|453:312,1,45.0000017166138,0|0,3:0|0:0,0:0:0:0:
446,225,59110,1,0,0:0:0:0:
381,363,59210,2,0,L|371:267,1,90.0000034332277,0|2,3:0|0:3,0:0:0:0:
371,260,59510,1,2,0:3:0:0:
250,238,59610,38,0,L|256:286,1,45.0000017166138,8|0,0:1|0:0,0:0:0:0:
134,280,59810,2,0,L|139:324,1,45.0000017166138,2|0,0:3|0:0,0:0:0:0:
370,248,60010,21,8,0:3:0:0:
291,203,60110,2,0,L|246:208,1,45.0000017166138,0|0,0:3|0:0,0:0:0:0:
126,260,60310,6,0,P|111:211|118:156,1,101.250003862381,8|0,3:1|0:0,0:0:0:0:
134,146,60810,6,0,B|73:149|73:149|13:141,1,112.500004291535,4|0,3:2|0:0,0:0:0:0:
27,61,61110,2,0,L|31:14,1,45.0000017166138,2|0,0:3|0:0,0:0:0:0:
159,41,61310,5,0,3:0:0:0:
134,171,61410,2,0,L|138:217,1,45.0000017166138,0|0,3:0|0:0,0:0:0:0:
119,369,61610,2,0,L|173:365,1,45.0000017166138,8|0,0:3|0:0,0:0:0:0:
231,192,61810,1,2,0:0:0:0:
57,295,61910,38,0,L|196:290,1,135.000005149841,0|0,3:0|0:0,0:0:0:0:
396,334,62310,2,0,L|257:339,1,135.000005149841,0|0,3:0|0:1,0:0:0:0:
200,270,62710,5,0,3:1:0:0:
244,185,62810,2,0,L|288:182,1,45.0000017166138,0|0,3:0|0:0,0:0:0:0:
438,149,63010,2,0,L|440:206,1,45.0000017166138,8|0,0:1|0:0,0:0:0:0:
228,202,63210,5,8,0:3:0:0:
230,182,63510,1,2,0:2:0:0:
233,156,63810,2,2,P|224:182|207:160,1,67.5000025749207,2|0,3:2|0:0,1:2:0:0:
237,137,64010,38,0,P|312:131|396:135,1,157.500006008148,4|0,3:2|0:0,0:0:0:0:
472,120,64410,38,0,L|476:186,1,45.0000017166138,0|0,3:0|0:0,0:0:0:0:
315,63,64610,2,0,L|309:114,1,45.0000017166138,0|0,3:0|0:0,0:0:0:0:
282,328,64810,5,8,0:3:0:0:
373,289,64910,1,2,0:0:0:0:
289,234,65010,2,0,L|235:241,1,45.0000017166138,2|0,0:0|0:0,0:0:0:0:
140,383,65210,2,0,P|158:306|158:228,1,157.500006008148,0|0,3:0|0:0,0:0:0:0:
107,132,65610,38,0,L|88:88,1,45.0000017166138,2|0,0:3|0:0,0:0:0:0:
233,153,65810,2,0,L|224:105,1,45.0000017166138,0|0,3:0|0:0,0:0:0:0:
370,206,66010,2,0,P|343:133|339:50,1,157.500006008148,0|0,3:0|0:0,0:0:0:0:
225,109,66410,38,0,L|180:115,1,45.0000017166138,10|0,0:3|0:0,0:0:0:0:
63,159,66610,37,2,0:2:0:0:
72,230,66710,1,2,0:2:0:0:
213,228,66810,6,0,P|220:189|214:150,1,78.7500030040742,2|0,0:0|0:0,0:0:0:0:
203,139,67210,22,2,B|306:158|306:158|413:138,1,210,4|0,0:0|0:0,1:2:0:0:
403,122,67610,1,8,0:2:0:0:
209,118,67810,38,0,L|208:100,3,11.2500004291535,2|2|2|2,0:3|0:3|0:3|0:3,0:0:0:0:
203,139,68010,6,0,L|247:136,1,45.0000017166138,0|0,3:0|3:0,0:0:0:0:
223,288,68210,2,0,L|267:293,1,45.0000017166138,0|0,3:0|3:0,0:0:0:0:
397,137,68410,38,2,P|400:204|395:289,1,146.250005578995,4|0,0:0|0:0,1:2:0:0:
404,294,69110,2,0,L|400:317,1,22.5000008583069,0|0,0:0|0:0,0:0:0:0:
198,151,76810,22,0,P|200:178|201:199,1,45.0000017166138,2|0,0:3|0:0,0:0:0:0:
188,194,77110,1,0,0:3:0:0:
284,208,77210,2,0,P|279:180|277:154,1,45.0000017166138,2|0,0:3|0:0,0:0:0:0:
363,183,77510,6,0,P|362:154|365:128,1,45.0000017166138,2|0,0:3|0:0,0:0:0:0:
442,168,77810,1,2,0:3:0:0:
238,166,78010,38,0,L|173:167,1,60,8|0,0:0|0:0,0:0:0:0:
155,91,78310,2,0,L|133:88,2,15,2|2|2,0:3|0:3|0:3,0:0:0:0:
281,96,78510,6,0,L|281:152,1,56.25,8|0,0:0|0:0,0:0:0:0:
167,207,78810,2,0,L|164:170,1,37.5,2|0,0:3|0:0,0:0:0:0:
172,90,79010,37,2,0:3:0:0:
297,162,79110,2,0,L|301:236,1,75,8|0,0:0|0:0,0:0:0:0:
171,237,79410,6,2,P|129:234|42:253,1,123.750004720688,2|0,3:3|0:0,0:2:0:0:
24,255,80010,22,2,B|123:275|123:275|233:260,1,210,4|0,0:0|0:0,1:2:0:0:
221,249,80410,1,8,0:0:0:0:
424,264,80610,38,0,L|425:244,3,11.2500004291535,2|2|2|2,0:3|0:3|0:3|0:3,0:0:0:0:
442,235,80810,6,0,L|388:226,1,45.0000017166138,0|0,3:0|3:0,0:0:0:0:
422,66,81010,2,0,L|377:73,1,45.0000017166138,0|0,3:0|3:0,0:0:0:0:
242,234,81210,38,2,P|248:166|243:84,1,146.250005578995,4|0,0:0|0:0,1:2:0:0:
234,83,81910,2,0,L|242:55,1,22.5000008583069,0|0,0:0|0:0,0:0:0:0:
256,192,90810,12,0,92010,0:0:0:0:
164,194,92110,38,2,P|203:201|318:193,1,146.250005578995,0|0,0:0|0:0,0:2:0:0:
322,194,92810,38,0,L|320:124,1,60,4|0,3:2|0:0,0:0:0:0:
156,119,93210,1,2,0:3:0:0:
146,196,93410,1,0,3:0:0:0:
447,223,93610,6,0,L|516:226,1,60,8|0,0:3|0:0,0:0:0:0:
413,21,94010,2,0,L|403:130,1,105,0|0,3:0|0:0,0:0:0:0:
391,131,94410,37,2,0:3:0:0:
403,17,94610,1,0,3:0:0:0:
395,296,94810,2,0,L|335:293,1,60,0|0,3:0|0:0,0:0:0:0:
197,360,95210,5,8,0:2:0:0:
0,351,95410,1,8,0:3:0:0:
73,184,95610,1,8,2:1:0:0:
147,187,95810,1,2,0:3:0:0:
223,348,96010,38,0,L|224:277,1,60,0|0,3:0|0:0,0:0:0:0:
305,138,96410,1,2,0:3:0:0:
299,214,96610,1,0,3:0:0:0:
34,90,96810,6,0,L|36:30,1,60,8|0,0:3|0:0,0:0:0:0:
223,109,97210,1,0,3:0:0:0:
221,33,97410,1,2,0:3:0:0:
414,177,97610,37,8,0:2:0:0:
490,175,97810,1,2,0:3:0:0:
489,19,98010,6,0,L|489:4,3,15,2|2|2|2,0:3|0:3|0:3|0:3,0:3:0:0:
467,18,98210,2,0,L|467:4,3,15,2|2|2|2,0:3|0:3|0:3|0:3,0:3:0:0:
479,97,98410,37,8,0:0:0:0:
474,176,98610,1,0,3:3:0:0:
379,349,98810,6,0,L|379:308,1,30,8|0,0:3|0:0,0:0:0:0:
380,184,99010,2,0,L|380:143,1,30,0|0,3:3|0:0,0:0:0:0:
338,13,99210,38,0,L|338:79,1,60,0|0,3:0|0:0,0:0:0:0:
290,146,99610,1,2,0:3:0:0:
208,139,99810,1,0,3:0:0:0:
430,247,100010,5,8,0:3:0:0:
512,240,100210,1,0,0:3:0:0:
368,304,100410,2,0,L|253:300,1,105,0|0,3:0|0:0,0:0:0:0:
253,312,100810,37,2,0:3:0:0:
76,307,101010,1,0,3:0:0:0:
211,171,101210,2,0,L|152:170,1,60,0|0,3:0|0:0,0:0:0:0:
108,92,101610,5,8,0:0:0:0:
318,99,101810,1,8,0:3:0:0:
414,194,102010,1,8,0:1:0:0:
336,191,102210,1,2,0:3:0:0:
497,65,102410,38,0,L|500:-2,1,60,0|0,3:0|0:0,0:0:0:0:
357,85,102810,6,0,L|332:85,3,15,2|2|2|2,0:3|0:3|0:3|0:3,0:0:0:0:
319,77,103010,2,0,L|294:77,3,15,2|2|2|2,0:3|0:3|0:3|0:3,0:0:0:0:
237,123,103210,38,0,L|169:124,1,60,8|0,0:3|0:0,0:0:0:0:
64,47,103610,1,2,0:3:0:0:
66,119,103810,1,2,0:3:0:0:
240,282,104010,5,8,0:3:0:0:
245,354,104210,1,2,0:3:0:0:
45,312,104410,2,0,L|150:312,1,105,0|0,3:0|0:0,0:0:0:0:
255,357,104810,37,8,0:0:0:0:
254,269,105010,1,2,0:3:0:0:
512,192,105210,6,0,L|479:193,1,30,8|0,0:3|0:0,0:0:0:0:
317,196,105410,2,0,L|276:196,1,30,0|0,3:3|0:0,0:0:0:0:
392,354,105610,38,0,L|395:246,1,105,4|0,3:2|0:0,0:0:0:0:
405,243,106010,1,2,0:3:0:0:
400,362,106210,1,0,3:0:0:0:
301,115,106410,6,0,L|303:55,1,60,8|0,0:3|0:0,0:0:0:0:
209,326,106810,2,0,L|203:220,1,105,0|0,3:0|0:0,0:0:0:0:
196,225,107210,37,2,0:3:0:0:
202,321,107410,1,0,3:0:0:0:
121,96,107610,2,0,L|54:103,1,60,0|0,3:0|0:0,0:0:0:0:
1,159,108010,5,8,0:0:0:0:
185,153,108210,1,8,0:3:0:0:
125,0,108410,1,8,0:1:0:0:
46,4,108610,1,2,0:3:0:0:
86,90,108810,38,0,L|84:149,1,60,0|0,3:0|0:0,0:0:0:0:
228,81,109210,1,2,0:3:0:0:
225,12,109410,1,0,3:0:0:0:
322,250,109610,6,0,L|323:309,1,60,8|0,0:3|0:0,0:0:0:0:
461,370,110010,1,0,3:0:0:0:
388,368,110210,1,2,0:3:0:0:
428,122,110410,37,8,0:0:0:0:
426,287,110610,1,2,0:3:0:0:
466,199,110810,6,0,L|441:199,3,15,2|2|2|2,0:3|0:3|0:3|0:3,0:0:0:0:
437,206,111010,2,0,L|412:206,3,15,2|2|2|2,0:3|0:3|0:3|0:3,0:0:0:0:
365,163,111210,37,8,0:3:0:0:
129,296,111410,2,0,L|59:297,1,60,0|0,3:3|0:0,0:0:0:0:
61,289,112010,6,2,P|99:287|155:289,1,90.0000034332277,2|2,3:3|0:3,0:2:0:0:
234,367,113210,1,0,3:0:0:0:
464,103,113610,38,2,P|465:80|465:58,1,45.0000017166138,8|2,0:3|2:2,0:0:0:0:
416,272,114410,1,0,3:3:0:0:
99,119,114810,6,0,P|53:114|17:120,1,78.7500030040742,0|0,0:0|0:0,1:0:0:0:
12,131,115210,21,8,0:3:0:0:
172,279,115510,1,2,0:3:0:0:
172,279,115610,1,2,0:3:0:0:
329,171,115710,37,0,3:3:0:0:
236,370,116010,6,2,P|242:348|252:261,1,105,8|0,0:3|0:0,0:0:0:0:
261,244,116410,6,0,L|284:242,3,15,8|8|8|8,0:1|0:1|0:1|0:1,0:0:0:0:
245,221,116610,6,0,L|217:219,3,22.5000008583069,8|8|8|8,0:2|0:2|0:2|0:2,0:0:0:0:
261,200,116810,38,0,L|284:198,3,15,8|8|8|8,0:1|0:1|0:1|0:1,0:0:0:0:
245,177,117010,6,0,L|230:176,3,11.2500004291535,2|2|2|2,0:3|0:3|0:3|0:3,0:0:0:0:
260,78,117410,38,0,L|260:67,3,7.5,2|2|2|2,0:3|0:3|0:3|0:3,0:0:0:0:
253,55,117610,6,0,L|253:27,1,15,8|0,0:1|0:0,0:0:0:0:
269,2,118210,6,2,P|255:26|241:3,1,67.5000025749207,0|0,0:0|0:0,1:2:0:0:
279,15,118410,6,0,L|363:10,1,67.5000025749207,4|0,3:2|0:0,0:0:0:0:
417,81,118610,2,0,L|313:89,1,90.0000034332277,0|0,3:0|0:0,0:0:0:0:
178,116,118910,38,0,L|176:63,1,45.0000017166138,2|0,0:3|0:3,0:0:0:0:
249,26,119110,1,2,0:3:0:0:
241,180,119210,6,0,L|241:240,1,45.0000017166138,8|0,0:3|0:0,0:0:0:0:
104,120,119410,1,0,3:0:0:0:
159,223,119510,2,0,L|114:223,1,45.0000017166138,0|0,3:0|0:0,0:0:0:0:
251,157,119710,2,0,L|295:155,1,45.0000017166138,0|0,3:0|0:0,0:0:0:0:
304,80,119910,1,0,3:0:0:0:
432,200,120010,37,0,3:0:0:0:
512,96,120110,1,0,3:0:0:0:
468,18,120210,2,0,L|404:16,1,45.0000017166138,2|2,0:3|0:3,0:0:0:0:
278,37,120410,2,0,L|278:60,2,22.5000008583069,0|0|0,3:3|3:3|3:3,0:0:0:0:
211,176,120610,5,8,0:1:0:0:
301,239,120710,1,2,0:3:0:0:
407,183,120810,6,0,L|404:114,1,60,8|0,0:3|0:0,0:0:0:0:
483,168,121110,1,2,0:2:0:0:
483,168,121210,2,0,L|479:125,1,30,2|0,0:2|0:0,0:0:0:0:
407,183,121410,2,0,L|404:125,1,45,2|0,0:2|0:0,0:0:0:0:
345,231,121610,38,0,L|292:230,1,45.0000017166138,4|0,3:2|0:0,0:0:0:0:
196,330,121810,1,2,0:3:0:0:
125,329,121910,1,2,0:3:0:0:
37,378,122010,38,0,L|37:273,1,90.0000034332277,0|0,3:3|0:0,0:0:0:0:
36,168,122310,1,2,0:3:0:0:
113,314,122410,6,0,L|114:361,1,45.0000017166138,8|0,0:3|0:0,0:0:0:0:
255,259,122610,1,2,0:3:0:0:
318,320,122710,2,0,L|318:365,1,45.0000017166138,0|0,3:0|0:0,0:0:0:0:
119,382,122910,38,0,P|159:376|223:371,1,90.0000034332277,0|0,3:0|0:0,0:0:0:0:
428,319,123210,2,0,P|383:314|338:313,1,90.0000034332277,0|2,3:0|0:3,0:0:0:0:
189,289,123510,1,2,0:3:0:0:
354,191,123610,6,0,L|354:235,1,45.0000017166138,8|0,3:1|0:0,0:0:0:0:
326,334,123810,2,0,L|326:378,1,45.0000017166138,2|0,3:3|0:0,0:0:0:0:
107,346,124010,22,0,P|109:318|121:260,1,75,8|0,0:3|0:0,0:0:0:0:
233,269,124310,2,0,P|240:305|243:343,1,75,8|0,0:1|0:0,0:0:0:0:
122,336,124610,38,0,L|99:333,3,15,2|2|2|2,0:3|0:3|0:3|0:3,0:0:0:0:
34,331,124810,38,0,L|30:250,1,67.5000025749207,4|0,3:2|0:0,0:0:0:0:
56,184,125010,2,0,L|52:89,1,90.0000034332277,0|0,3:0|0:0,0:0:0:0:
166,1,125310,37,2,3:3:0:0:
219,117,125410,2,0,L|174:119,1,45.0000017166138,2|0,3:3|0:0,0:0:0:0:
0,82,125610,6,0,L|60:77,1,45.0000017166138,8|0,0:3|0:0,0:0:0:0:
192,15,125810,1,0,3:0:0:0:
198,123,125910,38,0,L|200:167,1,45.0000017166138,0|0,3:0|0:0,0:0:0:0:
49,203,126110,2,0,L|44:158,1,45.0000017166138,0|0,3:0|0:0,0:0:0:0:
120,252,126310,1,0,3:0:0:0:
222,169,126410,5,0,3:0:0:0:
294,283,126510,1,0,3:0:0:0:
230,338,126610,2,0,L|171:332,1,45.0000017166138,2|2,0:3|0:3,0:0:0:0:
45,284,126810,38,0,L|10:280,2,22.5000008583069,0|0|0,3:3|3:3|3:3,0:0:0:0:
142,168,127010,5,8,0:1:0:0:
227,241,127110,1,2,0:3:0:0:
388,181,127210,1,8,0:3:0:0:
411,191,127610,22,2,P|407:164|403:106,1,78.7500030040742,0|0,0:0|0:0,1:2:0:0:
512,48,128010,22,0,L|467:44,1,45.0000017166138,4|0,3:2|0:0,0:0:0:0:
381,118,128210,2,0,L|327:119,1,45.0000017166138,2|2,0:3|0:3,0:0:0:0:
200,51,128410,38,0,L|206:95,1,45.0000017166138,2|0,3:3|0:0,0:0:0:0:
156,243,128610,1,0,3:0:0:0:
266,223,128710,1,0,3:0:0:0:
390,192,128810,6,0,L|395:247,1,45.0000017166138,8|0,0:3|0:0,0:0:0:0:
238,322,129010,1,2,0:3:0:0:
253,232,129110,2,0,L|259:180,1,45.0000017166138,0|0,3:3|0:0,0:0:0:0:
114,138,129310,38,0,P|115:170|98:240,1,90.0000034332277,0|0,3:0|0:0,0:0:0:0:
264,302,129610,2,0,P|262:269|279:199,1,90.0000034332277,0|2,3:0|0:3,0:0:0:0:
376,184,129910,1,2,0:3:0:0:
494,209,130010,6,0,L|500:257,1,45.0000017166138,8|0,3:1|0:0,0:0:0:0:
356,236,130210,2,0,L|361:191,1,45.0000017166138,2|0,3:3|0:0,0:0:0:0:
406,71,130410,22,0,P|360:70|316:66,1,90,8|0,0:3|0:0,0:0:0:0:
312,80,131210,22,0,L|224:67,1,67.5000025749207,4|0,3:2|0:0,0:0:0:0:
190,15,131410,2,0,P|170:69|177:108,1,90.0000034332277,0|0,3:3|0:0,0:0:0:0:
270,226,131710,37,2,0:3:0:0:
297,108,131810,2,0,L|237:106,1,45.0000017166138,2|0,0:3|0:3,0:0:0:0:
59,138,132010,6,0,L|113:144,1,45.0000017166138,8|0,0:3|0:0,0:0:0:0:
269,209,132210,1,0,3:0:0:0:
385,150,132310,38,0,L|383:92,1,45.0000017166138,0|0,3:0|0:0,0:0:0:0:
238,93,132510,2,0,L|236:137,1,45.0000017166138,0|0,3:0|0:0,0:0:0:0:
260,298,132710,1,0,3:0:0:0:
351,290,132810,6,0,L|353:236,1,45.0000017166138,0|0,3:0|0:0,0:0:0:0:
238,158,133010,1,2,0:3:0:0:
106,154,133110,1,2,0:3:0:0:
107,269,133210,2,0,L|106:294,2,22.5000008583069,0|0|0,3:3|3:3|3:3,0:0:0:0:
173,112,133410,37,8,0:1:0:0:
31,173,133510,1,2,0:3:0:0:
172,223,133610,22,0,L|244:222,1,60,8|0,0:3|0:0,0:0:0:0:
327,183,133910,1,2,0:2:0:0:
327,183,134010,2,0,L|297:183,1,30,2|0,0:2|0:0,0:0:0:0:
181,151,134210,2,0,L|238:150,1,45,2|0,0:2|0:0,0:0:0:0:
242,140,134410,37,4,3:2:0:0:
149,246,134510,1,2,0:3:0:0:
70,205,134610,2,0,L|67:150,1,45.0000017166138,2|2,0:3|0:3,0:0:0:0:
16,46,134810,38,0,P|53:54|122:60,1,90.0000034332277,0|0,3:3|0:0,0:0:0:0:
217,164,135110,1,0,3:3:0:0:
390,121,135210,6,0,L|391:63,1,45.0000017166138,8|0,0:3|0:0,0:0:0:0:
230,0,135410,1,2,0:3:0:0:
238,88,135510,2,0,L|242:151,1,45.0000017166138,0|0,3:0|0:0,0:0:0:0:
378,213,135710,38,0,P|374:168|375:113,1,90.0000034332277,0|0,3:0|0:0,0:0:0:0:
264,320,136010,2,0,P|266:276|266:231,1,90.0000034332277,0|2,3:0|0:3,0:0:0:0:
125,324,136310,1,2,0:3:0:0:
172,241,136410,6,0,L|174:177,1,45.0000017166138,8|0,3:1|0:0,0:0:0:0:
153,80,136610,2,0,L|150:54,3,22.5000008583069,2|2|2|2,3:3|0:3|0:3|0:3,0:0:0:0:
181,34,136810,22,0,P|174:65|164:119,1,75,8|0,0:3|0:0,0:0:0:0:
274,151,137110,2,0,P|268:113|262:76,1,75,8|0,0:1|0:0,0:0:0:0:
358,140,137410,38,0,L|377:160,3,15,2|2|2|2,0:3|0:3|0:3|0:3,0:0:0:0:
447,150,137610,38,0,L|438:233,1,67.5000025749207,4|0,3:2|0:0,0:0:0:0:
454,295,137810,2,0,L|409:292,1,45.0000017166138,0|0,3:2|0:0,0:0:0:0:
208,279,138010,37,2,0:3:0:0:
312,128,138110,1,2,3:3:0:0:
354,215,138210,2,0,L|297:219,1,45.0000017166138,0|2,3:0|0:3,0:0:0:0:
129,173,138410,6,0,L|186:177,1,45.0000017166138,8|0,0:3|0:0,0:0:0:0:
305,296,138610,1,0,3:0:0:0:
220,284,138710,38,0,L|221:226,1,45.0000017166138,0|0,3:0|0:0,0:0:0:0:
167,42,138910,2,0,L|168:100,1,45.0000017166138,0|0,3:0|0:0,0:0:0:0:
47,203,139110,1,0,3:0:0:0:
20,112,139210,6,0,L|78:111,1,45.0000017166138,0|0,3:0|3:0,0:0:0:0:
193,29,139410,1,2,0:3:0:0:
244,125,139510,1,2,0:3:0:0:
191,220,139610,2,0,L|191:242,2,22.5000008583069,0|0|0,3:3|3:3|3:3,0:0:0:0:
117,171,139810,37,8,0:1:0:0:
281,231,139910,1,2,0:3:0:0:
112,290,140010,1,8,0:3:0:0:
125,298,140410,38,2,P|131:261|135:211,1,78.7500030040742,0|0,0:0|0:0,1:2:0:0:
117,205,140810,38,0,B|114:234|122:320,1,105,4|0,3:2|0:0,0:0:0:0:
135,310,141210,1,2,0:3:0:0:
218,304,141410,1,0,3:3:0:0:
477,273,141610,6,0,L|477:332,1,60,8|0,0:3|0:2,0:0:0:0:
241,358,142010,2,0,L|241:244,1,105,0|0,3:3|0:0,0:0:0:0:
230,241,142410,37,2,0:3:0:0:
229,368,142610,1,0,3:3:0:0:
486,335,142810,2,0,L|490:269,1,60,0|0,3:0|0:2,0:0:0:0:
444,92,143210,6,0,B|360:42|323:137|287:183|165:60|282:0|330:34|339:79,1,315.000012016297,8|0,0:3|0:0,0:0:0:0:
341,84,144010,22,0,P|350:148|351:204,1,120,4|0,3:2|0:0,0:0:0:0:
461,304,144310,1,2,0:3:0:0:
440,384,144410,2,0,L|361:384,1,60,2|0,0:3|0:0,0:0:0:0:
219,367,144610,37,2,0:3:0:0:
216,284,144710,1,2,0:3:0:0:
61,324,144810,2,0,L|121:324,1,60,8|0,0:3|0:0,0:0:0:0:
233,384,145010,5,0,3:0:0:0:
313,344,145110,2,0,L|312:279,1,60,2|0,2:3|0:0,0:0:0:0:
261,185,145310,2,0,L|260:120,1,60,2|0,0:0|0:0,0:0:0:0:
448,166,145510,37,0,3:0:0:0:
448,166,145610,2,0,L|362:168,1,60,2|0,3:0|0:0,0:0:0:0:
222,294,145810,1,0,3:0:0:0:
305,292,145910,1,0,3:0:0:0:
387,292,146010,6,0,L|455:292,1,60,0|0,3:0|0:0,0:0:0:0:
416,94,146210,2,0,L|416:164,1,60,8|0,0:1|0:0,0:0:0:0:
346,329,146410,6,0,L|345:279,1,37.5,8|0,0:3|0:0,0:0:0:0:
266,348,146610,1,2,0:2:0:0:
266,348,146710,2,0,L|268:258,1,75,2|0,0:2|3:3,0:0:0:0:
191,328,147010,2,0,L|193:275,1,37.5,2|0,0:2|3:3,0:0:0:0:
314,171,147210,38,0,L|174:175,1,120,4|0,3:2|0:0,0:0:0:0:
32,180,147510,2,0,L|40:246,1,60,8|0,3:1|0:0,0:0:0:0:
187,264,147710,2,0,L|194:204,1,60,2|0,3:0|0:0,0:0:0:0:
203,71,147910,37,2,3:3:0:0:
303,208,148010,2,0,L|368:209,1,60,8|0,0:3|3:0,0:0:0:0:
451,69,148210,1,0,3:3:0:0:
376,67,148310,1,0,3:3:0:0:
301,65,148410,1,0,3:3:0:0:
209,3,148510,6,0,L|222:141,1,120,0|0,3:0|0:0,0:0:0:0:
440,203,148810,2,0,L|453:65,1,120,0|2,3:0|0:3,0:0:0:0:
324,48,149110,1,2,0:3:0:0:
192,71,149210,38,0,L|198:130,1,60,8|0,3:1|0:0,0:0:0:0:
162,258,149410,2,0,L|222:252,1,60,2|0,3:3|0:0,0:0:0:0:
370,285,149610,37,8,0:3:0:0:
370,285,149710,2,0,L|362:198,1,75,2|0,0:2|0:0,0:0:0:0:
348,198,150010,1,2,0:0:0:0:
225,202,150110,2,0,L|219:299,1,93.75,2|0,0:0|0:0,0:0:0:0:
205,299,150410,22,0,P|161:275|47:302,1,150,4|0,3:2|0:0,0:0:0:0:
0,258,150710,2,0,P|-2:310|7:338,1,60,2|0,0:3|0:0,0:0:0:0:
130,373,150910,1,0,3:3:0:0:
282,327,151010,2,0,L|279:257,1,60,0|0,3:0|0:0,0:0:0:0:
140,146,151210,37,8,0:3:0:0:
108,264,151310,2,0,L|185:265,1,60
383,194,151510,6,0,L|306:195,1,60,0|0,3:3|0:0,0:0:0:0:
195,131,151710,2,0,L|118:132,1,60,2|0,2:2|0:0,0:0:0:0:
291,0,151910,38,0,P|289:61|293:128,1,120,0|0,3:0|0:0,0:0:0:0:
213,235,152210,1,0,3:3:0:0:
296,294,152310,1,0,3:3:0:0:
380,236,152410,6,0,L|378:150,1,60,0|0,3:3|0:0,0:0:0:0:
437,23,152610,2,0,L|434:83,1,60,8|0,0:1|0:0,0:0:0:0:
452,263,152810,37,8,0:3:0:0:
440,263,153210,37,2,3:2:0:0:
425,264,153410,2,2,P|400:254|372:270,1,56.25,2|0,0:0|0:0,1:2:0:0:
369,279,153610,22,0,P|317:275|219:282,1,150,4|0,3:2|0:0,0:0:0:0:
139,317,153910,2,0,L|146:238,1,60,8|0,3:1|0:0,0:0:0:0:
26,195,154110,2,0,L|100:197,1,60,2|0,3:0|0:0,0:0:0:0:
220,189,154310,1,2,3:0:0:0:
64,115,154410,37,8,3:3:0:0:
15,189,154510,1,0,3:0:0:0:
49,270,154610,2,0,L|119:270,1,60,2|0,3:3|0:0,0:0:0:0:
212,181,154810,1,2,0:3:0:0:
332,326,154910,6,0,P|331:283|316:190,1,120,0|0,3:0|0:0,0:0:0:0:
444,358,155210,2,0,P|443:315|436:217,1,120,0|2,3:0|0:3,0:0:0:0:
382,102,155510,1,2,0:3:0:0:
272,187,155610,38,0,L|332:195,1,60,8|0,3:1|0:0,0:0:0:0:
209,270,155810,2,0,L|266:288,1,60,2|0,3:3|0:0,0:0:0:0:
462,287,156010,21,8,0:3:0:0:
446,189,156110,1,2,0:0:0:0:
349,207,156210,1,2,0:0:0:0:
365,305,156310,1,2,0:0:0:0:
405,247,156410,6,0,P|406:208|400:152,1,91.8750008761883,2|0,0:0|0:0,0:0:0:0:
366,145,156810,22,0,L|394:271,1,120,4|0,3:2|0:0,0:0:0:0:
186,342,157110,1,2,0:3:0:0:
129,277,157210,2,0,L|137:193,1,60,2|0,0:3|0:0,0:0:0:0:
60,39,157410,37,2,0:3:0:0:
34,118,157510,1,2,0:3:0:0:
213,163,157610,2,0,B|213:164|215:91,1,60,8|0,0:3|0:0,0:0:0:0:
214,9,157810,5,0,3:0:0:0:
43,130,157910,2,0,L|125:128,1,60,2|0,0:3|0:0,0:0:0:0:
238,91,158110,2,0,L|320:89,1,60,2|0,0:0|0:0,0:0:0:0:
466,125,158310,37,0,3:0:0:0:
466,125,158410,2,0,L|466:65,1,60,2|0,3:3|0:0,0:0:0:0:
295,0,158610,1,0,3:0:0:0:
292,82,158710,1,0,3:0:0:0:
290,164,158810,6,0,L|288:231,1,60,0|0,3:0|0:0,0:0:0:0:
416,192,159010,2,0,L|475:193,1,60,8|0,0:1|0:0,0:0:0:0:
215,290,159210,6,0,L|151:283,1,60,8|0,0:3|0:0,0:0:0:0:
58,347,159410,1,2,0:0:0:0:
58,347,159510,1,2,0:0:0:0:
140,363,159610,5,0,3:3:0:0:
142,295,159710,1,2,3:2:0:0:
144,227,159810,1,0,3:3:0:0:
146,159,159910,1,0,3:3:0:0:
155,227,160010,22,0,P|226:230|300:247,1,120,4|0,3:2|0:0,0:0:0:0:
386,330,160310,2,0,L|445:339,1,60,8|0,3:1|0:0,0:0:0:0:
436,178,160510,2,0,L|376:187,1,60,2|0,3:3|0:0,0:0:0:0:
261,230,160710,1,2,3:3:0:0:
371,327,160810,38,0,L|372:248,1,60,8|0,0:3|3:0,0:0:0:0:
220,119,161010,1,0,3:0:0:0:
246,206,161110,1,0,3:0:0:0:
227,299,161210,1,0,3:0:0:0:
361,379,161310,6,0,L|347:242,1,120,0|0,3:0|0:0,0:0:0:0:
402,38,161610,2,0,L|389:157,1,120,0|2,3:0|0:3,0:0:0:0:
441,306,161910,1,2,0:3:0:0:
441,306,162010,38,0,L|372:307,1,60,8|0,3:1|0:0,0:0:0:0:
456,189,162210,2,0,L|396:183,1,60,2|0,3:0|0:0,0:0:0:0:
471,57,162410,21,8,0:3:0:0:
384,88,162510,1,2,0:3:0:0:
296,67,162610,1,2,0:3:0:0:
393,175,162710,6,0,P|392:227|382:278,1,101.250003862381,8|0,3:1|0:0,0:0:0:0:
373,288,163210,22,0,L|207:283,1,150,4|0,3:2|0:0,0:0:0:0:
93,328,163510,2,0,L|152:325,1,60,2|0,0:3|0:0,0:0:0:0:
298,212,163710,1,0,3:0:0:0:
445,258,163810,2,0,L|447:317,1,60,0|0,3:0|0:0,0:0:0:0:
233,343,164010,37,8,0:3:0:0:
226,257,164110,1,0,0:3:0:0:
221,171,164210,1,0,0:3:0:0:
276,60,164310,6,0,L|216:63,1,60,0|0,3:0|0:0,0:0:0:0:
97,146,164510,2,0,L|37:149,1,60,2|0,0:0|0:0,0:0:0:0:
202,275,164710,37,0,3:0:0:0:
202,275,164810,2,0,L|202:152,1,120,2|0,3:3|3:0,0:0:0:0:
328,101,165110,1,0,3:0:0:0:
356,198,165210,6,0,L|292:197,1,60,0|0,3:0|0:0,0:0:0:0:
104,161,165410,1,8,0:1:0:0:
202,142,165510,1,0,0:0:0:0:
209,287,165610,37,8,0:3:0:0:
208,299,166110,38,2,P|185:316|160:304,1,60,0|0,3:0|0:0,1:2:0:0:
160,289,166410,22,0,L|169:132,1,150,4|0,3:2|0:0,0:0:0:0:
203,50,166710,2,0,L|132:54,1,60,8|0,3:1|0:0,0:0:0:0:
83,191,166910,2,0,L|86:131,1,60,2|0,3:0|0:0,0:0:0:0:
246,146,167110,1,2,3:3:0:0:
56,264,167210,37,8,0:3:0:0:
0,199,167310,1,0,3:0:0:0:
26,121,167410,2,0,L|107:117,1,60,0|0,3:0|0:0,0:0:0:0:
241,104,167610,1,2,0:3:0:0:
173,275,167710,6,0,P|164:205|165:151,1,120,0|0,3:3|0:0,0:0:0:0:
347,139,168010,2,0,P|356:209|355:263,1,120,0|2,3:0|0:3,0:0:0:0:
261,305,168310,1,2,0:3:0:0:
108,271,168410,38,0,L|112:212,1,60,8|0,3:1|0:0,0:0:0:0:
259,238,168610,2,0,L|265:297,1,60,2|0,3:3|0:0,0:0:0:0:
406,226,168810,38,0,P|333:189|262:228,1,168.750006437302,8|0,0:3|0:0,2:0:0:0:
259,238,169610,37,4,3:2:0:0:
