osu file format v14

[General]
AudioFilename: audio.mp3
AudioLeadIn: 0
PreviewTime: 84916
Countdown: 0
SampleSet: Soft
StackLeniency: 0.2
Mode: 0
LetterboxInBreaks: 0
WidescreenStoryboard: 0

[Editor]
Bookmarks: 176795,214444
DistanceSpacing: 1.3
BeatDivisor: 8
GridSize: 32
TimelineZoom: 2.4

[Metadata]
Title:Frustrate
TitleUnicode:Frustrate
Artist:Blacklolita
ArtistUnicode:Blacklolita
Creator:Akali
Version:RIGHT HERE RIGHT NOW
Source:
Tags:yusomi bass avengers c91 megarex edm basshouse house
BeatmapID:1527475
BeatmapSetID:723497

[Difficulty]
HPDrainRate:5
CircleSize:4.4
OverallDifficulty:10
ApproachRate:10
SliderMultiplier:2.4
SliderTickRate:1

[Events]
//Background and Video events
0,0,"1509319797191.jpg",0,0
//Break Periods
//Storyboard Layer 0 (Background)
//Storyboard Layer 1 (Fail)
//Storyboard Layer 2 (Pass)
//Storyboard Layer 3 (Foreground)
//Storyboard Layer 4 (Overlay)
//Storyboard Sound Samples

[TimingPoints]
1111,476.190476190476,4,2,1,85,1,0
30634,-66.6666666666667,4,2,1,85,0,0
31587,-100,4,2,1,85,0,0
44920,-50,4,2,1,85,0,0
46825,-33.3333333333333,4,2,1,85,0,0
47003,-33.3333333333333,4,2,1,5,0,0
47063,-100,4,2,1,85,0,0
47539,-50,4,2,1,85,0,0
48730,-33.3333333333333,4,2,1,85,0,0
48908,-33.3333333333333,4,2,1,5,0,0
48968,-100,4,2,1,85,0,0
49444,-50,4,2,1,85,0,0
50158,-50,4,2,1,85,0,0
50337,-50,4,2,1,5,0,0
50396,-50,4,2,1,85,0,0
50575,-50,4,2,1,5,0,0
50634,-33.3333333333333,4,2,1,85,0,0
50812,-33.3333333333333,4,2,1,5,0,0
50872,-100,4,2,1,85,0,0
51349,-50,4,2,1,85,0,0
52539,-50,4,2,1,85,0,0
52718,-50,4,2,1,5,0,0
52777,-50,4,2,1,85,0,0
52956,-50,4,2,1,5,0,0
53015,-40,4,2,1,85,0,0
53670,-40,4,2,1,5,0,0
53730,-40,4,2,1,85,0,0
53968,-400,4,2,1,85,0,0
54384,-400,4,2,1,5,0,0
54444,-33.3333333333333,4,2,1,85,0,0
54622,-33.3333333333333,4,2,1,5,0,0
54682,-100,4,2,1,85,0,0
55158,-50,4,2,1,85,0,0
56349,-33.3333333333333,4,2,1,85,0,0
56527,-33.3333333333333,4,2,1,5,0,0
56587,-100,4,2,1,85,0,0
57063,-50,4,2,1,85,0,0
57777,-50,4,2,1,85,0,0
57956,-50,4,2,1,5,0,0
58015,-50,4,2,1,85,0,0
58194,-50,4,2,1,5,0,0
58253,-33.3333333333333,4,2,1,85,0,0
58431,-33.3333333333333,4,2,1,5,0,0
58491,-100,4,2,1,85,0,0
58968,-50,4,2,1,85,0,0
62063,-40,4,2,1,85,0,0
62241,-40,4,2,1,5,0,0
62301,-66.6666666666667,4,2,1,85,0,0
62539,-66.6666666666667,4,2,1,85,0,0
63968,-33.3333333333333,4,2,1,85,0,0
64146,-33.3333333333333,4,2,1,5,0,0
64206,-66.6666666666667,4,2,1,85,0,0
65396,-40,4,2,1,85,0,0
65574,-33.3333333333333,4,2,1,5,0,0
65634,-40,4,2,1,85,0,0
65812,-33.3333333333333,4,2,1,5,0,0
65872,-33.3333333333333,4,2,1,85,0,0
66051,-33.3333333333333,4,2,1,5,0,0
66110,-33.3333333333333,4,2,1,85,0,0
66230,-50,4,2,1,85,0,0
66825,-33.3333333333333,4,2,1,85,0,0
67004,-33.3333333333333,4,2,1,5,0,0
67063,-33.3333333333333,4,2,1,85,0,0
67420,-40,4,2,1,85,0,0
67777,-40,4,2,1,85,0,0
67956,-40,4,2,1,5,0,0
68015,-40,4,2,1,85,0,0
68194,-40,4,2,1,5,0,0
68253,-40,4,2,1,85,0,0
68908,-40,4,2,1,5,0,0
68967,-40,4,2,1,85,0,0
69146,-40,4,2,1,5,0,0
69205,-40,4,2,1,85,0,0
69682,-33.3333333333333,4,2,1,85,0,0
69860,-33.3333333333333,4,2,1,5,0,0
69920,-66.6666666666667,4,2,1,85,0,0
70158,-66.6666666666667,4,2,1,85,0,0
71587,-33.3333333333333,4,2,1,85,0,0
71825,-66.6666666666667,4,2,1,85,0,0
72063,-100,4,2,1,85,0,0
73015,-40,4,2,1,85,0,0
73194,-40,4,2,1,5,0,0
73253,-40,4,2,1,85,0,0
73491,-33.3333333333333,4,2,1,85,0,0
73669,-33.3333333333333,4,2,1,5,0,0
73730,-33.3333333333333,4,2,1,85,0,0
73968,-33.3333333333333,4,2,1,85,0,0
74206,-100,4,2,1,85,0,0
74444,-33.3333333333333,4,2,1,85,0,0
74622,-33.3333333333333,4,2,1,5,0,0
74682,-33.3333333333333,4,2,1,85,0,0
74920,-66.6666666666667,4,2,1,85,0,0
84920,-33.3333333333333,4,2,1,85,0,0
85099,-33.3333333333333,4,2,1,5,0,0
85158,-66.6666666666667,4,2,1,85,0,0
85753,-40,4,2,1,85,0,0
86825,-33.3333333333333,4,2,1,85,0,0
87003,-33.3333333333333,4,2,1,5,0,0
87063,-66.6666666666667,4,2,1,85,0,0
87658,-36.3636363636364,4,2,1,85,0,0
88253,-33.3333333333333,4,2,1,85,0,0
88432,-33.3333333333333,4,2,1,5,0,0
88491,-33.3333333333333,4,2,1,85,0,0
88670,-33.3333333333333,4,2,1,5,0,0
88730,-33.3333333333333,4,2,1,85,0,0
88908,-33.3333333333333,4,2,1,5,0,0
88968,-66.6666666666667,4,2,1,85,0,0
89444,-100,4,2,1,85,0,0
89622,-100,4,2,1,5,0,0
89682,-100,4,2,1,85,0,0
89860,-100,4,2,1,5,0,0
89920,-100,4,2,1,85,0,0
90277,-66.6666666666667,4,2,1,85,0,0
90813,-66.6666666666667,4,2,1,5,0,0
90872,-66.6666666666667,4,2,1,85,0,0
91051,-66.6666666666667,4,2,1,5,0,0
91110,-66.6666666666667,4,2,1,85,0,0
91468,-50,4,2,1,85,0,0
91587,-33.3333333333333,4,2,1,85,0,0
91765,-33.3333333333333,4,2,1,5,0,0
91825,-40,4,2,1,85,0,0
92003,-40,4,2,1,5,0,0
92063,-40,4,2,1,85,0,0
92539,-33.3333333333333,4,2,1,85,0,0
92718,-33.3333333333333,4,2,1,5,0,0
92777,-66.6666666666667,4,2,1,85,0,0
93372,-40,4,2,1,85,0,0
94444,-33.3333333333333,4,2,1,85,0,0
94623,-33.3333333333333,4,2,1,5,0,0
94682,-66.6666666666667,4,2,1,85,0,0
95277,-36.3636363636364,4,2,1,85,0,0
95872,-33.3333333333333,4,2,1,85,0,0
96051,-33.3333333333333,4,2,1,5,0,0
96110,-33.3333333333333,4,2,1,85,0,0
96289,-33.3333333333333,4,2,1,5,0,0
96349,-33.3333333333333,4,2,1,85,0,0
96527,-33.3333333333333,4,2,1,5,0,0
96587,-66.6666666666667,4,2,1,85,0,0
97063,-100,4,2,1,85,0,0
97241,-100,4,2,1,5,0,0
97301,-100,4,2,1,85,0,0
97479,-100,4,2,1,5,0,0
97539,-100,4,2,1,85,0,0
98253,-50,4,2,1,85,0,0
100158,-33.3333333333333,4,2,1,85,0,0
100337,-33.3333333333333,4,2,1,5,0,0
100396,-66.6666666666667,4,2,1,85,0,0
101825,-57.1428571428571,4,2,1,85,0,0
101944,-50,4,2,1,85,0,0
102063,-33.3333333333333,4,2,1,85,0,0
102242,-33.3333333333333,4,2,1,5,0,0
102301,-66.6666666666667,4,2,1,85,0,0
103670,-66.6666666666667,4,2,1,5,0,0
103730,-66.6666666666667,4,2,1,85,0,0
103908,-66.6666666666667,4,2,1,5,0,0
103968,-33.3333333333333,4,2,1,85,0,0
104147,-33.3333333333333,4,2,1,5,0,0
104206,-66.6666666666667,4,2,1,85,0,0
104920,-33.3333333333333,4,2,1,85,0,0
105099,-33.3333333333333,4,2,1,5,0,0
105158,-66.6666666666667,4,2,1,85,0,0
105634,-57.1428571428571,4,2,1,85,0,0
105753,-50,4,2,1,85,0,0
105872,-40,4,2,1,85,0,0
106051,-40,4,2,1,5,0,0
106110,-40,4,2,1,85,0,0
106289,-40,4,2,1,5,0,0
106348,-40,4,2,1,85,0,0
106825,-100,4,2,1,85,0,0
107003,-40,4,2,1,5,0,0
107062,-66.6666666666667,4,2,1,85,0,0
107241,-40,4,2,1,5,0,0
107300,-40,4,2,1,85,0,0
107777,-33.3333333333333,4,2,1,85,0,0
107956,-33.3333333333333,4,2,1,5,0,0
108015,-66.6666666666667,4,2,1,85,0,0
109325,-100,4,2,1,85,0,0
109682,-33.3333333333333,4,2,1,85,0,0
109861,-33.3333333333333,4,2,1,5,0,0
109920,-66.6666666666667,4,2,1,85,0,0
110277,-66.6666666666667,4,2,1,85,0,0
110991,-100,4,2,1,85,0,0
111289,-100,4,2,1,5,0,0
111349,-100,4,2,1,85,0,0
111527,-100,4,2,1,5,0,0
111587,-33.3333333333333,4,2,1,85,0,0
111766,-33.3333333333333,4,2,1,5,0,0
111825,-50,4,2,1,85,0,0
112301,-66.6666666666667,4,2,1,85,0,0
112539,-33.3333333333333,4,2,1,85,0,0
112718,-33.3333333333333,4,2,1,5,0,0
112777,-50,4,2,1,85,0,0
122539,-66.6666666666667,4,2,1,85,0,0
122777,-50,4,2,1,85,0,0
130634,-33.3333333333333,4,2,1,85,0,0
130813,-33.3333333333333,4,2,1,5,0,0
130872,-66.6666666666667,4,2,1,85,0,0
131110,-33.3333333333333,4,2,1,85,0,0
131289,-33.3333333333333,4,2,1,5,0,0
131348,-66.6666666666667,4,2,1,85,0,0
131587,-40,4,2,1,85,0,0
131766,-33.3333333333333,4,2,1,5,0,0
131825,-66.6666666666667,4,2,1,85,0,0
132063,-40,4,2,1,85,0,0
132242,-33.3333333333333,4,2,1,5,0,0
132301,-66.6666666666667,4,2,1,85,0,0
132539,-40,4,2,1,85,0,0
132718,-33.3333333333333,4,2,1,5,0,0
132777,-66.6666666666667,4,2,1,85,0,0
133432,-66.6666666666667,4,2,1,5,0,0
133491,-66.6666666666667,4,2,1,85,0,0
133670,-66.6666666666667,4,2,1,5,0,0
133730,-66.6666666666667,4,2,1,85,0,0
133908,-66.6666666666667,4,2,1,8,0,0
133968,-100,4,2,1,85,0,0
134146,-100,4,2,1,5,0,0
134206,-100,4,2,1,85,0,0
134444,-33.3333333333333,4,2,1,85,0,0
134623,-33.3333333333333,4,2,1,5,0,0
134682,-66.6666666666667,4,2,1,85,0,0
134920,-33.3333333333333,4,2,1,85,0,0
135099,-33.3333333333333,4,2,1,5,0,0
135158,-66.6666666666667,4,2,1,85,0,0
135396,-33.3333333333333,4,2,1,85,0,0
135575,-33.3333333333333,4,2,1,5,0,0
135634,-66.6666666666667,4,2,1,85,0,0
136289,-66.6666666666667,4,2,1,5,0,0
136349,-50,4,2,1,85,0,0
136527,-50,4,2,1,5,0,0
136587,-33.3333333333333,4,2,1,85,0,0
136766,-33.3333333333333,4,2,1,5,0,0
136825,-50,4,2,1,85,0,0
137301,-33.3333333333333,4,2,1,85,0,0
137777,-400,4,2,1,85,0,0
138193,-400,4,2,1,5,0,0
138253,-33.3333333333333,4,2,1,85,0,0
138431,-33.3333333333333,4,2,1,5,0,0
138491,-66.6666666666667,4,2,1,85,0,0
138730,-33.3333333333333,4,2,1,85,0,0
138908,-33.3333333333333,4,2,1,5,0,0
138968,-66.6666666666667,4,2,1,85,0,0
139206,-50,4,2,1,85,0,0
139384,-33.3333333333333,4,2,1,5,0,0
139444,-100,4,2,1,85,0,0
140099,-100,4,2,1,5,0,0
140158,-50,4,2,1,85,0,0
140337,-50,4,2,1,5,0,0
140396,-50,4,2,1,85,0,0
140634,-33.3333333333333,4,2,1,85,0,0
140813,-33.3333333333333,4,2,1,5,0,0
140872,-40,4,2,1,85,0,0
141349,-50,4,2,1,85,0,0
141527,-50,4,2,1,5,0,0
141587,-66.6666666666667,4,2,1,85,0,0
141765,-66.6666666666667,4,2,1,5,0,0
141825,-66.6666666666667,4,2,1,85,0,0
142003,-66.6666666666667,4,2,1,5,0,0
142063,-33.3333333333333,4,2,1,85,0,0
142242,-33.3333333333333,4,2,1,5,0,0
142301,-66.6666666666667,4,2,1,5,0,0
142539,-40,4,2,1,85,0,0
142718,-33.3333333333333,4,2,1,5,0,0
142777,-80,4,2,1,5,0,0
143015,-50,4,2,1,85,0,0
143194,-33.3333333333333,4,2,1,5,0,0
143253,-100,4,2,1,5,0,0
143491,-66.6666666666667,4,2,1,85,0,0
143670,-33.3333333333333,4,2,1,5,0,0
143730,-133.333333333333,4,2,1,5,0,0
143968,-33.3333333333333,4,2,1,85,0,0
144147,-33.3333333333333,4,2,1,5,0,0
144206,-33.3333333333333,4,2,1,85,0,0
144385,-33.3333333333333,4,2,1,5,0,0
144444,-50,4,2,1,85,0,0
144622,-50,4,2,1,5,0,0
144682,-50,4,2,1,85,0,0
144860,-50,4,2,1,5,0,0
144920,-50,4,2,1,85,0,0
146349,-33.3333333333333,4,2,1,85,0,0
146528,-33.3333333333333,4,2,1,5,0,0
146587,-66.6666666666667,4,2,1,85,0,0
146825,-40,4,2,1,85,0,0
147004,-33.3333333333333,4,2,1,5,0,0
147063,-66.6666666666667,4,2,1,85,0,0
147301,-50,4,2,1,85,0,0
147480,-33.3333333333333,4,2,1,5,0,0
147539,-66.6666666666667,4,2,1,85,0,0
147777,-40,4,2,1,85,0,0
147956,-40,4,2,1,5,0,0
148015,-66.6666666666667,4,2,1,85,0,0
148670,-66.6666666666667,4,2,1,5,0,0
148729,-66.6666666666667,4,2,1,85,0,0
148908,-66.6666666666667,4,2,1,5,0,0
148968,-66.6666666666667,4,2,1,85,0,0
149622,-66.6666666666667,4,2,1,5,0,0
149682,-33.3333333333333,4,2,1,85,0,0
149860,-33.3333333333333,4,2,1,5,0,0
149920,-66.6666666666667,4,2,1,85,0,0
150158,-40,4,2,1,85,0,0
150336,-33.3333333333333,4,2,1,5,0,0
150396,-66.6666666666667,4,2,1,85,0,0
150634,-33.3333333333333,4,2,1,85,0,0
150812,-33.3333333333333,4,2,1,5,0,0
150872,-33.3333333333333,4,2,1,85,0,0
151050,-33.3333333333333,4,2,1,5,0,0
151110,-66.6666666666667,4,2,1,85,0,0
151527,-66.6666666666667,4,2,1,5,0,0
151587,-66.6666666666667,4,2,1,85,0,0
151765,-66.6666666666667,4,2,1,5,0,0
151825,-66.6666666666667,4,2,1,85,0,0
152003,-66.6666666666667,4,2,1,5,0,0
152063,-40,4,2,1,85,0,0
152301,-66.6666666666667,4,2,1,85,0,0
152539,-50,4,2,1,85,0,0
152718,-50,4,2,1,5,0,0
152777,-50,4,2,1,85,0,0
152956,-50,4,2,1,5,0,0
153015,-50,4,2,1,85,0,0
153491,-33.3333333333333,4,2,1,85,0,0
153669,-33.3333333333333,4,2,1,5,0,0
153730,-66.6666666666667,4,2,1,85,0,0
153968,-40,4,2,1,85,0,0
154146,-33.3333333333333,4,2,1,5,0,0
154206,-66.6666666666667,4,2,1,85,0,0
154444,-50,4,2,1,85,0,0
154622,-33.3333333333333,4,2,1,5,0,0
154682,-100,4,2,1,85,0,0
154920,-50,4,2,1,85,0,0
155098,-33.3333333333333,4,2,1,5,0,0
155158,-100,4,2,1,85,0,0
155396,-33.3333333333333,4,2,1,85,0,0
155574,-33.3333333333333,4,2,1,5,0,0
155634,-66.6666666666667,4,2,1,85,0,0
155872,-33.3333333333333,4,2,1,85,0,0
156050,-33.3333333333333,4,2,1,5,0,0
156110,-66.6666666666667,4,2,1,85,0,0
156587,-33.3333333333333,4,2,1,85,0,0
156765,-33.3333333333333,4,2,1,5,0,0
156825,-66.6666666666667,4,2,1,85,0,0
157241,-66.6666666666667,4,2,1,5,0,0
157301,-33.3333333333333,4,2,1,85,0,0
157480,-33.3333333333333,4,2,1,5,0,0
157539,-66.6666666666667,4,2,1,85,0,0
157777,-40,4,2,1,85,0,0
157956,-33.3333333333333,4,2,1,5,0,0
158015,-66.6666666666667,4,2,1,85,0,0
158253,-50,4,2,1,85,0,0
158432,-33.3333333333333,4,2,1,5,0,0
158491,-66.6666666666667,4,2,1,85,0,0
158730,-50,4,2,1,85,0,0
158909,-33.3333333333333,4,2,1,5,0,0
158968,-66.6666666666667,4,2,1,85,0,0
159206,-50,4,2,1,85,0,0
159384,-50,4,2,1,5,0,0
159444,-50,4,2,1,85,0,0
168730,-100,4,2,1,85,0,0
174444,-50,4,2,1,85,0,0
176825,-200,4,2,1,85,0,0
178968,-50,4,2,1,85,0,0
180158,-28.5714285714286,4,2,1,85,0,0
180337,-1000,4,2,1,0,0,0
180396,-50,4,2,1,85,0,0
180932,-1000,4,2,1,0,0,0
180991,-50,4,2,1,85,0,0
181051,-1000,4,2,1,0,0,0
181110,-50,4,2,1,85,0,0
182241,-1000,4,2,1,0,0,0
182301,-50,4,2,1,85,0,0
182539,-100,4,2,1,85,0,0
182718,-1000,4,2,1,0,0,0
182777,-100,4,2,1,85,0,0
182837,-1000,4,2,1,0,0,0
182896,-100,4,2,1,85,0,0
182956,-1000,4,2,1,0,0,0
183015,-40,4,2,1,85,0,0
183194,-1000,4,2,1,0,0,0
183253,-40,4,2,1,85,0,0
183491,-333.333333333333,4,2,1,85,0,0
183968,-28.5714285714286,4,2,1,85,0,0
184146,-1000,4,2,1,0,0,0
184206,-50,4,2,1,85,0,0
184741,-1000,4,2,1,0,0,0
184801,-50,4,2,1,85,0,0
184860,-1000,4,2,1,0,0,0
184920,-50,4,2,1,85,0,0
185872,-33.3333333333333,4,2,1,85,0,0
186051,-1000,4,2,1,0,0,0
186110,-50,4,2,1,85,0,0
186646,-1000,4,2,1,0,0,0
186706,-50,4,2,1,85,0,0
186765,-1000,4,2,1,0,0,0
186825,-50,4,2,1,85,0,0
187301,-40,4,2,1,85,0,0
187480,-1000,4,2,1,0,0,0
187539,-66.6666666666667,4,2,1,85,0,0
187718,-1000,4,2,1,0,0,0
187777,-33.3333333333333,4,2,1,85,0,0
187956,-1000,4,2,1,0,0,0
188015,-50,4,2,1,85,0,0
188551,-1000,4,2,1,0,0,0
188610,-50,4,2,1,85,0,0
188670,-1000,4,2,1,0,0,0
188730,-50,4,2,1,85,0,0
190158,-36.3636363636364,4,2,1,85,0,0
190515,-50,4,2,1,85,0,0
190575,-1000,4,2,1,0,0,0
190634,-50,4,2,1,85,0,0
191587,-33.3333333333333,4,2,1,85,0,0
191765,-1000,4,2,1,0,0,0
191825,-50,4,2,1,85,0,0
192182,-100,4,2,1,85,0,0
192241,-1000,4,2,1,0,0,0
192301,-100,4,2,1,85,0,0
192360,-1000,4,2,1,0,0,0
192420,-100,4,2,1,85,0,0
192480,-1000,4,2,1,0,0,0
192539,-100,4,2,1,85,0,0
192777,-100,4,2,1,85,0,0
192837,-1000,4,2,1,0,0,0
192896,-100,4,2,1,85,0,0
192956,-1000,4,2,1,0,0,0
193015,-100,4,2,1,85,0,0
193194,-1000,4,2,1,0,0,0
193253,-100,4,2,1,85,0,0
193313,-1000,4,2,1,0,0,0
193372,-100,4,2,1,85,0,0
193432,-1000,4,2,1,0,0,0
193491,-33.3333333333333,4,2,1,85,0,0
193670,-1000,4,2,1,0,0,0
193730,-50,4,2,1,85,0,0
193968,-100,4,2,1,85,0,0
194146,-1000,4,2,1,0,0,0
194206,-100,4,2,1,85,0,0
194265,-1000,4,2,1,0,0,0
194325,-100,4,2,1,85,0,0
194384,-1000,4,2,1,0,0,0
194444,-100,4,2,1,85,0,0
194682,-100,4,2,1,85,0,0
194741,-1000,4,2,1,0,0,0
194801,-100,4,2,1,85,0,0
194860,-1000,4,2,1,0,0,0
194920,-40,4,2,1,85,0,0
195099,-1000,4,2,1,0,0,0
195158,-40,4,2,1,85,0,0
195575,-1000,4,2,1,0,0,0
195634,-100,4,2,1,85,0,0
195694,-1000,4,2,1,0,0,0
195753,-100,4,2,1,85,0,0
195813,-1000,4,2,1,0,0,0
195872,-100,4,2,1,85,0,0
196051,-1000,4,2,1,0,0,0
196110,-100,4,2,1,85,0,0
196170,-1000,4,2,1,0,0,0
196230,-100,4,2,1,85,0,0
196289,-1000,4,2,1,0,0,0
196349,-40,4,2,1,85,0,0
196527,-1000,4,2,1,0,0,0
196587,-100,4,2,1,85,0,0
196646,-1000,4,2,1,0,0,0
196706,-100,4,2,1,85,0,0
196765,-1000,4,2,1,0,0,0
196825,-100,4,2,1,85,0,0
197003,-1000,4,2,1,0,0,0
197063,-100,4,2,1,85,0,0
197122,-1000,4,2,1,0,0,0
197182,-100,4,2,1,85,0,0
197241,-1000,4,2,1,0,0,0
197301,-66.6666666666667,4,2,1,85,0,0
197896,-100,4,2,1,85,0,0
197956,-1000,4,2,1,0,0,0
198015,-100,4,2,1,85,0,0
198075,-1000,4,2,1,0,0,0
198134,-100,4,2,1,85,0,0
198194,-1000,4,2,1,0,0,0
198253,-50,4,2,1,85,0,0
198432,-1000,4,2,1,0,0,0
198491,-66.6666666666667,4,2,1,85,0,0
198730,-40,4,2,1,85,0,0
198789,-1000,4,2,1,0,0,0
198849,-40,4,2,1,85,0,0
198908,-1000,4,2,1,0,0,0
198968,-40,4,2,1,85,0,0
199027,-1000,4,2,1,0,0,0
199087,-40,4,2,1,85,0,0
199146,-1000,4,2,1,0,0,0
199206,-28.5714285714286,4,2,1,85,0,0
199384,-1000,4,2,1,0,0,0
199444,-50,4,2,1,85,0,0
199801,-100,4,2,1,85,0,0
199860,-1000,4,2,1,0,0,0
199920,-100,4,2,1,85,0,0
199980,-1000,4,2,1,0,0,0
200039,-100,4,2,1,85,0,0
200099,-1000,4,2,1,0,0,0
200158,-100,4,2,1,85,0,0
200396,-100,4,2,1,85,0,0
200456,-1000,4,2,1,0,0,0
200515,-100,4,2,1,85,0,0
200575,-1000,4,2,1,0,0,0
200634,-100,4,2,1,85,0,0
200813,-1000,4,2,1,0,0,0
200872,-100,4,2,1,85,0,0
200932,-1000,4,2,1,0,0,0
200991,-100,4,2,1,85,0,0
201051,-1000,4,2,1,0,0,0
201110,-33.3333333333333,4,2,1,85,0,0
201289,-1000,4,2,1,0,0,0
201349,-50,4,2,1,85,0,0
201587,-100,4,2,1,85,0,0
201825,-100,4,2,1,85,0,0
201884,-1000,4,2,1,0,0,0
201944,-100,4,2,1,85,0,0
202003,-1000,4,2,1,0,0,0
202063,-100,4,2,1,85,0,0
202301,-100,4,2,1,85,0,0
202360,-1000,4,2,1,0,0,0
202420,-100,4,2,1,85,0,0
202480,-1000,4,2,1,0,0,0
202539,-40,4,2,1,85,0,0
202718,-1000,4,2,1,0,0,0
202777,-40,4,2,1,85,0,0
203015,-30.03003003003,4,2,1,85,0,0
203194,-1000,4,2,1,0,0,0
203253,-30.03003003003,4,2,1,85,0,0
203432,-1000,4,2,1,0,0,0
203491,-30.03003003003,4,2,1,85,0,0
203730,-100,4,2,1,85,0,0
203789,-1000,4,2,1,0,0,0
203849,-100,4,2,1,85,0,0
203908,-1000,4,2,1,0,0,0
203968,-30.03003003003,4,2,1,85,0,0
204146,-1000,4,2,1,0,0,0
204206,-30.03003003003,4,2,1,85,0,0
204384,-1000,4,2,1,0,0,0
204444,-30.03003003003,4,2,1,85,0,0
204563,-100,4,2,1,85,0,0
204622,-1000,4,2,1,0,0,0
204682,-100,4,2,1,85,0,0
204741,-1000,4,2,1,0,0,0
204801,-100,4,2,1,85,0,0
204860,-1000,4,2,1,0,0,0
204920,-100,4,2,1,85,0,0
206825,-76.9230769230769,4,2,1,85,0,0
208253,-57.6923076924186,4,2,1,85,0,0
208432,-1000,4,2,1,0,0,0
208491,-57.6923076924186,4,2,1,85,0,0
208670,-1000,4,2,1,0,0,0
208730,-51.2820512820513,4,2,1,85,0,0
209087,-76.9230769230769,4,2,1,85,0,0
210158,-57.6923076934172,4,2,1,85,0,0
210337,-1000,4,2,1,0,0,0
210396,-57.6923076934172,4,2,1,85,0,0
210575,-1000,4,2,1,0,0,0
210634,-50,4,2,1,85,0,0
214444,-33.3333333333333,4,2,1,85,0,0
214622,-1000,4,2,1,0,0,0
214682,-33.3333333333333,4,2,1,85,0,0
216527,-1000,4,2,1,0,0,0
216587,-50,4,2,1,85,0,0
217777,-100,4,2,1,85,0,0
217956,-1000,4,2,1,0,0,0
218015,-40,4,2,1,85,0,0
218194,-1000,4,2,1,0,0,0
218253,-33.3333333333333,4,2,1,85,0,0
218432,-1000,4,2,1,0,0,0
218491,-50,4,2,1,85,0,0
219146,-1000,4,2,1,0,0,0
219206,-50,4,2,1,85,0,0
219444,-66.6666666666667,4,2,1,85,0,0
219741,-1000,4,2,1,0,0,0
219801,-66.6666666666667,4,2,1,85,0,0
219860,-1000,4,2,1,0,0,0
219920,-66.6666666666667,4,2,1,85,0,0
219980,-1000,4,2,1,0,0,0
220039,-66.6666666666667,4,2,1,85,0,0
220099,-1000,4,2,1,0,0,0
220158,-50,4,2,1,85,0,0
221289,-1000,4,2,1,0,0,0
221349,-50,4,2,1,85,0,0
222063,-33.3333333333333,4,2,1,85,0,0
222241,-1000,4,2,1,0,0,0
222301,-50,4,2,1,85,0,0
223968,-33.3333333333333,4,2,1,85,0,0
224146,-1000,4,2,1,0,0,0
224206,-50,4,2,1,85,0,0
225396,-33.3333333333333,4,2,1,85,0,0
225575,-1000,4,2,1,0,0,0
225634,-50,4,2,1,85,0,0
225872,-33.3333333333333,4,2,1,85,0,0
226051,-1000,4,2,1,0,0,0
226110,-50,4,2,1,85,0,0
226765,-1000,4,2,1,0,0,0
226825,-50,4,2,1,85,0,0
227003,-1000,4,2,1,0,0,0
227063,-100,4,2,1,85,0,0
227777,-31.25,4,2,1,85,0,0
227956,-1000,4,2,1,0,0,0
228015,-31.25,4,2,1,85,0,0
228253,-500,4,2,1,85,0,0
228968,-100,4,2,1,85,0,0
229682,-33.3333333333333,4,2,1,85,0,0
229860,-1000,4,2,1,0,0,0
229920,-50,4,2,1,85,0,0
230158,-100,4,2,1,85,0,0
230337,-1000,4,2,1,0,0,0
230396,-100,4,2,1,85,0,0
230456,-1000,4,2,1,0,0,0
230515,-100,4,2,1,85,0,0
230575,-1000,4,2,1,0,0,0
230634,-100,4,2,1,85,0,0
230991,-100,4,2,1,85,0,0
231051,-1000,4,2,1,0,0,0
231110,-100,4,2,1,85,0,0
231289,-1000,4,2,1,0,0,0
231349,-100,4,2,1,85,0,0
231408,-1000,4,2,1,0,0,0
231468,-100,4,2,1,85,0,0
231527,-1000,4,2,1,0,0,0
231587,-33.3333333333333,4,2,1,85,0,0
231765,-1000,4,2,1,0,0,0
231825,-50,4,2,1,85,0,0
232063,-100,4,2,1,85,0,0
232241,-1000,4,2,1,0,0,0
232301,-100,4,2,1,85,0,0
232360,-1000,4,2,1,0,0,0
232420,-100,4,2,1,85,0,0
232480,-1000,4,2,1,0,0,0
232539,-100,4,2,1,85,0,0
232837,-1000,4,2,1,0,0,0
232896,-100,4,2,1,85,0,0
232956,-1000,4,2,1,0,0,0
233015,-40,4,2,1,85,0,0
233194,-1000,4,2,1,0,0,0
233253,-40,4,2,1,85,0,0
233670,-1000,4,2,1,0,0,0
233730,-100,4,2,1,85,0,0
233849,-100,4,2,1,85,0,0
233908,-1000,4,2,1,0,0,0
233968,-100,4,2,1,85,0,0
234206,-100,4,2,1,85,0,0
234265,-1000,4,2,1,0,0,0
234325,-100,4,2,1,85,0,0
234384,-1000,4,2,1,0,0,0
234444,-40,4,2,1,85,0,0
234682,-100,4,2,1,85,0,0
234741,-1000,4,2,1,0,0,0
234801,-100,4,2,1,85,0,0
234860,-1000,4,2,1,0,0,0
234920,-100,4,2,1,85,0,0
235099,-1000,4,2,1,0,0,0
235158,-100,4,2,1,85,0,0
235218,-1000,4,2,1,0,0,0
235277,-100,4,2,1,85,0,0
235337,-1000,4,2,1,0,0,0
235396,-66.6666666666667,4,2,1,85,0,0
235991,-100,4,2,1,85,0,0
236051,-1000,4,2,1,0,0,0
236110,-100,4,2,1,85,0,0
236170,-1000,4,2,1,0,0,0
236230,-100,4,2,1,85,0,0
236289,-1000,4,2,1,0,0,0
236349,-50,4,2,1,85,0,0
236527,-1000,4,2,1,0,0,0
236587,-50,4,2,1,85,0,0
236825,-40,4,2,1,85,0,0
236884,-1000,4,2,1,0,0,0
236944,-40,4,2,1,85,0,0
237003,-1000,4,2,1,0,0,0
237063,-40,4,2,1,85,0,0
237122,-1000,4,2,1,0,0,0
237182,-40,4,2,1,85,0,0
237241,-1000,4,2,1,0,0,0
237301,-33.3333333333333,4,2,1,85,0,0
237480,-1000,4,2,1,0,0,0
237539,-50,4,2,1,85,0,0
237777,-100,4,2,1,85,0,0
237956,-1000,4,2,1,0,0,0
238015,-100,4,2,1,85,0,0
238075,-1000,4,2,1,0,0,0
238134,-100,4,2,1,85,0,0
238194,-1000,4,2,1,0,0,0
238253,-100,4,2,1,85,0,0
238551,-1000,4,2,1,0,0,0
238610,-100,4,2,1,85,0,0
238670,-1000,4,2,1,0,0,0
238730,-100,4,2,1,85,0,0
238908,-1000,4,2,1,0,0,0
238968,-100,4,2,1,85,0,0
239027,-1000,4,2,1,0,0,0
239087,-100,4,2,1,85,0,0
239146,-1000,4,2,1,0,0,0
239206,-40,4,2,1,85,0,0
239384,-1000,4,2,1,0,0,0
239444,-50,4,2,1,85,0,0
239682,-100,4,2,1,85,0,0
239860,-1000,4,2,1,0,0,0
239920,-100,4,2,1,85,0,0
239980,-1000,4,2,1,0,0,0
240039,-100,4,2,1,85,0,0
240099,-1000,4,2,1,0,0,0
240158,-100,4,2,1,85,0,0
240456,-1000,4,2,1,0,0,0
240515,-100,4,2,1,85,0,0
240575,-1000,4,2,1,0,0,0
240634,-40,4,2,1,85,0,0
240813,-1000,4,2,1,0,0,0
240872,-40,4,2,1,85,0,0
241110,-29.4117647058824,4,2,1,85,0,0
241289,-1000,4,2,1,0,0,0
241349,-29.4117647058824,4,2,1,85,0,0
241527,-1000,4,2,1,0,0,0
241587,-30.03003003003,4,2,1,85,0,0
241825,-100,4,2,1,85,0,0
241884,-1000,4,2,1,0,0,0
241944,-100,4,2,1,85,0,0
242003,-1000,4,2,1,0,0,0
242063,-29.4117647058824,4,2,1,85,0,0
242241,-1000,4,2,1,0,0,0
242301,-29.4117647058824,4,2,1,85,0,0
242480,-1000,4,2,1,0,0,0
242539,-100,4,2,1,85,0,0
242718,-1000,4,2,1,0,0,0
242777,-100,4,2,1,85,0,0
242837,-1000,4,2,1,0,0,0
242896,-100,4,2,1,85,0,0
242956,-1000,4,2,1,0,0,0
243015,-100,4,2,1,85,0,0

[Colours]
Combo1 : 188,163,146
Combo2 : 101,80,126
Combo3 : 213,108,145
Combo4 : 223,222,215

[HitObjects]
494,289,1111,6,0,L|256:320,1,240,2|10,0:0|0:0,0:0:0:0:
256,320,2063,2,0,L|240:200,1,120,2|10,0:0|0:0,0:0:0:0:
103,157,2420,1,0,0:0:0:0:
23,205,2539,2,0,P|59:240|133:248,1,120
229,121,3015,5,2,0:0:0:0:
153,58,3253,2,0,L|143:126,1,60
134,190,3491,2,0,L|124:258,2,60,10|0|0,0:0|0:0|0:0,0:0:0:0:
288,129,3849,2,0,L|220:119,2,60,0|2|0,0:0|0:0|0:0,0:0:0:0:
369,61,4206,1,0,0:0:0:0:
388,95,4325,1,0,0:0:0:0:
407,129,4444,1,0,0:0:0:0:
426,163,4563,1,0,0:0:0:0:
445,197,4682,2,0,L|435:265,1,60
259,296,4920,6,0,P|294:238|296:306,1,180,2|0,0:0|0:0,0:0:0:0:
182,347,5396,6,0,P|168:315|168:227,1,120,10|0,0:0|0:0,0:0:0:0:
331,124,5872,2,0,L|205:137,1,120,2|0,0:0|0:0,0:0:0:0:
162,81,6230,1,0,0:0:0:0:
46,189,6349,2,0,L|172:202,1,120,10|0,0:0|0:0,0:0:0:0:
431,31,6825,6,0,L|407:284,1,240,2|10,0:0|0:0,0:0:0:0:
165,201,7539,2,0,P|189:167|226:151,1,60
273,334,7777,2,0,B|297:373|237:412|183:366|186:259|243:216,1,240,2|0,0:0|0:0,0:0:0:0:
237,222,8491,2,0,P|276:207|315:216,1,60
465,151,8730,2,0,B|509:162|530:94|470:56|368:90|344:157,2,240,2|0|0,0:0|0:0|0:0,0:0:0:0:
255,355,9920,6,0,L|246:284,1,60
152,191,10158,2,0,L|136:310,1,120
31,351,10634,6,0,L|0:112,1,240,2|10,0:0|0:0,0:0:0:0:
1,113,11349,1,0,0:0:0:0:
135,255,11587,2,0,L|255:239,1,120,2|10,0:0|0:0,0:0:0:0:
298,102,11944,1,0,0:0:0:0:
250,22,12063,2,0,P|215:58|207:132,1,120
426,262,12539,6,0,P|460:226|350:213,1,240,2|10,0:0|0:0,0:0:0:0:
350,204,13491,2,0,L|224:217,1,120,2|0,0:0|0:0,0:0:0:0:
181,161,13849,1,0,0:0:0:0:
65,269,13968,2,0,L|191:282,1,120,10|0,0:0|0:0,0:0:0:0:
404,299,14444,6,0,P|395:241|350:204,1,120
216,96,14920,1,10,0:0:0:0:
257,358,15158,1,0,0:0:0:0:
276,48,15396,1,10,0:0:0:0:
2,273,15634,1,2,0:0:0:0:
510,273,15872,1,14,0:0:0:0:
491,201,16110,1,0,0:0:0:0:
255,275,16349,6,0,B|284:307|284:307|424:326,1,180,2|0,0:0|0:0,0:0:0:0:
441,256,16825,1,10,0:0:0:0:
167,217,17063,1,0,0:0:0:0:
140,323,17301,2,0,B|161:362|161:362|151:263,1,120
132,67,17777,2,0,P|99:93|152:110,1,120
303,25,18253,5,0,0:0:0:0:
335,192,18491,2,0,L|346:123,1,60
214,83,18730,2,0,L|283:94,2,60,10|0|0,0:0|0:0|0:0,0:0:0:0:
394,182,19087,2,0,L|325:193,2,60,0|2|0,0:0|0:0|0:0,0:0:0:0:
262,193,19444,1,0,0:0:0:0:
296,255,19563,1,0,0:0:0:0:
330,317,19682,1,10,0:0:0:0:
365,379,19801,1,0,0:0:0:0:
466,293,19920,2,0,L|477:224,1,60
394,182,20158,6,0,B|399:206|399:206|405:230|429:225|429:225|454:219|448:195|448:195|431:121,1,180,2|0,0:0|0:0,0:0:0:0:
412,56,20634,1,10,0:0:0:0:
254,321,20872,1,0,0:0:0:0:
86,151,21110,1,2,0:0:0:0:
30,269,21349,1,0,0:0:0:0:
394,182,21587,1,10,0:0:0:0:
156,7,21825,1,0,0:0:0:0:
254,321,22063,6,0,P|273:251|265:214,1,90,2|0,0:0|0:0,0:0:0:0:
246,217,22301,2,0,P|238:183|247:139,1,60
352,23,22539,2,0,B|374:49|374:49|358:152,1,120,10|0,0:0|0:0,0:0:0:0:
179,263,23015,2,0,L|116:253,1,60,2|0,0:0|0:0,0:0:0:0:
31,95,23253,2,0,L|94:85,1,60
246,217,23491,2,0,B|220:239|220:239|117:223,1,120,10|0,0:0|0:0,0:0:0:0:
33,352,23968,6,0,P|52:275|142:225,1,180,2|0,0:0|0:0,0:0:0:0:
178,166,24444,1,10,0:0:0:0:
256,354,24682,1,0,0:0:0:0:
345,86,24920,1,2,0:0:0:0:
370,155,25158,1,0,0:0:0:0:
299,143,25396,2,0,P|351:117|410:125,1,120
509,310,25872,6,0,B|414:279|414:279|311:303,1,180,2|0,0:0|0:0,0:0:0:0:
296,234,26349,2,0,L|417:206,1,120,10|0,0:0|0:0,0:0:0:0:
205,352,26825,2,0,L|84:324,1,120
165,293,27182,1,0,0:0:0:0:
34,384,27301,2,0,L|6:263,1,120
141,87,27777,6,0,P|166:120|103:94,1,180,2|0,0:0|0:0,0:0:0:0:
88,37,28253,1,0,0:0:0:0:
205,352,28491,1,0,0:0:0:0:
323,78,28730,1,0,0:0:0:0:
383,249,28968,1,0,0:0:0:0:
435,191,29206,1,0,0:0:0:0:
361,176,29444,1,0,0:0:0:0:
156,271,29682,6,0,L|179:142,1,120,10|8,0:0|0:0,0:0:0:0:
75,230,30039,1,8,0:0:0:0:
243,231,30158,2,0,L|266:102,1,120,10|8,0:0|0:0,0:0:0:0:
163,191,30515,5,8,0:0:0:0:
331,192,30634,2,0,P|351:145|319:152,1,90.0000034332277
173,66,30872,6,0,P|175:14|200:36,1,90.0000034332277
510,3,31110,1,14,0:0:0:0:
91,142,31587,6,0,L|107:333,2,180,6|0|0,0:0|0:0|0:0,0:0:0:0:
91,142,32658,1,0,0:0:0:0:
91,142,33015,5,0,0:0:0:0:
256,160,33253,1,0,0:0:0:0:
421,142,33491,6,0,L|405:333,2,180,6|0|0,0:0|0:0|0:0,0:0:0:0:
421,142,34562,1,0,0:0:0:0:
421,142,34919,5,2,0:0:0:0:
256,160,35157,1,0,0:0:0:0:
91,142,35396,5,6,0:0:0:0:
106,321,35753,1,0,0:0:0:0:
106,321,36110,1,0,0:0:0:0:
91,142,36467,1,0,0:0:0:0:
91,142,36825,5,0,0:0:0:0:
256,160,37063,1,0,0:0:0:0:
421,142,37301,5,6,0:0:0:0:
406,321,37658,1,0,0:0:0:0:
406,321,38015,1,0,0:0:0:0:
406,321,38372,1,0,0:0:0:0:
338,295,38491,1,2,0:3:0:0:
106,321,38730,5,0,0:0:0:0:
174,295,38849,1,2,0:3:0:0:
242,269,38968,1,2,0:3:0:0:
36,84,39206,5,2,0:0:0:0:
106,321,39444,2,0,L|111:257,1,60,2|0,0:0|0:0,0:0:0:0:
104,58,39682,5,2,0:0:0:0:
174,295,39920,2,0,L|179:231,1,60,2|0,0:0|0:0,0:0:0:0:
172,32,40158,5,2,0:0:0:0:
242,269,40396,2,0,L|247:205,1,60,2|0,0:0|0:0,0:0:0:0:
240,6,40634,5,2,0:0:0:0:
310,243,40872,2,0,L|315:179,1,60,2|0,0:0|0:0,0:0:0:0:
240,6,41110,5,2,0:0:0:0:
172,32,41348,1,2,0:0:0:0:
104,58,41586,1,2,0:0:0:0:
36,84,41825,1,2,0:0:0:0:
272,378,42063,5,2,0:0:0:0:
340,352,42301,1,2,0:0:0:0:
408,326,42539,1,2,0:0:0:0:
476,300,42778,1,2,0:0:0:0:
320,99,43015,5,2,0:0:0:0:
252,125,43134,1,2,0:0:0:0:
184,151,43253,1,2,0:0:0:0:
116,177,43372,1,2,0:0:0:0:
192,285,43491,5,2,0:0:0:0:
260,259,43610,1,2,0:0:0:0:
328,233,43729,1,2,0:0:0:0:
396,207,43848,1,2,0:0:0:0:
304,121,43968,5,2,0:0:0:0:
252,141,44087,1,2,0:0:0:0:
201,161,44206,1,2,0:0:0:0:
150,180,44325,1,2,0:0:0:0:
207,262,44444,5,2,0:0:0:0:
259,242,44563,1,2,0:0:0:0:
310,222,44682,1,2,0:0:0:0:
361,203,44801,1,2,0:0:0:0:
248,122,44920,6,0,L|259:242,1,120
325,274,45158,1,0,0:0:0:0:
174,351,45277,2,0,L|293:340,1,120
444,195,45515,5,0,0:0:0:0:
433,314,45634,1,0,0:0:0:0:
444,195,45753,1,0,0:0:0:0:
314,155,45872,5,0,0:0:0:0:
325,274,45991,1,0,0:0:0:0:
314,155,46110,1,0,0:0:0:0:
325,274,46230,1,0,0:0:0:0:
188,120,46349,5,0,0:0:0:0:
364,103,46469,1,0,0:0:0:0:
188,120,46587,1,0,0:0:0:0:
0,288,46825,6,0,B|76:294|76:294|125:324|125:324|179:303|179:303|255:310,1,270.000010299683,6|0,0:0|0:0,0:0:0:0:
323,302,47063,6,0,P|320:331|305:357,1,60
134,246,47301,1,10,0:0:0:0:
134,246,47539,6,0,L|139:182,1,60
298,162,47658,2,0,L|292:98,1,60
147,66,47777,5,2,0:0:0:0:
45,215,47896,1,0,0:0:0:0:
134,246,48015,1,0,0:0:0:0:
225,228,48134,1,0,0:0:0:0:
148,55,48253,5,10,0:0:0:0:
36,219,48372,1,0,0:0:0:0:
134,253,48491,1,0,0:0:0:0:
234,233,48610,1,0,0:0:0:0:
341,37,48730,6,0,B|376:88|376:88|366:207|366:207|357:225|357:225|363:239|363:239|357:311,1,270.000010299683,2|0,0:0|0:0,0:0:0:0:
358,360,48968,6,0,P|387:354|411:336,1,60
298,162,49206,1,10,0:0:0:0:
298,162,49444,6,0,L|202:153,1,60
176,323,49563,2,0,L|271:314,1,60
441,228,49682,5,2,0:0:0:0:
238,156,49801,1,0,0:0:0:0:
258,262,49920,1,0,0:0:0:0:
278,368,50039,1,0,0:0:0:0:
358,158,50158,6,0,P|299:101|237:155,1,180,10|0,0:0|0:0,0:0:0:0:
188,210,50396,2,0,P|122:263|67:198,1,180
18,143,50634,6,0,B|23:74|23:74|105:81|105:81|130:75|130:75|147:76|147:76|171:87|171:87|220:91,1,270.000010299683,2|0,0:0|0:0,0:0:0:0:
288,81,50872,6,0,P|263:39|245:30,1,60
135,146,51110,1,10,0:0:0:0:
135,146,51349,6,0,L|140:209,1,60
272,308,51468,2,0,L|277:371,1,60
150,324,51587,5,2,0:0:0:0:
298,162,51706,1,0,0:0:0:0:
428,223,51825,1,0,0:0:0:0:
476,358,51944,1,0,0:0:0:0:
211,166,52063,5,10,0:0:0:0:
419,98,52182,1,0,0:0:0:0:
501,216,52301,1,0,0:0:0:0:
476,358,52420,1,0,0:0:0:0:
310,336,52539,6,0,B|271:332|271:332|237:291|237:291|240:253|240:253|288:257,1,180,2|0,0:0|0:0,0:0:0:0:
340,206,52777,2,0,B|388:210|388:210|391:172|391:172|357:130|357:130|318:127,1,180
267,75,53015,5,10,0:0:0:0:
53,115,53134,2,0,L|45:189,1,75
115,206,53253,2,0,L|122:131,1,75
196,127,53372,2,0,L|188:201,1,75
25,317,53491,6,0,P|81:223|188:201,1,225,2|0,0:0|0:0,0:0:0:0:
240,253,53730,2,0,P|304:290|382:268,1,150
494,145,53968,6,0,P|516:145|505:165,1,52.5,10|0,0:0|0:0,0:0:0:0:
505,165,54444,6,0,B|427:134|427:134|379:129|379:129|354:135|354:135|331:125|331:125|196:113,1,270.000010299683,2|0,0:0|0:0,0:0:0:0:
178,142,54682,6,0,P|175:112|183:84,1,60
367,5,54920,1,10,0:0:0:0:
367,5,55158,6,0,L|361:68,1,60
234,193,55277,2,0,L|239:256,1,60
394,318,55396,5,2,0:0:0:0:
496,169,55515,1,0,0:0:0:0:
407,138,55634,1,0,0:0:0:0:
316,156,55753,1,0,0:0:0:0:
393,329,55872,5,10,0:0:0:0:
505,165,55991,1,0,0:0:0:0:
407,131,56110,1,0,0:0:0:0:
307,151,56229,1,0,0:0:0:0:
190,270,56349,6,0,B|-2:286|-2:286|22:256|22:256|77:252,1,270.000010299683,2|0,0:0|0:0,0:0:0:0:
97,196,56587,6,0,P|118:217|127:246,1,60
52,383,56825,1,10,0:0:0:0:
52,383,57063,6,0,L|115:377,1,60
249,275,57182,2,0,L|185:269,1,60
88,186,57301,5,2,0:0:0:0:
245,91,57420,1,0,0:0:0:0:
247,183,57539,1,0,0:0:0:0:
249,275,57658,1,0,0:0:0:0:
99,115,57777,6,0,P|164:60|245:91,1,180,10|0,0:0|0:0,0:0:0:0:
272,161,58015,2,0,P|352:191|417:136,1,180
430,64,58253,6,0,B|392:95|392:95|377:266|377:266|408:304,1,270.000010299683,2|0,0:0|0:0,0:0:0:0:
478,322,58491,6,0,P|475:279|452:248,1,60
244,246,58730,1,10,0:0:0:0:
244,246,58968,6,0,L|303:251,1,60
417,134,59087,2,0,L|357:139,1,60
177,156,59206,1,2,0:0:0:0:
256,320,59325,1,0,0:0:0:0:
383,331,59444,1,0,0:0:0:0:
480,248,59563,1,0,0:0:0:0:
264,74,59682,5,10,0:0:0:0:
246,346,59801,1,0,0:0:0:0:
392,359,59920,1,0,0:0:0:0:
502,264,60039,1,0,0:0:0:0:
417,134,60158,6,0,B|359:120|359:120|304:143,1,120,2|0,0:0|0:0,0:0:0:0:
304,144,60396,2,0,B|361:157|361:157|416:134,1,120
417,133,60634,6,0,B|300:105|300:105|190:152,1,240,2|0,0:0|0:0,0:0:0:0:
190,152,60991,5,0,0:0:0:0:
29,64,61110,2,0,B|13:76|13:76|12:97|12:97|24:112,2,60,2|0|0,0:0|0:0|0:0,0:0:0:0:
238,52,61349,5,2,0:1:0:0:
100,110,61468,1,0,0:0:0:0:
304,145,61587,5,10,0:0:0:0:
166,203,61706,1,0,0:0:0:0:
370,238,61825,5,2,0:1:0:0:
232,296,61944,1,0,0:0:0:0:
366,325,62063,6,0,B|373:243|373:243|350:187|350:187|357:105,1,225,2|0,0:0|0:0,0:0:0:0:
386,97,62301,2,0,L|378:186,1,90.0000034332277,2|0,0:0|0:0,0:0:0:0:
232,296,62539,5,10,0:0:0:0:
269,190,62658,2,0,B|272:209|272:209|264:232,1,45.0000017166138
306,377,62777,2,0,B|287:370|287:370|271:352,1,45.0000017166138
124,319,62896,2,0,B|139:306|139:306|162:301,1,45.0000017166138
232,296,63015,5,2,0:0:0:0:
247,297,63075,1,0,0:0:0:0:
262,298,63134,1,0,0:0:0:0:
277,299,63194,1,0,0:0:0:0:
292,300,63253,2,0,L|355:294,1,45.0000017166138
414,241,63372,2,0,L|350:235,1,45.0000017166138
269,190,63491,6,0,L|332:184,1,45.0000017166138,10|0,0:0|0:0,0:0:0:0:
437,131,63610,2,0,L|373:125,1,45.0000017166138
246,80,63730,6,0,L|309:74,1,45.0000017166138
460,21,63849,2,0,L|396:15,1,45.0000017166138
267,0,63968,6,0,B|246:80|246:80|287:273,1,270.000010299683,2|0,0:0|0:0,0:0:0:0:
232,296,64206,6,0,P|220:245|254:199,1,90.0000034332277
392,126,64444,1,10,0:0:0:0:
369,236,64563,2,0,B|349:233|349:233|329:220,1,45.0000017166138
246,80,64682,2,0,B|226:82|226:82|206:95,1,45.0000017166138
160,188,64801,2,0,B|141:196|141:196|117:194,1,45.0000017166138
81,123,64920,5,2,0:0:0:0:
66,124,64980,1,0,0:0:0:0:
51,125,65039,1,0,0:0:0:0:
36,126,65099,1,0,0:0:0:0:
21,127,65159,2,0,L|25:171,1,45.0000017166138
146,323,65277,2,0,L|150:278,1,45.0000017166138
292,178,65396,6,0,B|228:124|228:124|170:129|170:129|116:193,1,225,10|0,0:0|0:0,0:0:0:0:
124,266,65634,2,0,B|187:319|187:319|245:314|245:314|299:250,1,225
382,294,65872,6,0,P|288:215|366:122,1,270.000010299683,2|0,0:0|0:0,0:0:0:0:
432,141,66110,1,0,0:0:0:0:
281,58,66230,2,0,L|292:178,1,120,0|10,0:0|0:0,0:0:0:0:
382,294,66468,6,0,P|392:263|388:233,1,60
151,101,66587,2,0,P|148:130|158:158,1,60
256,320,66706,2,0,L|261:260,1,60
44,165,66825,6,0,P|125:264|247:227,1,270.000010299683,2|0,0:0|0:0,0:0:0:0:
292,178,67063,1,0,0:0:0:0:
246,47,67182,2,0,P|165:73|158:158,1,180.000006866455,0|10,0:0|0:0,0:0:0:0:
256,320,67420,6,0,L|262:245,1,75
44,165,67539,2,0,L|50:239,1,75
292,178,67658,2,0,L|298:103,1,75
151,0,67777,6,0,B|88:5|88:5|65:101|65:101|127:96,1,225,2|0,0:0|0:0,0:0:0:0:
178,143,68015,2,0,B|240:148|240:148|263:244|263:244|201:239,1,225
130,235,68253,5,10,0:0:0:0:
256,320,68372,2,0,L|351:311,1,75
428,238,68491,2,0,L|353:244,1,75
292,178,68610,2,0,L|366:171,1,75
481,91,68730,6,0,P|451:196|353:244,1,225,2|0,0:0|0:0,0:0:0:0:
292,178,68968,2,0,P|183:170|104:246,1,225
116,349,69206,6,0,L|191:355,1,75,10|0,0:0|0:0,0:0:0:0:
202,341,69325,2,0,L|127:335,1,75,0|0,0:0|0:0,0:0:0:0:
137,322,69444,2,0,L|212:328,1,75,0|0,0:0|0:0,0:0:0:0:
223,315,69563,2,0,L|147:308,1,75,0|0,0:0|0:0,0:0:0:0:
38,287,69682,6,0,B|136:247|180:344|299:309,1,270.000010299683,6|0,0:0|0:0,0:0:0:0:
365,346,69920,6,0,P|375:311|352:253,1,90.0000034332277
236,122,70158,1,10,0:0:0:0:
180,210,70277,2,0,B|200:218|200:218|221:213,1,45.0000017166138
340,126,70396,2,0,B|337:104|337:104|322:88,1,45.0000017166138
188,30,70515,2,0,B|170:43|170:43|164:64,1,45.0000017166138
236,122,70634,5,2,0:0:0:0:
237,137,70694,1,0,0:0:0:0:
238,152,70753,1,0,0:0:0:0:
239,167,70813,1,0,0:0:0:0:
240,182,70872,2,0,L|234:245,1,45.0000017166138
10,354,70991,2,0,L|5:309,1,45.0000017166138
164,176,71110,6,0,L|158:239,1,45.0000017166138,10|0,0:0|0:0,0:0:0:0:
86,348,71230,2,0,L|80:285,1,45.0000017166138
88,170,71349,6,0,L|82:233,1,45.0000017166138
162,342,71468,2,0,L|157:297,1,45.0000017166138
240,182,71587,6,0,B|272:184|272:184|231:278|231:278|255:378|255:378|223:375,1,270.000010299683,2|0,0:0|0:0,0:0:0:0:
162,342,71825,6,0,P|191:315|272:333,1,90.0000034332277
403,355,72063,1,10,0:0:0:0:
481,248,72182,2,0,L|478:218,1,30
342,160,72301,2,0,L|344:189,1,30
245,244,72420,2,0,L|242:214,1,30
282,156,72539,5,2,0:0:0:0:
297,157,72599,1,0,0:0:0:0:
312,158,72658,1,0,0:0:0:0:
327,159,72718,1,0,0:0:0:0:
342,160,72777,2,0,L|344:189,1,30
352,273,72896,2,0,L|354:302,1,30
292,366,73015,6,0,B|288:332|288:332|270:313|242:263|275:194|343:189,1,225,2|0,0:0|0:0,0:0:0:0:
414,221,73253,2,0,P|503:226|446:158,1,225
342,189,73491,6,0,B|279:183|249:173|221:139|221:139|187:167|155:172|93:167,1,270.000010299683,2|0,0:0|0:0,0:0:0:0:
100,98,73730,2,0,P|27:139|49:223,1,180.000006866455
199,340,73968,1,0,0:0:0:0:
464,106,74206,6,0,P|466:135|447:158,1,60
342,189,74444,6,0,B|279:183|249:173|221:139|221:139|187:167|155:172|93:167,1,270.000010299683,2|0,0:0|0:0,0:0:0:0:
47,221,74682,2,0,P|27:139|100:98,1,180.000006866455
221,139,74920,6,0,L|225:195,1,45.0000017166138,10|0,0:0|0:0,0:0:0:0:
199,340,75039,2,0,L|243:336,1,45.0000017166138
484,252,75158,2,0,L|427:256,1,45.0000017166138
283,230,75277,2,0,L|286:274,1,45.0000017166138
378,361,75396,5,2,0:1:0:0:
378,361,75634,1,2,0:1:0:0:
438,95,75872,1,2,0:1:0:0:
411,75,76230,5,2,0:1:0:0:
377,71,76587,5,2,0:1:0:0:
377,71,76825,1,6,0:3:0:0:
188,96,76944,1,2,0:3:0:0:
325,111,77063,1,2,0:3:0:0:
325,111,77301,5,2,0:0:0:0:
305,300,77658,1,0,0:0:0:0:
305,300,78015,1,0,0:0:0:0:
325,111,78372,1,0,0:0:0:0:
261,78,78730,5,0,0:0:0:0:
369,333,78968,1,0,0:0:0:0:
347,262,79206,5,2,0:0:0:0:
158,242,79563,1,0,0:0:0:0:
158,242,79920,1,0,0:0:0:0:
347,262,80277,1,0,0:0:0:0:
380,198,80635,5,0,0:0:0:0:
125,306,80873,1,0,0:0:0:0:
292,85,81110,5,2,0:0:0:0:
125,306,81348,1,2,0:0:0:0:
160,32,81587,5,2,0:0:0:0:
125,306,81825,1,2,0:0:0:0:
85,211,82063,5,2,0:0:0:0:
125,306,82182,1,2,0:0:0:0:
143,172,82301,5,2,0:0:0:0:
125,306,82420,1,2,0:0:0:0:
212,167,82539,5,2,0:0:0:0:
125,306,82658,1,2,0:0:0:0:
274,197,82777,5,2,0:0:0:0:
125,306,82896,1,2,0:0:0:0:
226,355,83015,6,2,L|353:343,1,90.0000034332277,2|2,0:1|0:1,0:1:0:0:
352,279,83253,1,0,0:0:0:0:
494,331,83372,2,2,L|404:338,1,90.0000034332277,2|2,0:1|0:1,0:1:0:0:
363,144,83610,5,2,0:1:0:0:
352,279,83730,1,2,0:1:0:0:
363,144,83849,1,2,0:1:0:0:
198,201,83968,5,8,0:3:0:0:
401,218,84087,1,8,0:3:0:0:
198,201,84206,1,8,0:3:0:0:
401,218,84325,1,8,0:3:0:0:
255,135,84444,5,2,0:3:0:0:
244,270,84563,1,2,0:3:0:0:
214,78,84682,5,2,0:3:0:0:
285,327,84801,1,2,0:3:0:0:
5,275,84920,6,0,B|34:251|34:251|112:258|112:258|136:287|136:287|165:263|165:263|244:270,1,270.000010299683,6|0,0:0|0:0,0:0:0:0:
310,247,85158,2,0,P|311:291|285:326,1,90.0000034332277
151,138,85396,5,8,0:0:0:0:
357,194,85515,1,0,0:0:0:0:
151,138,85634,5,2,0:0:0:0:
310,247,85753,2,0,B|459:233|459:233|409:238,2,150
224,50,86110,5,2,0:0:0:0:
244,270,86230,1,0,0:0:0:0:
331,10,86349,5,8,0:0:0:0:
151,138,86468,2,0,B|164:287|164:287|159:237,2,150
424,107,86825,6,0,B|475:111|475:111|499:139|499:139|318:123,1,270.000010299683,2|0,0:0|0:0,0:0:0:0:
282,63,87063,2,0,L|173:72,1,90.0000034332277
18,85,87301,5,8,0:0:0:0:
163,286,87420,1,0,0:0:0:0:
151,138,87539,5,2,0:0:0:0:
6,233,87658,2,0,B|-5:363|-5:363|1:347|1:347|3:318,2,165.000001573563
18,85,88015,5,2,0:0:0:0:
283,190,88134,1,0,0:0:0:0:
99,373,88253,6,0,B|98:339|98:339|107:298|107:298|99:257|99:257|99:223|132:190|132:190|99:157|98:124,1,270.000010299683,10|0,0:0|0:0,0:0:0:0:
136,53,88491,2,0,P|157:177|282:189,1,270.000010299683
329,115,88730,6,0,B|276:110|276:110|271:162|271:162|282:190|282:190|267:215|267:215|262:267|262:267|315:272,1,270.000010299683
354,331,88968,2,0,L|443:323,1,90.0000034332277
427,143,89206,5,8,0:0:0:0:
206,349,89325,1,0,0:0:0:0:
116,176,89444,6,0,P|153:155|186:182,1,90
196,211,89682,2,0,P|228:237|266:217,1,90
282,189,89920,5,2,0:0:0:0:
18,218,90039,1,0,0:0:0:0:
206,349,90158,1,8,0:0:0:0:
278,233,90277,6,0,L|283:169,1,45.0000017166138
112,131,90396,2,0,L|115:175,1,45.0000017166138
345,84,90515,2,0,L|348:39,1,45.0000017166138
223,39,90634,6,0,B|187:96|187:96|212:158,1,135.000005149841,2|0,0:0|0:0,0:0:0:0:
281,188,90872,2,0,B|305:250|305:250|270:307,1,135.000005149841
206,349,91110,5,8,0:0:0:0:
406,311,91230,2,0,P|428:318|447:329,1,45.0000017166138
174,220,91349,5,2,0:0:0:0:
406,286,91468,2,0,P|431:303|447:329,1,60
280,353,91587,6,0,B|305:250|305:250|357:224|357:224|331:121,1,270.000010299683
298,122,91825,2,0,B|319:208|319:208|276:229|276:229|254:315,1,225,2|0,0:0|0:0,0:0:0:0:
183,314,92063,5,8,0:0:0:0:
99,212,92182,2,0,L|173:219,1,75
298,122,92301,2,0,L|224:129,1,75
90,57,92420,2,0,L|164:64,1,75
234,2,92539,6,0,P|323:74|223:129,1,270.000010299683,2|0,0:0|0:0,0:0:0:0:
170,189,92777,2,0,L|179:279,1,90.0000034332277
381,312,93015,5,8,0:0:0:0:
298,122,93134,1,0,0:0:0:0:
441,266,93253,5,2,0:0:0:0:
298,122,93372,2,0,B|149:108|149:108|199:113,2,150
469,196,93730,5,2,0:0:0:0:
307,322,93849,1,0,0:0:0:0:
441,266,93968,5,8,0:0:0:0:
238,238,94087,2,0,B|89:252|89:252|139:247,2,150
444,122,94444,6,0,B|473:156|473:156|470:188|470:188|451:219|451:219|464:252|464:252|454:373,1,270.000010299683,2|0,0:0|0:0,0:0:0:0:
379,350,94682,2,0,L|390:222,1,90.0000034332277
250,129,94920,5,8,0:0:0:0:
307,322,95039,1,0,0:0:0:0:
325,117,95158,5,2,0:0:0:0:
141,234,95277,2,0,B|271:245|271:245|255:239|255:239|226:237,2,165.000001573563
51,226,95634,5,2,0:0:0:0:
183,378,95753,1,0,0:0:0:0:
307,322,95872,6,0,B|317:277|317:277|299:235|299:235|311:212|317:190|308:169|291:149|291:149|303:111|303:111|284:69,1,270.000010299683,8|0,0:0|0:0,0:0:0:0:
232,25,96110,6,0,B|269:113|269:113|245:189|245:189|205:152|233:96,1,270.000010299683
284,69,96349,6,0,P|394:107|352:263,1,270.000010299683,2|0,0:0|0:0,0:0:0:0:
307,322,96587,2,0,L|315:226,1,90.0000034332277
125,155,96825,5,10,0:0:0:0:
183,378,96944,1,0,0:0:0:0:
217,266,97063,6,0,P|217:223|183:183,1,90,2|0,0:0|0:0,0:0:0:0:
125,155,97301,2,0,P|113:113|136:66,1,90
193,33,97539,5,2,0:0:0:0:
152,244,97658,1,0,0:0:0:0:
131,71,97777,1,8,0:0:0:0:
314,232,97896,1,0,0:0:0:0:
87,277,98015,1,0,0:0:0:0:
282,297,98134,1,0,0:0:0:0:
411,198,98253,6,0,B|424:140|424:140|401:85,1,120,2|0,0:0|0:0,0:0:0:0:
401,85,98491,2,0,B|387:142|387:142|410:197,1,120
462,252,98730,5,8,0:0:0:0:
125,155,98968,1,2,0:0:0:0:
195,148,99087,1,0,0:0:0:0:
266,142,99206,2,0,B|279:171|279:171|273:218,2,60
35,70,99444,5,2,0:0:0:0:
48,211,99563,1,0,0:0:0:0:
182,289,99682,5,8,0:0:0:0:
195,148,99801,1,0,0:0:0:0:
329,70,99920,5,2,0:1:0:0:
342,211,100039,1,0,0:0:0:0:
182,289,100158,6,0,B|220:312|220:312|264:303|264:303|302:327|302:327|346:317|346:317|384:341|384:341|428:332,1,270.000010299683,2|0,0:0|0:0,0:0:0:0:
480,283,100396,2,0,P|441:261|397:266,1,90.0000034332277,2|0,0:0|0:0,0:0:0:0:
250,378,100634,5,8,0:0:0:0:
342,211,100753,2,0,L|347:147,1,45.0000017166138
182,289,100872,5,2,0:0:0:0:
90,122,100991,2,0,L|84:58,1,45.0000017166138
215,6,101110,5,0,0:0:0:0:
214,21,101170,1,0,0:0:0:0:
213,36,101229,1,0,0:0:0:0:
212,51,101289,1,0,0:0:0:0:
183,77,101349,5,2,0:0:0:0:
262,185,101468,2,0,L|258:229,1,45.0000017166138
85,302,101587,5,0,0:0:0:0:
178,244,101706,2,0,L|181:288,1,45.0000017166138
331,362,101825,2,0,L|335:309,1,52.500000500679
256,124,101944,2,0,L|262:185,1,60
481,289,102063,6,0,B|488:214|445:168|387:146|341:156|341:156|349:250,1,270.000010299683
340,272,102301,2,0,L|331:361,1,90.0000034332277
181,288,102539,5,8,0:0:0:0:
212,128,102658,2,0,L|257:125,1,45.0000017166138
344,201,102777,5,2,0:0:0:0:
312,41,102896,2,0,L|267:37,1,45.0000017166138
186,157,103016,5,0,0:0:0:0:
201,156,103075,1,0,0:0:0:0:
216,155,103135,1,0,0:0:0:0:
231,154,103194,1,0,0:0:0:0:
257,125,103254,5,2,0:0:0:0:
84,9,103372,1,0,0:0:0:0:
50,194,103491,6,0,B|74:214|74:214|143:208|143:208|164:183,1,135.000005149841,8|0,0:0|0:0,0:0:0:0:
186,157,103730,2,0,B|206:132|206:132|275:126|275:126|300:146,1,135.000005149841
344,201,103968,6,0,B|314:223|278:212|278:212|333:296|291:364|291:364|277:298,1,270.000010299683
213,320,104206,2,0,L|117:311,1,90.0000034332277
106,134,104444,5,8,0:0:0:0:
233,215,104563,2,0,L|278:212,1,45.0000017166138
186,157,104682,5,2,0:0:0:0:
313,75,104801,2,0,L|357:78,1,45.0000017166138
471,190,104920,6,0,B|473:222|476:254|447:289|423:291|423:291|415:300|415:300|407:292|407:292|383:294|348:265|345:233|342:201,1,270.000010299683
390,147,105158,5,2,0:0:0:0:
235,247,105277,2,0,L|238:291,1,45.0000017166138
301,380,105396,5,8,0:0:0:0:
416,300,105515,2,0,L|419:255,1,45.0000017166138
306,147,105634,2,0,L|310:199,1,52.500000500679
159,316,105753,2,0,L|164:256,1,60
88,81,105872,6,0,B|52:110|52:110|40:241|40:241|76:211,1,225
144,166,106110,2,0,B|179:136|179:136|191:5|191:5|155:35,1,225
87,80,106349,6,0,P|119:110|162:117,1,75,8|0,0:0|0:0,0:0:0:0:
271,80,106468,2,0,P|307:71|342:80,1,75
382,151,106587,2,0,P|371:186|345:212,1,75,2|0,0:0|0:0,0:0:0:0:
248,296,106706,2,0,P|238:331|247:368,1,75
318,333,106825,6,0,P|343:305|354:341,1,90
246,367,107063,6,0,L|237:271,1,90.0000034332277,2|0,0:0|0:0,0:0:0:0:
307,157,107301,6,0,L|381:150,1,75,8|0,0:0|0:0,0:0:0:0:
488,91,107420,2,0,L|414:85,1,75
271,80,107539,2,0,L|345:73,1,75
452,14,107658,2,0,L|377:7,1,75
216,26,107777,6,0,B|196:48|178:90|203:125|230:146|230:146|169:182|169:182|178:277,1,270.000010299683
161,312,108015,2,0,P|123:290|105:249,1,90.0000034332277
96,109,108253,5,8,0:0:0:0:
256,224,108372,2,0,L|250:287,1,45.0000017166138
246,367,108491,5,2,0:0:0:0:
406,252,108610,2,0,L|400:188,1,45.0000017166138
307,157,108730,5,0,0:0:0:0:
308,142,108790,1,0,0:0:0:0:
309,127,108849,1,0,0:0:0:0:
310,112,108909,1,0,0:0:0:0:
339,86,108969,5,2,0:0:0:0:
406,162,109087,2,0,L|402:206,1,45.0000017166138
252,268,109206,5,0,0:0:0:0:
376,254,109325,2,0,L|407:251,1,30
391,378,109444,2,0,L|359:375,1,30
252,268,109563,2,0,L|283:265,1,30
406,162,109682,6,0,B|319:169|319:169|278:194|278:194|233:177|233:177|147:184,1,270.000010299683,2|0,0:0|0:0,0:0:0:0:
104,128,109920,2,0,P|81:158|83:218,1,90.0000034332277
158,371,110158,5,8,0:0:0:0:
255,312,110277,2,0,L|252:268,1,45.0000017166138
376,254,110396,5,2,0:0:0:0:
278,195,110515,2,0,L|281:150,1,45.0000017166138
256,78,110634,5,0,0:0:0:0:
255,63,110694,1,0,0:0:0:0:
254,48,110753,1,0,0:0:0:0:
253,33,110813,1,0,0:0:0:0:
224,7,110873,5,2,0:0:0:0:
144,154,110991,2,0,L|146:183,1,30
252,268,111110,6,0,B|217:297|217:297|153:291,1,90
114,248,111349,2,0,B|69:244|69:244|34:273,1,90
2,349,111587,6,0,B|29:382|91:387|124:359|124:359|152:393|213:398|247:370,1,270.000010299683,2|0,0:0|0:0,0:0:0:0:
299,321,111825,2,0,B|307:240|307:240|295:203,1,120
79,102,112063,1,8,0:0:0:0:
463,28,112301,6,0,P|475:70|463:113,1,90.0000034332277,2|0,0:0|0:0,0:0:0:0:
418,192,112539,6,0,B|390:225|328:230|295:202|295:202|267:236|206:241|172:213,1,270.000010299683
121,164,112777,2,0,B|113:83|113:83|128:36,1,120,2|0,0:0|0:0,0:0:0:0:
355,66,113015,6,0,L|350:126,1,60,8|0,0:0|0:0,0:0:0:0:
226,138,113134,2,0,L|231:197,1,60
418,192,113253,6,0,L|412:251,1,60,8|0,0:0|0:0,0:0:0:0:
288,263,113372,2,0,L|293:322,1,60
402,357,113491,6,0,B|433:306|433:306|412:251,1,120
133,272,113730,5,2,0:0:0:0:
293,322,113849,1,2,0:0:0:0:
412,250,113968,1,2,0:0:0:0:
438,152,114087,1,2,0:0:0:0:
399,71,114206,1,2,0:0:0:0:
317,51,114325,1,2,0:0:0:0:
242,84,114444,5,2,0:0:0:0:
293,322,114563,1,2,0:0:0:0:
317,51,114682,5,2,0:0:0:0:
218,355,114801,1,2,0:0:0:0:
161,63,114920,1,10,0:0:0:0:
38,275,115396,5,6,0:0:0:0:
197,261,115753,1,0,0:0:0:0:
197,261,116110,1,0,0:0:0:0:
38,275,116468,1,0,0:0:0:0:
17,206,116825,5,0,0:0:0:0:
176,331,117063,1,0,0:0:0:0:
473,275,117301,5,0,0:0:0:0:
314,261,117658,1,0,0:0:0:0:
314,261,118015,1,0,0:0:0:0:
473,275,118373,1,0,0:0:0:0:
495,206,118730,5,0,0:0:0:0:
336,331,118968,1,0,0:0:0:0:
38,275,119206,5,0,0:0:0:0:
197,261,119563,1,0,0:0:0:0:
197,261,119920,1,0,0:0:0:0:
38,275,120278,1,0,0:0:0:0:
17,206,120635,5,0,0:0:0:0:
176,331,120873,1,0,0:0:0:0:
473,275,121110,5,0,0:0:0:0:
314,261,121467,1,0,0:0:0:0:
365,210,121587,1,8,0:3:0:0:
365,210,121825,5,2,0:3:0:0:
314,158,121945,1,8,0:3:0:0:
295,87,122063,1,8,0:3:0:0:
314,16,122182,1,0,0:3:0:0:
481,184,122539,6,0,L|473:274,1,90.0000034332277,8|0,0:3|0:3,0:3:0:0:
17,206,122777,6,0,L|28:333,1,120,2|0,0:3|0:3,0:3:0:0:
144,364,123015,5,2,0:0:0:0:
144,364,123372,5,0,0:0:0:0:
133,244,123491,1,2,0:0:0:0:
368,364,123730,1,0,0:0:0:0:
133,244,123968,5,2,0:0:0:0:
183,134,124087,1,0,0:0:0:0:
379,244,124444,5,2,0:0:0:0:
144,364,124682,1,0,0:0:0:0:
183,134,124920,5,2,0:0:0:0:
144,364,125158,1,2,0:0:0:0:
329,134,125396,5,2,0:0:0:0:
368,364,125634,1,2,0:0:0:0:
133,24,125872,5,2,0:0:0:0:
144,364,126110,1,2,0:0:0:0:
379,24,126349,5,2,0:0:0:0:
368,364,126587,1,2,0:0:0:0:
186,133,126825,5,2,0:0:0:0:
314,122,126944,1,2,0:0:0:0:
325,250,127062,1,2,0:0:0:0:
197,261,127181,1,2,0:0:0:0:
214,132,127301,5,2,0:0:0:0:
315,150,127421,1,2,0:0:0:0:
297,251,127540,1,2,0:0:0:0:
196,233,127658,1,2,0:0:0:0:
236,137,127777,5,2,0:0:0:0:
310,172,127897,1,2,0:0:0:0:
275,246,128015,1,2,0:0:0:0:
201,211,128134,1,2,0:0:0:0:
251,145,128253,5,2,0:0:0:0:
302,187,128373,1,2,0:0:0:0:
260,238,128491,1,2,0:0:0:0:
209,196,128610,1,2,0:0:0:0:
262,155,128730,5,2,0:0:0:0:
292,198,128850,1,2,0:0:0:0:
249,228,128968,1,2,0:0:0:0:
219,185,129087,1,2,0:0:0:0:
268,165,129206,5,2,0:0:0:0:
284,204,129326,1,2,0:0:0:0:
243,218,129444,1,2,0:0:0:0:
229,179,129563,1,2,0:0:0:0:
279,95,129682,5,0,0:0:0:0:
233,289,129801,1,0,0:0:0:0:
279,95,129920,1,0,0:0:0:0:
233,289,130039,1,0,0:0:0:0:
128,176,130158,5,0,0:0:0:0:
384,208,130277,1,0,0:0:0:0:
128,176,130396,1,0,0:0:0:0:
459,313,130634,6,0,B|530:284|547:170|520:89|418:103|415:222,1,270.000010299683,2|0,0:0|0:0,0:0:0:0:
384,208,130872,2,0,B|343:225|343:225|299:215,1,90.0000034332277
49,196,131110,6,0,B|-22:167|-39:53|-12:-28|90:-14|93:105,1,270.000010299683,10|0,0:0|0:0,0:0:0:0:
124,91,131348,2,0,B|164:108|164:108|208:98,1,90.0000034332277
438,22,131587,6,0,B|474:-21|519:32|508:98|406:131|314:85,1,225,2|0,0:0|0:0,0:0:0:0:
303,64,131825,2,0,P|293:107|311:147,1,90.0000034332277
478,275,132063,6,0,B|534:270|527:339|474:379|378:330|346:232,1,225,10|0,0:0|0:0,0:0:0:0:
352,209,132301,2,0,P|314:232|298:273,1,90.0000034332277
220,351,132539,6,0,B|174:380|100:379|60:329|60:329|72:341|94:351|117:348,1,225,2|0,0:0|0:0,0:0:0:0:
107,277,132777,6,0,L|170:271,1,45.0000017166138
298,272,132896,2,0,L|253:275,1,45.0000017166138
106,269,133015,2,0,L|169:274,1,45.0000017166138,10|0,0:0|0:0,0:0:0:0:
298,279,133134,2,0,L|253:275,1,45.0000017166138
115,191,133253,6,0,B|158:194|158:194|180:204|180:204|202:198|202:198|246:202,1,135.000005149841
299,157,133491,2,0,P|345:149|415:205,1,135.000005149841,2|0,0:0|0:0,0:0:0:0:
391,266,133730,2,0,P|436:313|504:307,1,135.000005149841
500,279,133968,6,0,P|458:288|420:265,1,90,10|0,0:0|0:0,0:0:0:0:
412,198,134206,2,0,L|417:134,1,60
225,57,134444,6,0,B|133:49|106:203|277:191|308:148,1,270.000010299683,2|0,0:0|0:0,0:0:0:0:
306,88,134682,2,0,P|269:64|225:57,1,90.0000034332277
11,267,134920,6,0,B|3:359|156:385|145:215|102:184,1,270.000010299683,10|0,0:0|0:0,0:0:0:0:
40,184,135158,2,0,P|18:222|11:267,1,90.0000034332277
226,320,135396,6,0,B|275:198|185:151|225:57,1,270.000010299683,2|0,0:0|0:0,0:0:0:0:
306,88,135634,2,0,P|302:126|332:179,1,90.0000034332277
427,256,135872,6,0,B|456:277|459:313|459:313|426:284|389:275|349:283|330:341|260:341|198:308,1,315.000012016297,10|0,0:0|0:0,0:0:0:0:
179,373,136349,6,0,B|144:341|146:274|211:250|211:250|236:248,1,180,2|0,0:0|0:0,0:0:0:0:
308,246,136587,6,0,B|345:242|345:242|443:206|446:106|393:58,1,270.000010299683
339,6,136825,6,0,P|323:31|319:61,1,60,10|0,0:0|0:0,0:0:0:0:
300,177,136944,2,0,P|293:147|275:123,1,60
174,12,137063,6,0,P|173:41|183:69,1,60
224,179,137182,2,0,P|203:157|176:145,1,60
20,222,137301,6,0,P|195:183|375:184,1,360.000013732911,2|0,0:0|0:0,0:0:0:0:
390,197,137777,6,0,P|365:197|377:182,1,52.5,12|0,0:0|0:0,0:0:0:0:
434,135,138253,6,0,B|487:183|497:289|438:337|438:337|386:331|371:272,1,270.000010299683,2|0,0:0|0:0,0:0:0:0:
347,273,138491,2,0,P|306:257|228:278,1,90.0000034332277
162,346,138730,6,0,B|93:367|-2:323|-14:248|-14:248|16:206|74:222,1,270.000010299683,10|0,0:0|0:0,0:0:0:0:
85,201,138968,2,0,P|119:173|140:95,1,90.0000034332277
86,26,139206,6,0,B|18:4|-21:105|49:179,1,180,2|0,0:0|0:0,0:0:0:0:
85,201,139444,2,0,P|110:210|158:197,1,60
291,111,139682,6,0,B|330:96|374:124|340:187|244:173|221:120|256:83|274:77,1,210,10|0,0:0|0:0,0:0:0:0:
334,40,140158,6,0,P|388:73|366:204,1,180
329,217,140396,2,0,P|308:248|301:277,1,60
314,338,140515,2,0,P|330:363|354:382,1,60
405,289,140634,6,0,B|409:254|382:211|329:217|329:217|252:282|151:206,1,270.000010299683,10|0,0:0|0:0,0:0:0:0:
143,176,140872,6,0,P|176:160|213:164,1,75
314,338,140991,2,0,P|280:354|243:350,1,75
191,271,141110,5,2,0:0:0:0:
329,217,141230,2,0,P|332:180|316:146,1,75
205,73,141349,6,0,B|169:82|136:123|143:176|143:176|165:133|210:109,1,180
263,123,141587,6,0,P|321:152|329:217,1,135.000005149841,10|0,0:0|0:0,0:0:0:0:
259,235,141825,2,0,P|210:278|220:342,1,135.000005149841
289,381,142063,6,2,B|328:393|429:401|513:352|488:258|455:283,1,270.000010299683,2|0,0:0|0:0,0:0:0:0:
412,340,142301,2,0,P|371:356|326:356,1,90.0000034332277
123,307,142539,6,2,B|93:291|29:236|8:158|78:118|83:152,1,225,10|0,0:0|0:0,0:0:0:0:
87,225,142777,2,0,P|106:258|136:280,1,75
357,273,143015,6,2,B|384:273|450:261|495:215|463:159|446:181,1,180,2|0,0:0|0:0,0:0:0:0:
399,231,143253,2,0,P|369:240|334:245,1,60
173,188,143491,6,2,B|158:174|129:132|129:84|176:72|173:92,1,135.000005149841,10|0,0:0|0:0,0:0:0:0:
194,159,143730,2,0,P|204:180|234:202,1,45.0000017166138
399,231,143968,6,0,B|469:237|510:170|510:170|481:96|411:90,1,270.000010299683,2|0,0:0|0:0,0:0:0:0:
338,85,144206,2,0,B|267:78|226:145|226:145|255:219|325:225,1,270.000010299683
402,210,144444,6,0,B|448:214|476:169|476:169|456:120|410:116,1,180,10|0,0:0|0:0,0:0:0:0:
335,106,144682,2,0,B|288:101|260:146|260:146|280:195|326:199,1,180
405,188,144920,5,2,0:0:0:0:
252,263,145039,1,0,0:0:0:0:
310,302,145158,1,0,0:0:0:0:
248,333,145277,1,0,0:0:0:0:
95,258,145396,1,10,0:0:0:0:
95,258,145872,6,0,P|146:238|243:249,1,120,2|0,0:0|0:0,0:0:0:0:
336,276,146110,2,0,P|395:277|451:256,1,120,2|0,0:0|0:0,0:0:0:0:
382,88,146349,6,0,P|335:181|432:141,1,270.000010299683,2|0,0:0|0:0,0:0:0:0:
382,88,146587,2,0,B|361:89|361:89|339:98|339:98|317:93|317:93|295:95,1,90.0000034332277
231,176,146825,6,0,P|192:253|272:219,1,225,10|0,0:0|0:0,0:0:0:0:
231,176,147063,2,0,B|210:177|210:177|188:186|188:186|166:181|166:181|144:183,1,90.0000034332277
91,279,147301,6,0,P|59:340|124:314,1,180,2|0,0:0|0:0,0:0:0:0:
91,279,147539,2,0,B|70:280|70:280|48:289|48:289|26:284|26:284|4:286,1,90.0000034332277
42,128,147777,6,0,B|82:136|115:105|115:105|142:160|185:181|231:175,1,225,2|0,0:0|0:0,0:0:0:0:
301,93,148015,2,0,L|295:156,1,45.0000017166138
249,289,148134,2,0,L|245:244,1,45.0000017166138
293,92,148253,2,0,L|297:137,1,45.0000017166138,10|0,0:0|0:0,0:0:0:0:
241,289,148372,2,0,L|244:244,1,45.0000017166138
366,178,148491,6,0,B|370:222|370:222|364:244|364:244|374:266|374:266|377:309,1,135.000005149841
451,300,148730,2,0,P|445:343|360:382,1,135.000005149841,2|0,0:0|0:0,0:0:0:0:
332,305,148968,2,0,L|395:310,1,45.0000017166138
495,214,149087,2,0,L|431:219,1,45.0000017166138
462,85,149206,5,10,0:0:0:0:
495,214,149325,1,0,0:0:0:0:
366,178,149444,2,0,B|369:135|369:135|379:113|379:113|373:91|373:91|377:47,1,135.000005149841
281,23,149682,6,0,B|269:68|289:102|289:102|232:128|214:174|237:243|318:198|296:154|266:165,1,270.000010299683,2|0,0:0|0:0,0:0:0:0:
164,172,149920,2,0,P|176:218|206:254,1,90.0000034332277
332,305,150158,6,0,B|375:260|367:178|367:178|361:231|320:259,1,225,10|0,0:0|0:0,0:0:0:0:
249,334,150396,2,0,P|293:327|331:304,1,90.0000034332277
314,80,150634,6,0,P|184:75|62:181,1,270.000010299683,2|0,0:0|0:0,0:0:0:0:
62,234,150872,6,0,P|165:211|75:154,1,270.000010299683
45,264,151110,6,0,B|74:300|119:308|165:294|190:249|190:249|207:311|249:333|249:333|226:298|234:260,1,315.000012016297,10|0,0:0|0:0,0:0:0:0:
226,268,151587,6,0,P|237:208|302:136,1,135.000005149841,2|0,0:0|0:0,0:0:0:0:
348,122,151825,2,0,P|416:129|473:165,1,135.000005149841
504,228,152063,6,0,P|468:238|432:227,1,75,10|0,0:0|0:0,0:0:0:0:
361,216,152182,2,0,P|323:214|291:232,1,75
290,305,152301,6,0,P|319:350|331:298,1,135.000005149841
226,268,152539,6,0,B|183:316|67:290|103:261|103:261|132:268,1,180,2|0,0:0|0:0,0:0:0:0:
121,192,152777,2,0,B|164:144|280:170|244:199|244:199|215:192,1,180
121,192,153015,6,0,P|37:155|2:104,1,120,14|0,0:0|0:0,0:0:0:0:
17,18,153253,2,0,P|5:76|18:134,1,120
220,345,153491,6,0,B|264:360|311:352|338:309|338:309|357:356|401:372|448:364,1,270.000010299683,2|0,0:0|0:0,0:0:0:0:
511,324,153730,2,0,P|514:296|465:251,1,90.0000034332277
366,228,153968,6,0,B|327:234|289:221|274:181|274:181|251:217|212:224|175:211,1,225,10|0,0:0|0:0,0:0:0:0:
112,250,154206,2,0,P|78:219|74:167,1,90.0000034332277
129,77,154444,6,0,B|159:87|190:83|208:53|208:53|221:85|250:95|282:91,1,180,2|0,0:0|0:0,0:0:0:0:
337,41,154682,2,0,P|367:58|383:102,1,60
366,228,154920,6,0,B|334:232|305:222|292:190|292:190|274:220|243:224|213:214,1,180,10|0,0:0|0:0,0:0:0:0:
168,155,155158,2,0,P|135:166|112:207,1,60
130,310,155396,6,0,B|169:351|204:357|255:330|262:299|262:299|199:328|150:290,1,270.000010299683,2|0,0:0|0:0,0:0:0:0:
124,229,155634,2,0,L|119:185,1,45.0000017166138
298,145,155753,2,0,L|292:189,1,45.0000017166138
130,310,155872,6,0,B|90:267|77:210|102:153|168:117|168:117|167:177,1,270.000010299683,10|0,0:0|0:0,0:0:0:0:
213,214,156110,2,0,L|207:258,1,45.0000017166138
19,303,156230,2,0,L|13:258,1,45.0000017166138
28,129,156349,2,0,L|33:84,1,45.0000017166138,2|0,0:0|0:0,0:0:0:0:
168,208,156468,2,0,L|213:214,1,45.0000017166138
298,145,156587,6,0,B|317:67|252:8|200:16|200:16|195:57|226:70|256:76,1,270.000010299683
317,65,156825,6,0,B|366:77|456:42|456:42|407:73|402:158|452:191,1,315.000012016297,12|0,0:0|0:0,0:0:0:0:
511,228,157301,6,0,P|451:196|197:247,1,270.000010299683,2|0,0:0|0:0,0:0:0:0:
212,264,157539,2,0,B|206:310|206:310|215:352,1,90.0000034332277
434,318,157777,6,0,P|362:234|255:206,1,225,10|0,0:0|0:0,0:0:0:0:
212,264,158015,2,0,B|173:283|173:283|126:290,1,90.0000034332277
10,188,158253,6,0,P|31:122|144:127,1,180,2|0,0:0|0:0,0:0:0:0:
170,180,158491,2,0,B|208:199|208:199|255:206,1,90.0000034332277
510,115,158730,6,0,P|489:49|376:54,1,180,10|0,0:0|0:0,0:0:0:0:
350,107,158968,2,0,B|311:126|311:126|264:133,1,90.0000034332277
183,19,159206,6,0,B|136:95|136:95|169:178,1,180,2|0,0:0|0:0,0:0:0:0:
209,199,159444,1,2,0:0:0:0:
350,107,159563,1,2,0:0:0:0:
182,99,159682,1,2,0:0:0:0:
313,204,159801,1,2,0:0:0:0:
172,296,159920,1,2,0:0:0:0:
340,304,160039,1,2,0:0:0:0:
209,199,160158,5,2,0:0:0:0:
253,361,160277,1,2,0:0:0:0:
313,204,160396,1,2,0:0:0:0:
172,296,160515,1,2,0:0:0:0:
269,42,160634,5,14,0:0:0:0:
56,113,161110,5,6,0:0:0:0:
70,272,161468,1,0,0:0:0:0:
70,272,161825,1,0,0:0:0:0:
56,113,162183,1,0,0:0:0:0:
108,63,162539,5,0,0:0:0:0:
19,323,162777,1,0,0:0:0:0:
255,312,163015,5,0,0:0:0:0:
241,152,163373,1,0,0:0:0:0:
241,152,163730,1,0,0:0:0:0:
255,312,164088,1,0,0:0:0:0:
203,362,164444,5,2,0:0:0:0:
292,102,164682,1,0,0:0:0:0:
455,113,164920,5,6,0:0:0:0:
441,272,165278,1,0,0:0:0:0:
441,272,165635,1,0,0:0:0:0:
455,113,165991,1,0,0:0:0:0:
404,63,166349,5,0,0:0:0:0:
493,323,166587,1,0,0:0:0:0:
160,288,166825,5,0,0:0:0:0:
352,224,167182,1,0,0:0:0:0:
160,160,167539,1,0,0:0:0:0:
352,96,167896,1,0,0:0:0:0:
288,64,168015,1,2,0:3:0:0:
160,160,168253,5,0,0:0:0:0:
224,128,168372,1,2,0:3:0:0:
291,150,168491,1,2,0:3:0:0:
11,315,168730,5,2,0:0:0:0:
35,70,168968,2,0,P|45:112|38:155,1,60,2|0,0:0|0:0,0:0:0:0:
11,315,169206,5,2,0:0:0:0:
154,114,169444,2,0,P|141:155|114:189,1,60,2|0,0:0|0:0,0:0:0:0:
11,315,169682,5,2,0:0:0:0:
235,212,169920,2,0,P|203:241|162:257,1,60,2|0,0:0|0:0,0:0:0:0:
11,315,170158,5,2,0:0:0:0:
197,348,170396,2,0,P|227:347|256:339,1,60,2|0,0:0|0:0,0:0:0:0:
501,315,170634,5,2,0:0:0:0:
477,70,170872,2,0,P|467:112|474:155,1,60,2|0,0:0|0:0,0:0:0:0:
501,315,171110,5,2,0:0:0:0:
358,114,171348,2,0,P|370:155|397:189,1,60,2|0,0:0|0:0,0:0:0:0:
501,315,171586,5,2,0:0:0:0:
277,212,171824,2,0,P|308:241|349:257,1,60,2|0,0:0|0:0,0:0:0:0:
501,315,172062,5,2,0:0:0:0:
256,339,172300,2,0,P|298:349|341:342,1,60,2|0,0:0|0:0,0:0:0:0:
416,224,172539,5,2,0:0:0:0:
427,104,172658,1,2,0:0:0:0:
349,11,172777,1,2,0:0:0:0:
229,0,172896,1,2,0:0:0:0:
136,77,173015,5,2,0:0:0:0:
127,173,173134,1,2,0:0:0:0:
189,247,173253,1,2,0:0:0:0:
285,256,173372,1,2,0:0:0:0:
359,194,173491,5,2,0:0:0:0:
366,117,173610,1,2,0:0:0:0:
316,58,173729,1,2,0:0:0:0:
239,50,173848,1,2,0:0:0:0:
178,98,173968,5,2,0:0:0:0:
172,159,174087,1,2,0:0:0:0:
212,206,174206,1,2,0:0:0:0:
274,213,174325,1,2,0:0:0:0:
322,174,174444,6,0,L|190:185,1,120
152,134,174682,1,0,0:0:0:0:
112,304,174801,2,0,L|100:172,1,120
274,213,175039,5,0,0:0:0:0:
263,332,175158,1,0,0:0:0:0:
274,213,175277,1,0,0:0:0:0:
374,284,175396,5,0,0:0:0:0:
216,270,175515,1,0,0:0:0:0:
374,284,175634,1,0,0:0:0:0:
216,270,175753,1,0,0:0:0:0:
152,134,175872,5,0,0:0:0:0:
310,120,175991,1,0,0:0:0:0:
152,134,176110,1,0,0:0:0:0:
310,120,176229,1,0,0:0:0:0:
46,37,176349,5,2,0:0:0:0:
72,116,176825,6,0,L|36:133,3,30
69,197,177301,6,0,L|33:214,3,30
66,278,177777,5,0,0:0:0:0:
67,283,177896,1,0,0:0:0:0:
67,288,178015,1,0,0:0:0:0:
67,293,178134,1,0,0:0:0:0:
133,328,178253,5,0,0:0:0:0:
134,333,178372,1,0,0:0:0:0:
134,338,178491,1,0,0:0:0:0:
134,343,178610,1,0,0:0:0:0:
208,348,178730,5,0,0:0:0:0:
208,353,178849,1,0,0:0:0:0:
277,323,178968,6,0,B|434:308|434:308|354:337,1,240
361,340,179325,1,0,0:0:0:0:
350,244,179444,1,0,0:0:0:0:
414,172,179563,1,0,0:0:0:0:
413,76,179682,5,0,0:0:0:0:
412,69,179801,2,0,L|434:311,1,240
433,308,180158,6,0,B|467:233|467:233|321:136|321:136|338:81,1,315.000003004074,2|0,0:0|0:0,0:0:0:0:
338,81,180396,6,0,L|348:200,1,120
357,279,180634,5,10,0:0:0:0:
361,283,180872,6,0,L|355:342,1,60
253,167,180991,2,0,L|258:226,1,60
194,336,181110,5,2,0:0:0:0:
62,320,181230,1,0,0:0:0:0:
41,189,181349,1,0,0:0:0:0:
173,205,181469,1,0,0:0:0:0:
339,179,181587,5,10,0:0:0:0:
471,195,181707,1,0,0:0:0:0:
450,64,181826,1,0,0:0:0:0:
318,48,181944,1,0,0:0:0:0:
239,126,182063,6,0,B|249:180|249:180|177:159|177:159|168:110,1,180,2|0,0:0|0:0,0:0:0:0:
107,60,182301,2,0,B|117:5|117:5|45:26|45:26|36:75,1,180
93,228,182539,1,10,0:0:0:0:
93,148,182658,6,0,L|50:154,1,30
21,263,182777,6,0,L|48:296,1,30
156,267,182896,6,0,L|171:227,1,30
244,230,183015,6,0,P|355:237|453:290,1,225,2|0,0:0|0:0,0:0:0:0:
453,290,183253,2,0,P|392:279|398:188,1,150
472,15,183491,6,0,P|487:3|477:19,1,53.9999983520508,14|0,0:0|0:0,0:0:0:0:
497,94,183968,6,0,B|483:41|428:38|428:38|279:31|279:31|317:34|342:57,1,315.000003004074,6|0,0:0|0:0,0:0:0:0:
383,202,184206,6,0,B|430:164|430:164|412:108,1,120
207,20,184444,5,10,0:0:0:0:
211,24,184682,6,0,L|151:17,1,60
20,196,184801,2,0,L|79:189,1,60
168,98,184920,5,2,0:0:0:0:
91,187,185039,1,0,0:0:0:0:
52,76,185158,1,0,0:0:0:0:
206,209,185277,1,0,0:0:0:0:
372,60,185396,5,10,0:0:0:0:
420,261,185515,1,0,0:0:0:0:
492,127,185634,1,0,0:0:0:0:
298,192,185753,1,0,0:0:0:0:
224,360,185872,6,0,B|189:293|88:281|25:316|25:316|62:346,1,270.000010299683,2|0,0:0|0:0,0:0:0:0:
140,318,186110,6,0,P|191:347|250:344,1,120
507,306,186349,1,10,0:0:0:0:
511,310,186587,6,0,L|506:370,1,60
372,298,186706,2,0,L|367:238,1,60
495,114,186825,5,2,0:0:0:0:
453,246,186944,1,0,0:0:0:0:
370,139,187063,1,0,0:0:0:0:
412,7,187182,1,0,0:0:0:0:
499,118,187301,6,0,B|398:108|398:108|386:112|386:112|274:101,1,225,10|0,0:0|0:0,0:0:0:0:
211,69,187539,6,0,B|216:1|216:1|277:30,1,135.000005149841
279,105,187777,6,0,B|307:186|307:186|261:287|261:287|235:218,1,270.000010299683,2|0,0:0|0:0,0:0:0:0:
164,148,188015,6,0,B|133:129|133:129|214:146,1,120
446,177,188253,5,10,0:0:0:0:
450,181,188491,6,0,L|445:240,1,60
477,79,188610,2,0,L|417:83,1,60
332,85,188730,5,2,0:0:0:0:
323,169,188849,1,0,0:0:0:0:
235,218,188968,5,0,0:0:0:0:
226,302,189087,1,0,0:0:0:0:
319,371,189206,5,10,0:0:0:0:
333,254,189325,1,0,0:0:0:0:
225,133,189444,5,0,0:0:0:0:
239,16,189563,1,0,0:0:0:0:
370,83,189682,6,0,B|423:98|423:98|429:96|429:96|485:110,1,120
477,83,189920,2,0,B|424:98|424:98|418:96|418:96|361:110,1,120
424,14,190158,6,0,L|421:343,1,330.000003147125,8|0,0:0|0:0,0:0:0:0:
421,344,190515,6,0,L|361:337,1,60
455,218,190634,1,2,0:0:0:0:
454,226,190872,5,8,0:1:0:0:
370,237,190991,1,2,0:1:0:0:
292,268,191110,1,8,0:1:0:0:
208,279,191229,1,2,0:1:0:0:
130,310,191349,1,8,0:1:0:0:
46,321,191468,1,2,0:1:0:0:
164,384,191587,6,0,B|189:346|189:346|153:167|153:167|171:129,1,270.000010299683,2|0,0:0|0:0,0:0:0:0:
170,129,191825,6,0,B|217:167|217:167|270:141,1,120
306,22,192063,5,10,0:0:0:0:
343,171,192182,6,0,L|340:222,1,30
415,174,192301,2,0,L|412:225,1,30
487,177,192420,2,0,L|484:228,1,30
310,26,192539,5,2,0:0:0:0:
382,78,192658,1,0,0:0:0:0:
382,78,192718,1,0,0:0:0:0:
382,78,192777,2,0,L|379:129,1,30
454,81,192896,2,0,L|451:132,1,30
314,30,193015,5,10,0:0:0:0:
347,175,193134,6,0,L|344:226,1,30
419,178,193253,2,0,L|416:229,1,30
491,181,193372,2,0,L|488:232,1,30
473,296,193491,6,0,B|377:304|377:304|346:323|346:323|313:309|313:309|211:318,1,270.000010299683,2|0,0:0|0:0,0:0:0:0:
212,318,193730,6,0,B|183:277|183:277|115:295,1,120
15,196,193968,5,10,0:0:0:0:
50,68,194087,6,0,L|47:17,1,30
122,65,194206,2,0,L|119:14,1,30
194,62,194325,2,0,L|191:11,1,30
19,200,194444,5,2,0:0:0:0:
89,161,194563,1,0,0:0:0:0:
89,161,194623,1,0,0:0:0:0:
89,161,194682,2,0,L|86:110,1,30
161,158,194801,2,0,L|158:107,1,30
23,204,194920,6,0,B|16:256|89:299|138:242|138:242|209:245,1,225,10|0,0:0|0:0,0:0:0:0:
204,248,195158,6,0,B|275:272|275:272|263:194,1,150
278,52,195396,6,0,B|257:-50|183:68|330:144,1,225,2|0,0:0|0:0,0:0:0:0:
330,144,195634,6,0,L|336:114,1,30
403,161,195753,2,0,L|409:131,1,30
267,193,195872,5,10,0:0:0:0:
419,262,195991,6,0,L|412:232,1,30
346,279,196110,2,0,L|339:249,1,30
273,296,196230,2,0,L|266:266,1,30
496,269,196349,6,0,B|516:166|590:285|443:361,1,225,2|0,0:0|0:0,0:0:0:0:
444,361,196587,6,0,L|437:331,1,30
371,378,196706,2,0,L|364:348,1,30
271,197,196825,5,10,0:0:0:0:
417,236,196944,6,0,L|423:265,1,30
344,253,197063,2,0,L|350:282,1,30
271,270,197183,2,0,L|277:299,1,30
196,353,197301,6,0,B|115:334|115:334|100:323|100:323|24:305,2,180.000006866455,2|0|10,0:0|0:0|0:0,0:0:0:0:
200,357,197896,6,0,L|193:326,1,30
164,244,198015,6,0,L|171:213,1,30
200,131,198134,6,0,L|193:100,1,30
91,123,198253,6,0,B|280:166,1,180,2|0,0:0|0:0,0:0:0:0:
270,165,198491,6,0,B|311:148|311:148|360:163,1,90.0000034332277
387,284,198730,6,0,P|422:289|458:300,1,75,14|0,0:0|0:0,0:0:0:0:
476,282,198849,2,0,P|439:291|402:298,1,75
359,270,198968,2,0,P|396:275|431:287,1,75
502,315,199087,2,0,P|464:312|428:301,1,75
378,374,199206,6,0,B|438:379|467:316|432:262|432:262|397:209|426:146|486:151,1,315.000003004074,6|0,0:0|0:0,0:0:0:0:
485,150,199444,6,0,P|440:186|384:171,1,120
198,22,199682,5,10,0:0:0:0:
169,171,199801,6,0,L|172:222,1,30
97,174,199920,2,0,L|100:225,1,30
25,177,200039,2,0,L|28:228,1,30
202,26,200158,5,2,0:0:0:0:
130,78,200277,1,0,0:0:0:0:
130,78,200337,1,0,0:0:0:0:
130,78,200396,2,0,L|133:129,1,30
58,81,200515,2,0,L|61:132,1,30
206,30,200634,5,10,0:0:0:0:
173,175,200753,6,0,L|176:226,1,30
101,178,200872,2,0,L|104:229,1,30
29,181,200991,2,0,L|32:232,1,30
217,107,201110,6,0,B|244:152|244:152|188:304|188:304|217:352,1,270.000010299683,2|0,0:0|0:0,0:0:0:0:
216,351,201349,6,0,B|277:357|277:357|329:320,1,120
497,196,201587,5,10,0:0:0:0:
462,68,201706,6,0,L|465:17,1,30
390,65,201825,2,0,L|393:14,1,30
318,62,201944,2,0,L|321:11,1,30
493,200,202063,5,2,0:0:0:0:
423,161,202182,1,0,0:0:0:0:
423,161,202242,1,0,0:0:0:0:
423,161,202301,2,0,L|426:110,1,30
351,158,202420,2,0,L|354:107,1,30
497,204,202539,6,0,B|487:256|487:256|489:279|489:279|477:298|477:298|462:374|462:374|459:345|443:330,1,225,10|0,0:0|0:0,0:0:0:0:
448,334,202777,6,0,B|407:323|393:287|393:287|394:326|361:352,1,150
150,188,203015,6,0,B|127:220|85:221|85:221|15:274|52:378|159:363,1,299.700007316895,2|0,0:0|0:0,0:0:0:0:
152,363,203253,2,0,B|197:287|171:170|98:118|98:118|86:151,1,299.700007316895
90,143,203491,5,14,0:0:0:0:
256,384,203730,6,0,L|256:344,1,30
256,280,203849,2,0,L|256:240,1,30
358,364,203968,6,0,B|459:378|496:274|426:221|426:221|386:222|361:188,1,299.700007316895
421,145,204206,2,0,B|412:119|412:119|339:172|313:288|358:364,1,299.700007316895
362,367,204444,5,14,0:0:0:0:
389,288,204563,6,0,L|359:282,1,30
256,176,204682,2,0,L|256:136,1,30
123,288,204801,2,0,L|152:282,1,30
256,250,204920,5,6,0:0:0:0:
205,53,205158,1,2,0:3:0:0:
218,41,205277,1,2,0:3:0:0:
294,41,205396,1,8,0:3:0:0:
307,53,205515,1,0,0:0:0:0:
360,158,205753,5,0,0:3:0:0:
436,144,205872,1,8,0:3:0:0:
469,235,206110,5,8,0:3:0:0:
393,249,206229,1,0,0:3:0:0:
426,340,206468,5,0,0:3:0:0:
502,326,206587,1,8,0:3:0:0:
232,237,206825,6,0,P|289:288|309:363,1,155.999992858887,2|0,0:0|0:0,0:0:0:0:
132,231,207182,2,0,P|75:282|57:357,1,155.999992858887
57,357,207539,6,0,P|114:306|132:231,1,155.999992858887
137,131,207896,2,0,P|62:113|10:56,1,155.999992858887
236,136,208253,6,0,P|253:61|310:9,1,156.000003173828
301,1,208491,2,0,P|284:76|227:128,1,156.000003173828
411,2,208730,6,0,L|431:246,1,234.000000892639,2|0,0:0|0:0,0:0:0:0:
430,235,209087,6,0,P|450:159|420:79,1,155.999992858887
292,229,209444,6,0,P|272:305|302:385,1,155.999992858887
181,298,209801,2,0,P|105:278|25:308,1,155.999992858887
112,187,210158,6,0,P|132:111|102:31,1,155.999992858887
116,31,210396,2,0,P|96:107|126:187,1,155.999992858887
239,31,210634,6,2,P|365:39|474:70,3,240,2|0|0|0,0:0|0:0|0:0|0:0,0:0:0:0:
432,336,211587,5,10,0:0:0:0:
304,296,211706,1,2,0:0:0:0:
312,160,211825,1,2,0:0:0:0:
440,200,211944,1,2,0:0:0:0:
316,164,212063,5,10,0:0:0:0:
180,188,212182,1,2,0:0:0:0:
76,100,212301,1,2,0:0:0:0:
184,192,212420,1,2,0:0:0:0:
141,339,212539,5,10,0:0:0:0:
446,15,212777,1,8,0:3:0:0:
371,45,212896,5,0,0:0:0:0:
432,352,213134,1,2,0:1:0:0:
383,290,213253,5,2,0:1:0:0:
348,298,213372,1,2,0:1:0:0:
288,237,213491,5,2,0:1:0:0:
230,254,213610,1,2,0:1:0:0:
169,252,213730,1,2,0:1:0:0:
111,270,213849,1,2,0:1:0:0:
217,341,213968,5,0,0:0:0:0:
295,43,214087,1,8,0:1:0:0:
295,341,214206,1,8,0:1:0:0:
217,43,214325,1,8,0:1:0:0:
123,176,214444,6,0,B|248:170|248:170|255:166|255:166|391:161,1,270.000010299683,2|0,0:0|0:0,0:0:0:0:
471,141,214682,6,0,B|472:51|472:51|387:81,1,180.000006866455
392,362,214920,1,10,0:0:0:0:
442,242,215039,1,0,0:0:0:0:
357,276,215158,1,0,0:0:0:0:
477,326,215277,1,0,0:0:0:0:
159,297,215396,5,2,0:0:0:0:
303,332,215515,1,0,0:0:0:0:
369,201,215634,1,0,0:0:0:0:
225,166,215753,1,0,0:0:0:0:
147,114,215872,5,10,0:0:0:0:
63,134,215991,1,0,0:0:0:0:
24,58,216110,1,0,0:0:0:0:
108,37,216229,1,0,0:0:0:0:
229,170,216349,6,0,B|429:140|429:140|356:127,1,270.000010299683,2|0,0:0|0:0,0:0:0:0:
299,73,216587,6,0,B|216:70|216:70|277:83,1,120
392,217,216825,5,10,0:0:0:0:
479,309,216944,1,0,0:0:0:0:
344,277,217063,1,0,0:0:0:0:
512,246,217182,1,0,0:0:0:0:
318,354,217301,5,2,0:0:0:0:
216,220,217420,1,0,0:0:0:0:
48,241,217539,1,0,0:0:0:0:
150,375,217658,1,0,0:0:0:0:
125,154,217777,6,0,P|121:122|131:153,1,90,10|0,0:0|0:0,0:0:0:0:
143,171,218015,6,0,P|135:101|137:173,1,225,0|8,0:0|0:0,0:0:0:0:
220,224,218253,6,0,B|250:141|343:155|343:155|367:213|432:213,1,270.000010299683,2|0,0:0|0:0,0:0:0:0:
439,137,218491,6,0,P|458:121|436:137,1,120
311,245,218730,5,10,0:0:0:0:
350,80,218849,1,0,0:0:0:0:
432,214,218968,6,0,B|422:359|422:359|416:312,1,180
345,325,219206,2,0,B|271:334|271:334|255:326|255:326|136:341,1,180,2|0,0:0|0:0,0:0:0:0:
184,350,219444,2,0,L|193:260,1,90.0000034332277
75,95,219682,6,0,L|30:102,1,45.0000017166138,10|0,0:0|0:0,0:0:0:0:
239,115,219801,2,0,L|282:103,1,45.0000017166138
105,165,219920,6,0,L|67:189,1,45.0000017166138
208,48,220039,2,0,L|243:20,1,45.0000017166138
45,14,220158,6,0,B|139:34|139:34|76:324|76:324|128:231,1,480,2|10,0:0|0:0,0:0:0:0:
186,177,220753,1,0,0:0:0:0:
190,181,220872,1,0,0:0:0:0:
194,185,220991,1,0,0:0:0:0:
207,316,221110,6,0,B|363:339|363:339|344:326,1,180,2|0,0:0|0:0,0:0:0:0:
288,249,221349,2,0,B|278:200|278:200|279:189|279:189|266:131,1,120
346,52,221587,5,10,0:0:0:0:
369,57,221706,1,0,0:0:0:0:
359,47,221825,1,0,0:0:0:0:
355,61,221944,1,0,0:0:0:0:
497,59,222063,6,0,B|331:6|388:99|233:49,1,270.000010299683,4|0,0:0|0:0,0:0:0:0:
162,17,222301,6,0,P|123:12|159:22,1,120
237,53,222539,5,2,0:0:0:0:
127,104,222658,1,0,0:0:0:0:
227,174,222777,1,0,0:0:0:0:
216,295,222896,1,0,0:0:0:0:
327,245,223015,5,10,0:0:0:0:
507,161,223134,1,0,0:0:0:0:
313,123,223253,1,0,0:0:0:0:
447,268,223372,1,0,0:0:0:0:
424,71,223491,5,0,0:0:0:0:
404,174,223610,1,0,0:0:0:0:
317,127,223730,1,0,0:0:0:0:
337,24,223849,1,0,0:0:0:0:
214,11,223968,6,0,B|229:88|229:88|240:106|240:106|236:128|236:128|255:219|255:219|243:191|226:174,1,270.000010299683,2|0,0:0|0:0,0:0:0:0:
158,138,224206,2,0,L|132:15,1,120
76,187,224444,5,2,0:0:0:0:
136,348,224563,1,0,0:0:0:0:
164,220,224682,1,0,0:0:0:0:
48,315,224801,1,0,0:0:0:0:
257,221,224920,5,10,0:0:0:0:
457,295,225039,1,0,0:0:0:0:
290,308,225158,1,0,0:0:0:0:
491,209,225277,1,0,0:0:0:0:
344,108,225396,6,0,P|373:244|370:382,1,270.000010299683,2|0,0:0|0:0,0:0:0:0:
360,293,225634,6,0,P|369:234|389:178,1,120
422,24,225872,6,0,B|359:29|359:29|323:19|323:19|275:60|275:60|232:51|232:51|169:60,1,270.000010299683,10|0,0:0|0:0,0:0:0:0:
120,0,226110,2,0,B|74:36|74:36|100:92,1,120
74,260,226349,1,2,0:0:0:0:
164,136,226468,1,0,0:0:0:0:
29,178,226587,2,0,B|104:187|104:187|129:208|129:208|207:218,1,180
204,221,226825,2,0,B|239:240|239:240|213:333|213:333|248:358,1,180,10|0,0:0|0:0,0:0:0:0:
252,362,227063,6,0,L|311:355,1,60
451,290,227301,1,2,0:0:0:0:
356,212,227420,1,0,0:0:0:0:
504,113,227539,1,0,0:0:0:0:
305,78,227658,1,0,0:0:0:0:
512,35,227777,6,0,P|380:68|271:182,1,288,10|0,0:0|0:0,0:0:0:0:
221,238,228015,2,0,P|324:237|374:168,1,192,2|0,0:0|0:0,0:0:0:0:
378,40,228253,6,0,L|373:15,1,24,2|2,0:0|0:0,0:0:0:0:
301,74,228610,1,2,0:0:0:0:
305,78,228730,5,10,0:0:0:0:
230,114,228849,1,0,0:0:0:0:
154,78,228968,2,0,L|90:75,2,60
155,160,229325,2,0,L|96:158,2,60
49,277,229682,6,0,B|13:280|13:280|22:231|97:214|142:253|142:253|221:235,1,270.000010299683,2|0,0:0|0:0,0:0:0:0:
217,236,229920,6,0,B|191:291|191:291|231:338,1,120
415,259,230158,5,10,0:0:0:0:
351,349,230277,6,0,L|375:332,1,30
297,283,230396,2,0,L|342:274,1,30
321,202,230515,2,0,L|350:207,1,30
419,263,230634,5,2,0:0:0:0:
405,145,230753,1,0,0:0:0:0:
405,145,230813,1,0,0:0:0:0:
405,145,230872,2,0,L|375:139,1,30
428,63,230991,2,0,L|383:72,1,30
423,267,231110,5,10,0:0:0:0:
325,206,231230,6,0,L|354:211,1,30
301,287,231349,2,0,L|330:281,1,30
355,353,231468,2,0,L|379:336,1,30
427,271,231587,6,0,B|331:282|331:282|298:270|298:270|268:290|268:290|166:302,1,270.000010299683,2|0,0:0|0:0,0:0:0:0:
154,375,231825,6,0,B|97:356|97:356|92:295,1,120
91,119,232063,5,10,0:0:0:0:
161,35,232182,6,0,L|137:52,1,30
215,101,232301,2,0,L|170:110,1,30
191,182,232420,2,0,L|162:177,1,30
95,123,232539,5,2,0:0:0:0:
107,239,232658,1,0,0:0:0:0:
107,239,232718,1,0,0:0:0:0:
107,239,232777,2,0,L|137:245,1,30
84,321,232896,2,0,L|129:312,1,30
99,127,233015,6,0,B|192:123|192:123|230:146|230:146|324:139,1,225,10|0,0:0|0:0,0:0:0:0:
317,139,233253,6,0,B|304:32|304:32|284:69,1,150
233,374,233491,6,0,B|263:321|239:266|239:266|276:314|336:314,1,225,10|0,0:0|0:0,0:0:0:0:
336,314,233730,6,0,L|342:344,1,30,2|0,0:0|0:0,0:0:0:0:
409,297,233848,2,0,L|415:327,1,30
260,190,233967,5,0,0:0:0:0:
502,206,234086,6,0,L|495:236,1,30
429,189,234205,2,0,L|422:219,1,30
356,172,234325,2,0,L|349:202,1,30
509,128,234444,6,0,B|478:75|502:20|502:20|465:68|405:68,1,225,10|0,0:0|0:0,0:0:0:0:
405,67,234683,6,0,L|399:97,1,30,2|0,0:0|0:0,0:0:0:0:
332,50,234801,2,0,L|326:80,1,30
264,194,234920,5,0,0:0:0:0:
360,176,235039,6,0,L|353:206,1,30
433,193,235158,2,0,L|426:223,1,30
506,210,235278,2,0,L|499:240,1,30
313,302,235396,6,0,B|390:313|390:313|406:322|406:322|488:334,2,180.000006866455,2|0|10,0:0|0:0|0:0,0:0:0:0:
317,306,235991,6,0,L|287:311,1,30
211,357,236110,6,0,L|183:344,1,30
95,335,236230,6,0,L|80:308,1,30
28,239,236349,6,0,L|51:32,1,180,2|0,0:0|0:0,0:0:0:0:
47,60,236587,6,0,B|21:113|21:113|47:167,1,120
191,73,236825,6,0,P|223:54|251:29,1,75,10|0,0:0|0:0,0:0:0:0:
317,53,236944,2,0,P|279:55|243:65,1,75
200,50,237063,2,0,P|237:44|274:45,1,75
298,68,237182,2,0,P|262:56|229:39,1,75
122,25,237301,6,0,B|192:7|256:49|256:49|285:110|357:123,1,270.000010299683,2|0,0:0|0:0,0:0:0:0:
385,197,237539,2,0,P|326:195|272:171,1,120
96,255,237777,5,10,0:0:0:0:
161,349,237896,6,0,L|137:332,1,30
215,283,238015,2,0,L|170:274,1,30
191,202,238134,2,0,L|162:207,1,30
100,259,238253,5,2,0:0:0:0:
107,145,238372,1,0,0:0:0:0:
107,145,238432,1,0,0:0:0:0:
107,145,238491,2,0,L|137:139,1,30
84,63,238610,2,0,L|129:72,1,30
104,263,238729,5,10,0:0:0:0:
195,206,238849,6,0,L|166:211,1,30
219,287,238968,2,0,L|190:281,1,30
165,353,239087,2,0,L|141:336,1,30
51,205,239206,6,0,L|273:236,1,225,10|0,0:0|0:0,0:0:0:0:
274,237,239444,6,0,B|309:288|309:288|357:252,1,120
421,127,239682,5,10,0:0:0:0:
351,35,239801,6,0,L|375:52,1,30
297,101,239920,2,0,L|342:110,1,30
321,182,240039,2,0,L|350:177,1,30
417,131,240158,5,2,0:0:0:0:
405,239,240277,1,0,0:0:0:0:
405,239,240337,1,0,0:0:0:0:
405,239,240396,2,0,L|375:245,1,30
428,321,240515,2,0,L|383:312,1,30
505,187,240634,6,0,B|495:135|495:135|497:112|497:112|485:93|485:93|470:17|470:17|467:46|451:61,1,225,10|0,0:0|0:0,0:0:0:0:
454,65,240872,6,0,B|413:76|399:112|399:112|400:73|367:47,1,150
32,216,241110,6,0,B|80:183|129:216|129:216|165:167|137:110|121:135|96:81|130:26,1,306.000005836487,10|0,0:0|0:0,0:0:0:0:
189,78,241349,2,0,B|84:105|38:178|67:293|67:293|84:267,1,306.000005836487,2|0,0:0|0:0,0:0:0:0:
84,276,241587,5,2,0:0:0:0:
256,16,241825,6,0,L|256:64,1,30,2|0,0:0|0:0,0:0:0:0:
256,120,241944,2,0,L|256:168,1,30
382,26,242063,6,0,B|416:81|391:135|375:110|347:167|383:216|383:216|432:183|480:216,1,306.000005836487,10|0,0:0|0:0,0:0:0:0:
433,273,242302,2,0,B|446:293|446:293|475:178|429:105|322:78,1,306.000005836487,2|0,0:0|0:0,0:0:0:0:
323,78,242539,5,2,0:0:0:0:
383,216,242658,6,0,P|374:203|364:192,1,30
256,224,242777,2,0,L|256:272,1,30
129,216,242896,2,0,P|137:203|147:192,1,30
256,120,243015,5,8,0:0:0:0:
307,331,243253,1,2,0:3:0:0:
294,343,243372,1,0,0:3:0:0:
218,343,243491,1,2,0:3:0:0:
205,331,243610,1,0,0:0:0:0:
152,226,243848,5,0,0:0:0:0:
76,240,243967,1,8,0:3:0:0:
43,149,244205,5,0,0:0:0:0:
119,135,244324,1,0,0:0:0:0:
86,44,244563,5,0,0:0:0:0:
10,58,244682,1,8,0:3:0:0:
448,16,244920,5,14,0:0:0:0:
432,96,245277,1,0,0:0:0:0:
416,176,245634,1,0,0:0:0:0:
400,256,245991,1,0,0:0:0:0:
448,16,246349,5,0,0:0:0:0:
400,256,246587,1,0,0:0:0:0:
352,48,246825,5,0,0:0:0:0:
336,128,247182,1,0,0:0:0:0:
320,208,247539,1,0,0:0:0:0:
304,288,247896,1,0,0:0:0:0:
352,48,248254,5,0,0:0:0:0:
304,288,248492,1,0,0:0:0:0:
256,80,248730,5,0,0:0:0:0:
240,160,249087,1,0,0:0:0:0:
224,240,249444,1,0,0:0:0:0:
208,320,249801,1,0,0:0:0:0:
256,80,250159,5,0,0:0:0:0:
208,320,250397,1,0,0:0:0:0:
160,112,250634,5,0,0:0:0:0:
144,192,250991,1,0,0:0:0:0:
128,272,251348,1,0,0:0:0:0:
112,352,251705,1,0,0:0:0:0:
160,112,252063,5,0,0:0:0:0:
112,352,252301,1,0,0:0:0:0:
32,16,252539,5,10,0:0:0:0:
48,128,252896,1,0,0:0:0:0:
64,240,253253,1,0,0:0:0:0:
80,352,253610,1,0,0:0:0:0:
32,16,253968,5,0,0:0:0:0:
80,352,254206,1,0,0:0:0:0:
128,16,254444,5,0,0:0:0:0:
144,128,254801,1,0,0:0:0:0:
160,240,255158,1,0,0:0:0:0:
176,352,255515,1,0,0:0:0:0:
128,16,255873,5,0,0:0:0:0:
176,352,256111,1,0,0:0:0:0:
224,16,256349,5,0,0:0:0:0:
240,128,256706,1,0,0:0:0:0:
256,240,257063,1,0,0:0:0:0:
272,352,257420,1,0,0:0:0:0:
224,16,257778,5,0,0:0:0:0:
272,352,258016,1,0,0:0:0:0:
320,16,258253,5,0,0:0:0:0:
332,124,258491,1,0,0:0:0:0:
336,128,258610,1,0,0:0:0:0:
348,236,258849,1,0,0:0:0:0:
352,240,258968,1,0,0:0:0:0:
360,296,259087,1,0,0:0:0:0:
368,352,259206,1,0,0:0:0:0:
430,304,259325,1,0,0:0:0:0:
488,252,259444,1,0,0:0:0:0:
432,173,259563,1,0,0:0:0:0:
320,16,259682,5,14,0:0:0:0:
