osu file format v14

[General]
AudioFilename: 302392.mp3
AudioLeadIn: 0
PreviewTime: -1
Countdown: 0
SampleSet: Soft
StackLeniency: 0.2
Mode: 0
LetterboxInBreaks: 0
WidescreenStoryboard: 1

[Editor]
Bookmarks: 29574,39174,65274,67974,77574,103974
DistanceSpacing: 1.4
BeatDivisor: 4
GridSize: 32
TimelineZoom: 1.7

[Metadata]
Title:DioSynth
TitleUnicode:DioSynth
Artist:Blackhole12
ArtistUnicode:Blackhole12
Creator:wantuol
Version:Hard
Source:Newgrounds
Tags:
BeatmapID:1837182
BeatmapSetID:406620

[Difficulty]
HPDrainRate:5
CircleSize:4
OverallDifficulty:7
ApproachRate:8.5
SliderMultiplier:1.2
SliderTickRate:1

[Events]
//Background and Video events
0,0,"1.jpg",0,0
//Break Periods
2,77474,86499
2,96974,103299
//Storyboard Layer 0 (Background)
//Storyboard Layer 1 (Fail)
//Storyboard Layer 2 (Pass)
//Storyboard Layer 3 (Foreground)
//Storyboard Sound Samples

[TimingPoints]
5574,300,4,2,1,65,1,0
10374,-100,4,2,2,65,0,0
19974,-100,4,2,2,85,0,1
39174,-100,4,2,1,65,0,0
48624,-100,4,2,2,85,0,1
58374,-100,4,2,1,50,0,0
87174,-100,4,2,1,85,0,0
103974,-100,4,2,2,55,0,0
105174,-100,4,2,2,65,0,0
106374,-100,4,2,2,85,0,0
115974,-100,4,2,2,85,0,1
138774,-100,4,2,1,15,0,0

[Colours]
Combo1 : 255,208,66
Combo2 : 0,255,255
Combo3 : 18,124,255
Combo4 : 128,0,255

[HitObjects]
48,80,5574,6,0,L|128:68,1,60,2|8,0:0|0:0,0:0:0:0:
320,28,6174,1,0,0:0:0:0:
309,212,6474,1,8,0:0:0:0:
309,212,6624,1,0,0:0:0:0:
248,268,6774,6,0,L|244:344,1,60,2|8,0:0|0:0,0:0:0:0:
20,312,7224,1,8,0:0:0:0:
20,312,7374,1,0,0:0:0:0:
148,244,7674,1,0,0:0:0:0:
124,312,7824,1,0,0:0:0:0:
124,312,7974,6,0,B|148:252|108:192,1,120,2|10,0:0|0:0,0:0:0:0:
60,148,8424,2,0,L|-16:160,1,60,0|8,0:0|0:0,0:0:0:0:
224,32,8874,2,0,P|254:43|273:68,1,60,8|0,0:0|0:0,0:0:0:0:
308,128,9174,6,0,L|317:268,1,120,2|8,0:0|0:0,0:0:0:0:
103,259,9774,2,0,L|93:128,1,120,0|8,0:0|0:0,0:0:0:0:
132,76,10224,1,0,0:0:0:0:
132,76,10374,6,0,P|189:60|268:80,1,120,6|8,0:0|0:0,0:0:0:0:
320,84,10824,1,0,0:0:0:0:
320,84,10974,2,0,P|384:100|452:88,1,120,0|8,0:0|0:0,0:0:0:0:
384,248,11574,6,0,L|320:264,1,60
260,316,11874,1,8,0:0:0:0:
260,316,12024,1,8,0:0:0:0:
200,260,12174,2,0,P|144:232|72:236,1,120
24,112,12774,6,0,P|17:80|24:41,1,60,2|0,0:0|0:0,0:0:0:0:
96,80,13074,2,0,L|168:80,1,60,8|0,0:0|0:0,0:0:0:0:
216,140,13374,2,0,P|292:148|344:128,1,120,0|8,0:0|0:0,0:0:0:0:
384,68,13824,1,0,0:0:0:0:
424,136,13974,6,0,L|440:280,1,120,2|8,0:0|0:0,0:0:0:0:
392,324,14424,1,0,0:0:0:0:
392,324,14574,2,0,L|324:327,1,60
276,264,14874,2,0,L|202:264,1,60,8|0,0:0|0:0,0:0:0:0:
152,316,15174,6,0,P|116:312|8:312,1,120,2|8,0:0|0:0,0:0:0:0:
0,232,15624,1,0,0:0:0:0:
60,172,15774,2,0,L|184:176,1,120,0|8,0:0|0:0,0:0:0:0:
264,180,16224,1,0,0:0:0:0:
264,180,16374,6,0,L|257:96,1,60,2|0,0:0|0:0,0:0:0:0:
244,36,16674,1,8,0:0:0:0:
244,36,16824,1,0,0:0:0:0:
352,64,16974,2,0,L|368:196,1,120,0|8,0:0|0:0,0:0:0:0:
308,340,17574,6,0,P|252:360|180:344,1,120,2|8,0:0|0:0,0:0:0:0:
140,288,18024,1,0,0:0:0:0:
140,288,18174,2,0,L|132:220,1,60
60,268,18474,2,0,L|52:204,1,60,8|0,0:0|0:0,0:0:0:0:
112,148,18774,6,0,P|101:99|88:7,1,120,2|8,0:0|0:0,0:0:0:0:
12,116,19224,1,0,0:0:0:0:
112,148,19374,2,0,L|248:124,1,120,0|8,0:0|0:0,0:0:0:0:
308,156,19824,1,0,0:0:0:0:
372,100,19974,6,0,P|420:92|456:104,1,60,2|0,0:0|0:0,0:0:0:0:
456,172,20274,1,8,0:0:0:0:
456,172,20424,1,0,0:0:0:0:
351,313,20574,2,0,L|366:377,1,60
325,240,20874,1,8,0:0:0:0:
325,240,21024,1,0,0:0:0:0:
251,281,21174,6,0,P|195:297|115:277,1,120,2|8,0:0|0:0,0:0:0:0:
32,112,21774,2,0,L|-20:104,2,30
36,128,22074,2,0,L|148:112,1,90,8|0,0:0|0:0,0:0:0:0:
168,120,22374,6,0,L|164:56,1,60,2|0,0:0|0:0,0:0:0:0:
259,169,22674,1,8,0:0:0:0:
259,169,22824,1,0,0:0:0:0:
431,51,22974,2,0,L|503:63,1,60
369,103,23274,1,8,0:0:0:0:
369,103,23424,1,0,0:0:0:0:
375,195,23574,6,0,L|383:319,1,120,2|8,0:0|0:0,0:0:0:0:
184,332,24174,2,0,L|180:288,2,30
164,320,24474,2,0,L|52:336,1,90,8|0,0:0|0:0,0:0:0:0:
40,312,24774,6,0,P|28:268|28:252,1,60,2|0,0:0|0:0,0:0:0:0:
68,180,25074,1,8,0:0:0:0:
68,180,25224,1,0,0:0:0:0:
248,193,25374,2,0,L|316:197,1,60
327,114,25674,1,8,0:0:0:0:
327,114,25824,1,0,0:0:0:0:
260,60,25974,6,0,L|140:67,1,120,2|8,0:0|0:0,0:0:0:0:
400,44,26574,2,0,L|356:44,2,30
384,28,26874,2,0,L|276:40,1,90,8|0,0:0|0:0,0:0:0:0:
260,60,27174,6,0,P|256:96|268:136,1,60,2|0,0:0|0:0,0:0:0:0:
324,176,27474,1,8,0:0:0:0:
324,176,27624,1,0,0:0:0:0:
374,355,27774,2,0,P|394:327|398:283,1,60
293,367,28074,1,8,0:0:0:0:
293,367,28224,1,0,0:0:0:0:
320,295,28374,6,0,L|324:163,1,120,2|8,0:0|0:0,0:0:0:0:
374,355,28824,1,0,0:0:0:0:
320,296,28974,2,0,P|268:280|192:292,1,120,0|8,0:0|0:0,0:0:0:0:
123,313,29424,1,0,0:0:0:0:
55,262,29574,6,0,L|68:134,1,120,2|8,0:0|0:0,0:0:0:0:
100,64,30024,1,0,0:0:0:0:
100,64,30174,2,0,L|34:71,1,60
212,142,30474,2,0,L|152:136,1,60,8|0,0:0|0:0,0:0:0:0:
305,65,30774,6,0,L|185:51,1,120,2|8,0:0|0:0,0:0:0:0:
464,99,31374,2,0,L|502:88,2,30
456,86,31674,2,0,L|465:190,1,90,8|0,0:0|0:0,0:0:0:0:
479,214,31974,6,0,P|427:231|400:222,1,60,2|0,0:0|0:0,0:0:0:0:
349,189,32274,1,8,0:0:0:0:
349,189,32424,1,0,0:0:0:0:
200,123,32574,2,0,P|163:120|116:134,1,60
171,202,32874,2,0,P|168:235|168:274,1,60,8|0,0:0|0:0,0:0:0:0:
252,196,33174,6,0,L|236:322,1,120,2|8,0:0|0:0,0:0:0:0:
24,185,33774,2,0,L|9:150,2,30
7,206,34074,2,0,L|107:200,1,90,8|0,0:0|0:0,0:0:0:0:
115,162,34374,6,0,P|122:129|114:91,1,60,2|0,0:0|0:0,0:0:0:0:
59,42,34674,1,8,0:0:0:0:
59,42,34824,1,0,0:0:0:0:
205,93,34974,2,0,P|204:123|200:158,1,60
275,43,35274,1,8,0:0:0:0:
275,43,35424,1,0,0:0:0:0:
284,131,35574,6,0,L|282:268,1,120,2|8,0:0|0:0,0:0:0:0:
423,343,36174,2,0,L|458:353,2,30
435,325,36474,2,0,L|328:334,1,90,8|0,0:0|0:0,0:0:0:0:
307,313,36774,6,0,L|185:318,1,120,2|8,0:0|0:0,0:0:0:0:
162,214,37224,1,0,0:0:0:0:
162,214,37374,2,0,L|289:209,1,120,0|8,0:0|0:0,0:0:0:0:
452,170,37974,6,0,P|463:94|446:39,1,120,2|8,0:0|0:0,0:0:0:0:
315,40,38424,1,0,0:0:0:0:
315,40,38574,2,0,P|300:94|314:171,1,120,0|8,0:0|0:0,0:0:0:0:
406,293,39174,6,0,L|267:310,1,120,2|8,0:0|0:0,0:0:0:0:
239,253,39624,2,0,L|159:242,1,60
79,348,40074,1,8,0:0:0:0:
0,194,40374,6,0,P|57:167|116:182,1,120,2|8,0:0|0:0,0:0:0:0:
169,238,40824,2,0,P|241:250|305:168,1,180,0|8,0:0|0:0,0:0:0:0:
421,52,41574,6,0,L|429:174,1,120,2|8,0:0|0:0,0:0:0:0:
345,161,42024,2,0,L|353:283,1,120
278,337,42474,1,8,0:0:0:0:
50,353,42774,6,0,P|39:294|60:220,1,120,0|8,0:0|0:0,0:0:0:0:
22,70,43374,2,0,L|14:136,1,60
14,129,43974,6,0,B|166:114|166:114|191:84,2,180,2|0|8,0:0|0:0|0:0,0:0:0:0:
164,203,45174,6,0,L|36:216,1,120,2|8,0:0|0:0,0:0:0:0:
40,299,45624,1,0,0:0:0:0:
40,299,45774,2,0,L|169:285,1,120,0|8,0:0|0:0,0:0:0:0:
315,347,46374,6,0,L|319:223,1,120,2|8,0:0|0:0,0:0:0:0:
398,254,46824,2,0,L|402:183,1,60
330,41,47274,1,8,0:0:0:0:
401,194,47574,6,0,L|259:200,1,120,2|8,0:0|0:0,0:0:0:0:
216,253,48024,1,0,0:0:0:0:
216,253,48174,2,0,L|96:261,1,120,0|8,0:0|0:0,0:0:0:0:
42,183,48624,1,0,0:0:0:0:
42,183,48699,1,0,0:0:0:0:
42,183,48774,6,0,P|37:143|90:74,1,120,2|8,0:0|0:0,0:0:0:0:
150,123,49224,2,0,L|295:113,1,120
331,56,49674,2,0,L|399:61,1,60,8|0,0:0|0:0,0:0:0:0:
458,109,49974,6,0,P|478:163|457:237,1,120,0|8,0:0|0:0,0:0:0:0:
403,278,50424,1,0,0:0:0:0:
334,229,50574,2,0,P|317:193|340:113,1,120,0|8,0:0|0:0,0:0:0:0:
408,67,51024,1,0,0:0:0:0:
408,67,51174,6,0,L|401:192,1,120,2|8,0:0|0:0,0:0:0:0:
334,229,51624,2,0,L|327:357,1,120
327,348,52074,1,8,0:0:0:0:
140,210,52374,6,8,L|137:68,1,120
79,29,52824,1,0,0:0:0:0:
8,75,52974,2,0,P|-14:117|5:190,1,120,0|8,0:0|0:0,0:0:0:0:
94,340,53574,6,0,L|238:330,1,120,0|8,0:0|0:0,0:0:0:0:
280,276,54174,1,0,0:0:0:0:
280,276,54249,1,0,0:0:0:0:
280,276,54324,2,0,L|351:272,1,60,0|8,0:0|0:0,0:0:0:0:
456,151,54774,6,0,L|458:28,1,120,0|8,0:0|0:0,0:0:0:0:
353,163,55374,1,0,0:0:0:0:
353,163,55449,1,0,0:0:0:0:
353,163,55524,2,0,L|345:88,1,60,0|8,0:0|0:0,0:0:0:0:
183,59,55974,6,0,L|47:68,1,120,0|8,0:0|0:0,0:0:0:0:
44,148,56424,2,0,L|172:139,1,120
179,220,56874,1,8,0:0:0:0:
179,220,57024,1,0,0:0:0:0:
92,305,57174,6,0,L|228:296,1,120,0|8,0:0|0:0,0:0:0:0:
179,220,57624,2,0,L|51:229,1,120
59,228,58074,1,8,0:0:0:0:
59,228,58224,1,0,0:0:0:0:
59,228,58374,6,0,P|41:165|60:95,1,120,2|8,0:0|0:0,0:0:0:0:
209,56,58974,1,8,0:0:0:0:
209,56,59124,1,0,0:0:0:0:
369,104,59424,1,0,0:0:0:0:
369,104,59574,6,0,L|375:238,1,120,2|8,0:0|0:0,0:0:0:0:
256,344,60174,1,0,0:0:0:0:
256,344,60324,2,0,L|255:266,2,60,0|8|0,0:0|0:0|0:0,0:0:0:0:
175,319,60774,6,0,L|165:184,1,120,2|8,0:0|0:0,0:0:0:0:
52,75,61374,1,8,0:0:0:0:
52,75,61524,1,0,0:0:0:0:
12,238,61824,1,0,0:0:0:0:
12,238,61974,6,0,L|143:221,1,120,2|8,0:0|0:0,0:0:0:0:
256,110,62574,2,0,L|334:102,3,60,0|0|8|0,0:0|0:0|0:0|0:0,0:0:0:0:
328,142,63099,1,0,0:0:0:0:
328,142,63174,6,0,L|455:139,1,120,2|8,0:0|0:0,0:0:0:0:
419,305,63774,1,8,0:0:0:0:
419,305,63924,2,0,L|280:307,1,120
250,237,64374,6,0,P|227:175|252:106,1,120,2|8,0:0|0:0,0:0:0:0:
140,333,64974,2,0,L|69:338,1,60,8|0,0:0|0:0,0:0:0:0:
22,275,65274,2,0,L|11:203,1,60
50,196,65499,1,0,0:0:0:0:
50,196,65574,6,0,L|181:183,1,120,2|8,0:0|0:0,0:0:0:0:
234,28,66174,1,8,0:0:0:0:
234,28,66324,1,0,0:0:0:0:
310,177,66624,1,0,0:0:0:0:
310,177,66774,6,0,L|296:90,1,60,2|0,0:0|0:0,0:0:0:0:
381,94,67074,2,0,L|389:19,1,60,8|0,0:0|0:0,0:0:0:0:
476,185,67374,2,0,L|413:194,1,60
255,262,67674,2,0,L|328:265,1,60,8|0,0:0|0:0,0:0:0:0:
384,320,67974,5,2,0:0:0:0:
357,203,68274,1,8,0:0:0:0:
357,203,68424,1,0,0:0:0:0:
329,86,68874,1,0,0:0:0:0:
329,86,69024,1,0,0:0:0:0:
329,86,69174,6,0,P|268:74|199:94,1,120,2|8,0:0|0:0,0:0:0:0:
183,298,69774,2,0,P|241:310|299:297,1,120
341,224,70224,1,0,0:0:0:0:
341,224,70374,6,0,L|340:99,1,120,2|8,0:0|0:0,0:0:0:0:
278,47,70824,2,0,P|320:27|360:34,1,60
76,89,71274,2,0,P|67:51|82:20,1,60
153,59,71574,6,0,L|175:177,1,120,2|8,0:0|0:0,0:0:0:0:
113,236,72024,2,0,L|135:354,1,120
134,353,72474,1,0,0:0:0:0:
28,222,72774,5,2,0:0:0:0:
195,251,73074,1,8,0:0:0:0:
195,251,73224,1,0,0:0:0:0:
370,288,73674,1,0,0:0:0:0:
370,288,73824,1,0,0:0:0:0:
370,288,73974,6,0,P|403:236|397:171,1,120,2|8,0:0|0:0,0:0:0:0:
276,145,74574,2,0,P|243:197|249:262,1,120
323,218,75024,1,0,0:0:0:0:
323,218,75174,6,0,L|444:212,1,120,2|8,0:0|0:0,0:0:0:0:
418,127,75624,2,0,L|478:124,1,60
209,48,76074,2,0,P|247:39|278:54,1,60
329,98,76374,6,0,L|322:234,1,120,2|8,0:0|0:0,0:0:0:0:
255,243,76824,2,0,L|248:379,1,120
248,362,77274,1,0,0:0:0:0:
58,81,87174,5,2,0:0:0:0:
101,316,87774,1,0,0:0:0:0:
58,81,88374,5,2,0:0:0:0:
101,316,88824,1,0,0:0:0:0:
101,316,88974,1,0,0:0:0:0:
139,113,89274,1,8,0:0:0:0:
215,148,89424,1,0,0:0:0:0:
215,148,89574,6,0,L|229:243,1,90,2|0,0:0|0:0,0:0:0:0:
241,277,89874,2,0,P|284:280|313:264,1,60,8|0,0:0|0:0,0:0:0:0:
338,163,90174,2,0,L|315:54,1,90
307,34,90474,1,8,0:0:0:0:
307,34,90624,1,0,0:0:0:0:
419,132,90774,6,0,P|421:187|410:209,1,60,2|0,0:0|0:0,0:0:0:0:
356,247,91074,2,0,P|351:283|367:321,1,60,8|0,0:0|0:0,0:0:0:0:
259,190,91374,6,0,P|257:135|268:113,1,60
211,284,91674,2,0,P|204:313|209:342,1,60,8|0,0:0|0:0,0:0:0:0:
288,356,91974,5,2,0:0:0:0:
176,202,92274,1,8,0:0:0:0:
39,299,92574,1,0,0:0:0:0:
145,149,92874,1,8,0:0:0:0:
128,289,93174,5,2,0:0:0:0:
97,81,93474,1,8,0:0:0:0:
193,222,93774,1,0,0:0:0:0:
48,16,94074,1,8,0:0:0:0:
247,283,94374,6,0,L|388:289,1,120,2|8,0:0|0:0,0:0:0:0:
240,249,94824,2,0,L|112:234,1,120
308,206,95274,2,0,P|314:162|310:122,1,60,8|0,0:0|0:0,0:0:0:0:
248,76,95574,6,0,P|318:68|387:72,1,120,2|8,0:0|0:0,0:0:0:0:
272,90,96024,2,0,P|206:94|139:90,1,120
227,180,96474,1,8,0:0:0:0:
227,180,96774,5,2,0:0:0:0:
81,110,103974,6,0,L|213:111,1,120,2|8,0:0|0:0,0:0:0:0:
288,71,104574,2,0,L|299:153,2,60,8|0|8,0:0|0:0|0:0,0:0:0:0:
411,226,105174,6,0,P|342:217|276:246,1,120,2|8,0:0|0:0,0:0:0:0:
222,276,105774,2,0,L|228:348,1,60,8|0,0:0|0:0,0:0:0:0:
226,335,106074,1,8,0:0:0:0:
148,238,106374,6,0,L|24:242,1,120,2|8,0:0|0:0,0:0:0:0:
7,160,106824,1,0,0:0:0:0:
39,82,106974,2,0,P|114:64|160:80,1,120,0|8,0:0|0:0,0:0:0:0:
217,131,107424,1,0,0:0:0:0:
285,53,107574,6,0,L|292:112,1,60,2|0,0:0|0:0,0:0:0:0:
315,181,107874,2,0,L|339:244,1,60,8|0,0:0|0:0,0:0:0:0:
387,117,108174,2,0,L|433:247,1,120,8|8,0:0|0:0,0:0:0:0:
397,308,108624,1,0,0:0:0:0:
319,275,108774,6,0,L|251:280,1,60,2|0,0:0|0:0,0:0:0:0:
182,314,109074,2,0,L|171:352,2,30,8|0|0,0:0|0:0|0:0,0:0:0:0:
137,241,109374,2,0,L|136:181,1,60
73,299,109674,2,0,L|51:330,2,30,8|0|0,0:0|0:0|0:0,0:0:0:0:
44,219,109974,6,0,P|44:178|62:100,1,120,2|8,0:0|0:0,0:0:0:0:
131,55,110424,2,0,P|202:51|261:61,1,120,0|8,0:0|0:0,0:0:0:0:
176,136,110874,2,0,P|240:128|249:128,1,60,8|0,0:0|0:0,0:0:0:0:
338,85,111174,6,0,P|349:112|355:152,1,60,2|0,0:0|0:0,0:0:0:0:
418,276,111474,2,0,P|424:307|425:343,1,60,8|0,0:0|0:0,0:0:0:0:
241,90,111774,2,0,P|252:117|258:157,1,60
274,286,112074,2,0,P|280:317|281:353,1,60,8|0,0:0|0:0,0:0:0:0:
152,120,112374,6,0,P|165:184|161:245,1,120,2|8,0:0|0:0,0:0:0:0:
83,254,112824,2,0,P|70:300|15:354,1,120,0|8,0:0|0:0,0:0:0:0:
40,182,113274,2,0,P|35:148|23:120,1,60,8|0,0:0|0:0,0:0:0:0:
58,46,113574,5,2,0:0:0:0:
58,46,113724,1,0,0:0:0:0:
83,254,113874,2,0,L|76:320,1,60,8|0,0:0|0:0,0:0:0:0:
107,115,114174,1,0,0:0:0:0:
107,115,114324,1,0,0:0:0:0:
163,292,114474,2,0,L|170:232,1,60,8|0,0:0|0:0,0:0:0:0:
222,58,114774,6,0,P|245:100|239:190,1,120,2|8,0:0|0:0,0:0:0:0:
163,292,115224,2,0,P|140:250|146:160,1,120,0|8,0:0|0:0,0:0:0:0:
242,331,115674,1,8,0:0:0:0:
242,331,115824,1,0,0:0:0:0:
163,292,115974,6,0,L|79:288,1,60,2|0,0:0|0:0,0:0:0:0:
59,216,116274,1,8,0:0:0:0:
59,216,116424,1,0,0:0:0:0:
82,79,116574,2,0,L|96:138,1,60
166,184,116874,1,8,0:0:0:0:
166,184,117024,1,0,0:0:0:0:
240,106,117174,6,0,L|373:119,1,120,2|8,0:0|0:0,0:0:0:0:
373,288,117774,2,0,L|425:296,2,30
476,256,118074,2,0,L|364:272,1,90,8|0,0:0|0:0,0:0:0:0:
344,264,118374,6,0,L|348:328,1,60,2|0,0:0|0:0,0:0:0:0:
264,240,118674,1,8,0:0:0:0:
264,240,118824,1,0,0:0:0:0:
156,324,118974,2,0,L|84:312,1,60
68,236,119274,1,8,0:0:0:0:
68,236,119424,1,0,0:0:0:0:
120,172,119574,6,0,L|112:48,1,120,2|8,0:0|0:0,0:0:0:0:
328,52,120174,2,0,L|332:96,2,30
245,75,120474,2,0,L|334:62,1,90,8|0,0:0|0:0,0:0:0:0:
369,83,120774,6,0,P|381:127|381:143,1,60,2|0,0:0|0:0,0:0:0:0:
341,215,121074,1,8,0:0:0:0:
341,215,121224,1,0,0:0:0:0:
265,179,121374,2,0,L|197:175,1,60
328,52,121674,1,8,0:0:0:0:
328,52,121824,1,0,0:0:0:0:
341,215,121974,6,0,L|209:223,1,120,2|8,0:0|0:0,0:0:0:0:
237,357,122574,2,0,L|281:357,2,30
128,356,122874,2,0,L|236:344,1,90,8|0,0:0|0:0,0:0:0:0:
252,324,123174,6,0,P|256:288|244:248,1,60,2|0,0:0|0:0,0:0:0:0:
188,208,123474,1,8,0:0:0:0:
188,208,123624,1,0,0:0:0:0:
108,232,123774,2,0,P|88:260|84:304,1,60
88,152,124074,1,8,0:0:0:0:
88,152,124224,1,0,0:0:0:0:
192,89,124374,6,0,L|188:221,1,120,2|8,0:0|0:0,0:0:0:0:
112,32,124824,1,0,0:0:0:0:
192,88,124974,2,0,P|244:104|320:92,1,120,0|8,0:0|0:0,0:0:0:0:
389,71,125424,1,0,0:0:0:0:
457,122,125574,6,0,L|444:250,1,120,2|8,0:0|0:0,0:0:0:0:
412,320,126024,1,0,0:0:0:0:
412,320,126174,2,0,L|478:313,1,60
300,242,126474,2,0,L|360:248,1,60,8|0,0:0|0:0,0:0:0:0:
207,319,126774,6,0,L|327:333,1,120,2|8,0:0|0:0,0:0:0:0:
69,214,127374,2,0,L|31:225,2,30
56,298,127674,2,0,L|47:194,1,90,8|0,0:0|0:0,0:0:0:0:
33,169,127974,6,0,P|85:153|112:162,1,60,2|0,0:0|0:0,0:0:0:0:
163,195,128274,1,8,0:0:0:0:
163,195,128424,1,0,0:0:0:0:
217,260,128574,2,0,P|254:263|301:249,1,60
246,181,128874,2,0,P|249:148|249:109,1,60,8|0,0:0|0:0,0:0:0:0:
328,174,129174,6,0,L|344:48,1,120,2|8,0:0|0:0,0:0:0:0:
383,230,129774,2,0,L|398:265,2,30
455,219,130074,2,0,L|355:226,1,90,8|0,0:0|0:0,0:0:0:0:
347,264,130374,6,0,P|340:297|348:335,1,60,2|0,0:0|0:0,0:0:0:0:
435,313,130674,1,8,0:0:0:0:
435,313,130824,1,0,0:0:0:0:
257,333,130974,2,0,P|258:303|262:268,1,60
184,364,131274,1,8,0:0:0:0:
184,364,131424,1,0,0:0:0:0:
228,253,131574,6,0,L|230:116,1,120,2|8,0:0|0:0,0:0:0:0:
96,50,132174,2,0,L|61:41,2,30
19,71,132474,2,0,L|126:62,1,90,8|0,0:0|0:0,0:0:0:0:
147,83,132774,6,0,L|269:78,1,120,2|8,0:0|0:0,0:0:0:0:
420,153,133224,1,0,0:0:0:0:
420,153,133374,2,0,L|293:158,1,120,0|8,0:0|0:0,0:0:0:0:
60,214,133974,6,0,P|49:290|66:345,1,120,2|8,0:0|0:0,0:0:0:0:
281,345,134424,1,0,0:0:0:0:
281,345,134574,2,0,P|296:291|282:214,1,120,0|8,0:0|0:0,0:0:0:0:
256,192,135174,12,0,138774,0:0:0:0:
