osu file format v14

[General]
AudioFilename: audio.mp3
AudioLeadIn: 0
PreviewTime: 87253
Countdown: 0
SampleSet: Soft
StackLeniency: 0.7
Mode: 2
LetterboxInBreaks: 0
WidescreenStoryboard: 0

[Editor]
Bookmarks: 1360,11465,21570,41781,56938,72095,87253,102411,117569,117648,117727,117806,117885,132727,147885,163043,178201,198411,218622,238832
DistanceSpacing: 1.2
BeatDivisor: 4
GridSize: 8
TimelineZoom: 2.800001

[Metadata]
Title:KERBEROX
TitleUnicode:KERBEROX
Artist:BlackYooh vs. siromaru
ArtistUnicode:BlackYooh vs. siromaru
Creator:Deif
Version:Underworld
Source:
Tags:Monthly Beatmapping Contest October 2023 MBC Featured Artist Mappers' Guild MPG BlackY Yooh versus KERBEROX Cerberus HEKATONCHEIR BEATS BEATFLOOR Yoohsic Roomz Comiket 88 C88 SEVEN’s CODE UNLIMITED STUDiO Electronic Instrumental
BeatmapID:4397737
BeatmapSetID:2096973

[Difficulty]
HPDrainRate:6
CircleSize:3.8
OverallDifficulty:9.7
ApproachRate:9.7
SliderMultiplier:1.92
SliderTickRate:2

[Events]
//Background and Video events
0,0,"BG.jpg",0,0
//Break Periods
//Storyboard Layer 0 (Background)
//Storyboard Layer 1 (Fail)
//Storyboard Layer 2 (Pass)
//Storyboard Layer 3 (Foreground)
//Storyboard Layer 4 (Overlay)
//Storyboard Sound Samples
Sample,218622,0,"growl.mp3",100
Sample,238832,0,"growl.mp3",100

[TimingPoints]
1360,315.789473684211,4,2,1,80,1,0
11465,-100,4,2,2,70,0,0
13465,-100,4,2,1,70,0,0
13675,-100,4,2,2,70,0,0
16307,-100,4,2,1,70,0,0
16517,-100,4,2,2,70,0,0
16833,-100,4,2,1,70,0,0
16938,-100,4,2,2,70,0,0
18517,-100,4,2,1,70,0,0
18728,-100,4,2,2,70,0,0
20307,-100,4,2,1,75,0,0
21254,-100,4,1,2,65,0,0
21412,-100,4,2,1,10,0,0
21570,-40,4,1,1,60,0,1
23781,-28.5714285714286,4,1,1,60,0,1
24096,-40,4,1,1,60,0,1
25360,-100,4,1,1,60,0,1
26149,-100,4,1,1,55,0,1
26307,-100,4,1,1,50,0,1
26465,-100,4,1,1,45,0,1
26623,-40,4,1,1,60,0,1
28833,-22.2222222222222,4,1,1,60,0,1
28991,-22.2222222222222,4,1,2,60,0,1
29149,-40,4,1,1,60,0,1
31044,-100,4,1,1,60,0,1
31202,-100,4,1,1,65,0,1
31360,-100,4,1,1,70,0,1
31517,-100,4,1,1,75,0,1
31675,-40,4,1,1,60,0,1
33886,-28.5714285714286,4,1,1,60,0,1
34202,-40,4,1,1,60,0,1
35465,-100,4,1,1,60,0,1
36254,-100,4,1,1,55,0,1
36412,-100,4,1,1,50,0,1
36570,-100,4,1,1,45,0,1
36728,-40,4,1,1,60,0,1
38938,-40,4,3,0,60,0,1
39254,-40,4,1,1,60,0,1
39491,-40,4,1,1,62,0,1
39728,-40,4,1,1,64,0,1
39965,-40,4,1,1,66,0,1
40202,-33.3333333333333,4,1,1,68,0,1
40438,-33.3333333333333,4,1,1,70,0,1
40675,-33.3333333333333,4,1,1,72,0,1
40912,-33.3333333333333,4,1,1,74,0,1
41149,-28.5714285714286,4,1,2,75,0,1
41307,-28.5714285714286,4,1,1,70,0,1
41465,-28.5714285714286,4,1,2,65,0,1
41623,-28.5714285714286,4,1,1,60,0,1
41781,-100,4,2,1,80,0,0
42096,-100,4,2,0,75,0,0
42412,-100,4,2,0,70,0,0
42728,-100,4,2,0,65,0,0
43044,-100,4,2,0,60,0,0
43360,-100,4,2,0,55,0,0
43675,-100,4,2,0,50,0,0
43991,-100,4,2,0,45,0,0
44307,-100,4,2,0,40,0,0
44623,-100,4,2,0,35,0,0
44938,-100,4,2,0,30,0,0
45254,-100,4,2,0,25,0,0
45570,-100,4,2,1,60,0,0
45728,-100,4,2,0,30,0,0
47781,-100,4,2,0,40,0,0
48096,-100,4,2,0,50,0,0
48412,-100,4,2,0,60,0,0
48728,-100,4,2,0,70,0,0
49044,-100,4,2,0,80,0,0
49360,-100,4,2,3,70,0,0
49517,-100,4,2,1,40,0,0
49991,-100,4,2,1,50,0,0
50070,-100,4,2,1,40,0,0
50938,-100,4,2,1,50,0,0
51017,-100,4,2,1,40,0,0
51886,-100,4,2,1,60,0,0
51965,-100,4,2,1,40,0,0
52833,-100,4,2,1,65,0,0
52912,-100,4,2,1,40,0,0
53781,-100,4,2,1,70,0,0
53860,-100,4,2,1,40,0,0
54728,-100,4,2,1,75,0,0
54807,-100,4,2,1,40,0,0
55675,-100,4,2,1,80,0,0
55754,-100,4,2,1,40,0,0
55991,-100,4,2,1,75,0,0
56070,-100,4,2,1,40,0,0
56149,-100,4,2,1,75,0,0
56228,-100,4,2,1,40,0,0
56307,-100,4,2,1,75,0,0
56386,-100,4,2,1,40,0,0
56623,-100,4,2,1,75,0,0
56702,-100,4,2,1,40,0,0
56781,-100,4,2,1,75,0,0
56860,-100,4,2,1,40,0,0
56938,315.789473684211,3,2,3,70,1,0
57411,-100,3,3,0,60,0,0
57569,-100,3,2,4,60,0,0
57727,-100,3,2,3,70,0,0
58359,-100,3,3,0,60,0,0
58517,-100,3,2,4,60,0,0
58675,-100,3,2,3,70,0,0
59306,-100,3,3,0,60,0,0
59464,-100,3,2,4,60,0,0
59622,-100,3,2,3,70,0,0
60253,-100,3,3,0,60,0,0
60411,-100,3,2,4,60,0,0
60569,-100,3,2,3,70,0,0
61201,-100,3,3,0,60,0,0
61359,-100,3,2,4,60,0,0
61517,-100,3,2,3,70,0,0
62148,-100,3,3,0,60,0,0
62306,-100,3,2,4,60,0,0
62464,-100,3,2,3,70,0,0
63095,-100,3,3,0,60,0,0
63253,-100,3,2,4,60,0,0
63411,-100,3,2,1,70,0,0
64516,-100,3,2,3,70,0,0
64990,-100,3,3,0,60,0,0
65148,-100,3,2,4,60,0,0
65306,-100,3,2,3,70,0,0
65938,-100,3,3,0,60,0,0
66096,-100,3,2,4,60,0,0
66254,-100,3,2,3,70,0,0
66885,-100,3,3,0,60,0,0
67043,-100,3,2,4,60,0,0
67201,-100,3,2,3,70,0,0
67832,-100,3,3,0,60,0,0
67990,-100,3,2,4,60,0,0
68148,-100,3,2,3,70,0,0
68780,-100,3,3,0,60,0,0
68938,-100,3,2,4,60,0,0
69096,-100,3,2,3,70,0,0
69727,-100,3,3,0,60,0,0
69885,-100,3,2,4,60,0,0
70043,-100,3,2,3,70,0,0
70201,-100,3,2,1,70,0,0
70516,-100,3,2,1,72,0,0
70832,-100,3,2,1,74,0,0
71148,-100,3,2,1,76,0,0
71464,-100,3,2,1,78,0,0
71780,-100,3,2,1,80,0,0
72095,-100,3,2,2,80,0,0
72411,-100,3,2,5,80,0,0
73043,-100,3,2,2,80,0,0
73359,-100,3,2,5,80,0,0
73990,-100,3,2,2,80,0,0
74306,-100,3,2,5,80,0,0
74938,-100,3,2,2,80,0,0
75253,-100,3,2,5,80,0,0
75885,-100,3,2,2,80,0,0
76201,-100,3,2,5,80,0,0
76832,-100,3,2,2,80,0,0
77148,-100,3,2,5,80,0,0
77780,-100,3,2,2,80,0,0
78095,-100,3,2,5,80,0,0
78727,-66.6666666666667,3,2,2,80,0,0
79043,-100,3,2,5,80,0,0
79674,-100,3,2,2,80,0,0
82516,-66.6666666666667,3,2,2,80,0,0
82832,-100,3,2,2,80,0,0
83464,-66.6666666666667,3,2,2,80,0,0
83780,-100,3,2,2,80,0,0
83938,-100,3,2,5,80,0,0
84095,-100,3,2,2,80,0,0
84885,-100,3,2,5,80,0,0
85042,-100,3,2,2,80,0,0
85832,-100,3,2,5,80,0,0
85989,-100,3,2,2,80,0,0
86464,-100,3,2,2,50,0,0
86622,-100,3,2,2,60,0,0
86780,-100,3,2,2,70,0,0
86938,-100,3,2,2,80,0,0
87253,-75.187969924812,3,1,1,60,0,1
87411,-75.187969924812,3,3,0,70,0,1
87569,-75.187969924812,3,1,3,60,0,1
87727,-75.187969924812,3,3,0,70,0,1
87885,-75.187969924812,3,1,3,60,0,1
88201,-75.187969924812,3,1,1,60,0,1
88359,-75.187969924812,3,3,0,70,0,1
88517,-75.187969924812,3,1,3,60,0,1
88674,-75.187969924812,3,3,0,70,0,1
88832,-75.187969924812,3,1,3,60,0,1
88990,-75.187969924812,3,3,0,70,0,1
89148,-75.187969924812,3,1,1,60,0,1
89306,-75.187969924812,3,3,0,70,0,1
89464,-75.187969924812,3,1,3,60,0,1
89622,-75.187969924812,3,3,0,70,0,1
89780,-75.187969924812,3,1,3,60,0,1
90095,-75.187969924812,3,1,1,60,0,1
90253,-75.187969924812,3,3,0,70,0,1
90411,-75.187969924812,3,1,3,60,0,1
90569,-75.187969924812,3,3,0,70,0,1
90727,-75.187969924812,3,1,3,60,0,1
90885,-75.187969924812,3,3,0,70,0,1
91043,-75.187969924812,3,1,1,60,0,1
91201,-75.187969924812,3,3,0,70,0,1
91359,-75.187969924812,3,1,3,60,0,1
91516,-75.187969924812,3,3,0,70,0,1
91674,-75.187969924812,3,1,3,60,0,1
91990,-75.187969924812,3,1,1,60,0,1
92148,-75.187969924812,3,3,0,70,0,1
92306,-75.187969924812,3,1,3,60,0,1
92464,-75.187969924812,3,3,0,70,0,1
92622,-75.187969924812,3,1,3,60,0,1
92780,-75.187969924812,3,3,0,70,0,1
92938,-75.187969924812,3,1,1,60,0,1
93095,-75.187969924812,3,3,0,70,0,1
93254,-75.187969924812,3,1,3,60,0,1
93411,-75.187969924812,3,3,0,70,0,1
93569,-75.187969924812,3,1,3,60,0,1
93727,-75.187969924812,3,3,0,70,0,1
93885,-40,3,1,1,80,0,1
94201,-75.187969924812,3,2,0,80,0,1
94359,-75.187969924812,3,1,1,60,0,1
94438,-75.187969924812,3,3,0,70,0,1
94516,-75.187969924812,3,1,3,60,0,1
94595,-75.187969924812,3,3,0,70,0,1
94674,-75.187969924812,3,1,3,60,0,1
94753,-75.187969924812,3,3,0,70,0,1
94832,-75.187969924812,3,1,1,60,0,1
94990,-75.187969924812,3,3,0,70,0,1
95148,-75.187969924812,3,1,3,60,0,1
95306,-75.187969924812,3,3,0,70,0,1
95464,-75.187969924812,3,1,3,60,0,1
95780,-75.187969924812,3,1,1,60,0,1
95938,-75.187969924812,3,3,0,70,0,1
96095,-75.187969924812,3,1,3,60,0,1
96253,-75.187969924812,3,3,0,70,0,1
96411,-75.187969924812,3,1,3,60,0,1
96569,-75.187969924812,3,3,0,70,0,1
96727,-75.187969924812,3,1,1,60,0,1
96885,-75.187969924812,3,3,0,70,0,1
97043,-75.187969924812,3,1,3,60,0,1
97201,-75.187969924812,3,3,0,70,0,1
97359,-75.187969924812,3,1,3,60,0,1
97516,-75.187969924812,3,3,0,70,0,1
97674,-75.187969924812,3,1,1,60,0,1
97832,-75.187969924812,3,3,0,70,0,1
97990,-75.187969924812,3,1,3,60,0,1
98622,-75.187969924812,3,1,1,60,0,1
98780,-75.187969924812,3,3,0,70,0,1
98938,-75.187969924812,3,1,3,60,0,1
99095,-75.187969924812,3,3,0,70,0,1
99253,-75.187969924812,3,1,3,60,0,1
99411,-37.593984962406,3,1,1,60,0,1
99727,-75.187969924812,3,3,0,70,0,1
99885,-75.187969924812,3,1,3,60,0,1
100043,-75.187969924812,3,3,0,70,0,1
100201,-75.187969924812,3,1,3,60,0,1
100359,-75.187969924812,3,3,0,70,0,1
100516,-75.187969924812,3,1,1,60,0,1
100674,-75.187969924812,3,3,0,70,0,1
100832,-75.187969924812,3,1,3,60,0,1
100938,-75.187969924812,3,2,0,80,0,1
101148,-75.187969924812,3,1,3,60,0,1
101464,-100,4,1,1,40,0,0
101780,-100,4,1,1,50,0,0
102095,-100,4,1,1,60,0,0
102411,-75.187969924812,4,1,1,60,0,1
102569,-75.187969924812,4,3,0,70,0,1
102727,-75.187969924812,4,1,1,60,0,1
102885,-75.187969924812,4,3,1,70,0,1
103043,-75.187969924812,3,1,3,60,0,1
103359,-75.187969924812,3,1,1,60,0,1
103517,-75.187969924812,3,3,0,70,0,1
103675,-75.187969924812,3,1,1,60,0,1
103833,-75.187969924812,3,3,1,70,0,1
103991,-75.187969924812,3,1,3,60,0,1
104306,-75.187969924812,3,1,1,60,0,1
104464,-75.187969924812,3,3,0,70,0,1
104622,-75.187969924812,3,1,1,60,0,1
104780,-75.187969924812,3,3,1,70,0,1
104938,-75.187969924812,3,1,3,60,0,1
105253,-75.187969924812,3,1,1,60,0,1
105411,-75.187969924812,3,3,0,70,0,1
105569,-75.187969924812,3,1,1,60,0,1
105727,-75.187969924812,3,3,1,70,0,1
105885,-75.187969924812,3,1,3,60,0,1
106201,-75.187969924812,3,1,1,60,0,1
106359,-75.187969924812,3,3,0,70,0,1
106517,-75.187969924812,3,1,1,60,0,1
106675,-75.187969924812,3,3,1,70,0,1
106833,-75.187969924812,3,1,3,60,0,1
107148,-75.187969924812,3,1,1,60,0,1
107569,-75.187969924812,3,2,0,80,0,1
107780,-75.187969924812,3,1,3,60,0,1
108095,-75.187969924812,3,1,1,60,0,1
108253,-75.187969924812,3,3,0,70,0,1
108411,-75.187969924812,3,1,1,60,0,1
108569,-75.187969924812,3,3,1,70,0,1
108727,-75.187969924812,3,1,3,60,0,1
109043,-75.187969924812,3,1,1,60,0,1
109122,-75.187969924812,3,3,0,70,0,1
109359,-75.187969924812,3,2,0,80,0,1
109517,-75.187969924812,3,1,1,60,0,1
109596,-75.187969924812,3,3,0,70,0,1
109674,-75.187969924812,3,1,3,60,0,1
109753,-75.187969924812,3,3,0,70,0,1
109832,-75.187969924812,3,1,3,60,0,1
109911,-75.187969924812,3,3,0,70,0,1
109990,-75.187969924812,3,1,1,60,0,1
110148,-75.187969924812,3,3,0,70,0,1
110306,-75.187969924812,3,1,1,60,0,1
110464,-75.187969924812,3,3,1,70,0,1
110622,-75.187969924812,3,1,3,60,0,1
110938,-75.187969924812,3,1,1,60,0,1
111096,-75.187969924812,3,3,0,70,0,1
111254,-75.187969924812,3,1,1,60,0,1
111412,-75.187969924812,3,3,1,70,0,1
111570,-75.187969924812,3,1,3,60,0,1
111885,-75.187969924812,3,1,1,60,0,1
112043,-75.187969924812,3,3,0,70,0,1
112201,-75.187969924812,3,1,1,60,0,1
112359,-75.187969924812,3,3,1,70,0,1
112517,-75.187969924812,3,1,3,60,0,1
112832,-75.187969924812,3,1,1,60,0,1
112990,-75.187969924812,3,2,0,70,0,1
113148,-75.187969924812,3,1,1,60,0,1
113306,-75.187969924812,3,3,1,70,0,1
113464,-75.187969924812,3,1,3,60,0,1
113780,-75.187969924812,3,1,1,60,0,1
113938,-75.187969924812,3,3,0,70,0,1
114096,-75.187969924812,3,1,1,60,0,1
114254,-75.187969924812,3,3,1,70,0,1
114412,-75.187969924812,3,1,3,60,0,1
114727,-75.187969924812,3,1,1,60,0,1
114885,-75.187969924812,3,3,0,70,0,1
115043,-75.187969924812,3,1,1,60,0,1
115201,-75.187969924812,3,3,1,70,0,1
115359,-75.187969924812,3,1,3,60,0,1
115674,-75.187969924812,3,1,1,60,0,1
115832,-75.187969924812,3,3,0,70,0,1
115990,-75.187969924812,3,1,1,60,0,1
116148,-75.187969924812,3,3,1,70,0,1
116306,-75.187969924812,3,1,3,60,0,1
116622,-75.187969924812,3,1,1,60,0,1
116780,-75.187969924812,3,3,0,70,0,1
116938,-75.187969924812,3,1,1,60,0,1
117096,-75.187969924812,3,3,0,70,0,1
117253,-75.187969924812,3,1,1,60,0,1
117569,-100,4,1,1,50,0,0
118516,-100,4,1,3,50,0,0
119464,-100,4,3,10,50,0,0
119780,-100,4,3,10,60,0,0
120095,-100,4,3,10,50,0,0
120411,-100,4,3,11,60,0,0
120727,-100,4,3,13,60,0,0
120885,-100,4,3,12,60,0,0
121043,-100,4,3,13,60,0,0
121201,-100,4,3,12,60,0,0
121359,-100,4,1,1,50,0,0
122306,-100,4,1,3,50,0,0
123253,-40,4,3,14,60,0,0
123490,-40,4,3,14,5,0,0
123569,-40,4,3,14,60,0,0
123806,-40,4,3,14,5,0,0
123885,-40,4,3,14,60,0,0
124122,-40,4,3,14,5,0,0
124201,-36.3636363636364,4,3,14,60,0,0
124438,-36.3636363636364,4,3,14,5,0,0
124516,-33.3333333333333,4,3,14,60,0,0
124753,-33.3333333333333,4,3,14,5,0,0
124832,-28.5714285714286,4,1,1,50,0,0
124990,-28.5714285714286,4,3,14,60,0,0
125148,-66.6666666666667,4,1,1,50,0,0
126095,-80,4,1,3,50,0,0
127043,-100,4,3,10,50,0,0
127359,-100,4,3,11,50,0,0
127674,-100,4,3,11,60,0,0
127990,-100,4,3,11,70,0,0
128306,-100,4,3,11,80,0,0
128622,-100,4,3,13,60,0,0
128701,-100,4,3,11,80,0,0
128780,-100,4,3,12,60,0,0
128859,-100,4,3,11,80,0,0
128938,-100,4,1,1,50,0,0
129885,-100,4,1,3,50,0,0
130832,-100,4,3,10,50,0,0
131148,-66.6666666666667,4,3,10,60,0,0
131306,-100,4,3,10,60,0,0
131464,-33.3333333333333,4,3,14,60,0,0
131701,-33.3333333333333,4,3,14,5,0,0
131780,-36.3636363636364,4,3,14,70,0,0
132016,-36.3636363636364,4,3,14,5,0,0
132095,-40,4,3,10,60,0,0
132411,-100,4,2,0,50,0,0
132464,-100,4,2,0,60,0,0
132516,-100,4,2,0,70,0,0
132569,-100,4,2,0,80,0,0
132622,-100,4,2,0,90,0,0
132727,-100,4,1,1,40,0,0
133674,-100,4,1,3,40,0,0
134622,-100,4,2,1,60,0,0
136516,-100,4,1,1,40,0,0
137463,-100,4,1,3,40,0,0
138411,-100,4,2,1,60,0,0
140306,-66.6666666666667,4,1,1,50,0,0
140622,-100,4,1,1,50,0,0
141253,-66.6666666666667,4,1,3,50,0,0
141569,-100,4,1,3,50,0,0
142201,-66.6666666666667,4,1,3,50,0,0
142517,-100,4,1,3,50,0,0
143148,-66.6666666666667,4,1,3,50,0,0
143464,-100,4,1,3,50,0,0
144095,-66.6666666666667,4,1,1,55,0,0
144727,-33.3333333333333,4,1,1,55,0,0
145043,-66.6666666666667,4,1,3,55,0,0
145674,-33.3333333333333,4,1,3,55,0,0
145990,-100,4,3,10,60,0,0
146148,-100,4,3,0,60,0,0
146464,-100,4,3,10,60,0,0
146622,-100,4,3,0,60,0,0
146938,-100,4,1,3,55,0,0
147885,-75.187969924812,4,1,1,60,0,1
148043,-75.187969924812,3,3,0,70,0,1
148201,-75.187969924812,3,1,3,60,0,1
148359,-75.187969924812,3,2,0,80,0,1
148516,-75.187969924812,3,1,3,60,0,1
148674,-75.187969924812,3,2,0,80,0,1
148832,-75.187969924812,4,1,1,60,0,1
148990,-75.187969924812,3,3,0,70,0,1
149148,-75.187969924812,3,1,3,60,0,1
149306,-75.187969924812,3,3,0,70,0,1
149463,-75.187969924812,3,1,3,60,0,1
149780,-75.187969924812,4,1,1,60,0,1
149938,-75.187969924812,3,3,0,70,0,1
150096,-75.187969924812,3,1,3,60,0,1
150253,-75.187969924812,3,2,0,80,0,1
150411,-75.187969924812,3,1,3,60,0,1
150569,-75.187969924812,3,2,0,80,0,1
150727,-75.187969924812,4,1,1,60,0,1
150885,-75.187969924812,3,3,0,70,0,1
151043,-75.187969924812,3,1,3,60,0,1
151201,-75.187969924812,3,3,0,70,0,1
151358,-75.187969924812,3,1,3,60,0,1
151516,-75.187969924812,3,2,0,80,0,1
151674,-75.187969924812,4,1,1,60,0,1
151832,-75.187969924812,3,3,0,70,0,1
151990,-75.187969924812,3,1,3,60,0,1
152148,-75.187969924812,3,3,0,70,0,1
152305,-75.187969924812,3,1,3,60,0,1
152464,-75.187969924812,3,2,0,80,0,1
152622,-75.187969924812,4,1,1,60,0,1
152780,-75.187969924812,3,3,0,70,0,1
152859,-75.187969924812,3,2,1,80,0,1
152938,-75.187969924812,3,1,3,60,0,1
153095,-75.187969924812,3,2,0,80,0,1
153253,-75.187969924812,3,1,3,60,0,1
153411,-75.187969924812,3,2,0,80,0,1
153569,-75.187969924812,4,1,1,60,0,1
153727,-75.187969924812,3,3,0,70,0,1
153885,-75.187969924812,3,1,3,60,0,1
154043,-75.187969924812,3,3,0,70,0,1
154200,-75.187969924812,3,1,3,60,0,1
154359,-75.187969924812,3,2,0,80,0,1
154516,-75.187969924812,4,1,1,60,0,1
154674,-75.187969924812,3,1,3,60,0,1
154832,-75.187969924812,4,1,1,60,0,1
154990,-75.187969924812,3,1,3,60,0,1
155148,-33.3333333333333,4,3,1,80,0,1
155464,-75.187969924812,4,1,1,60,0,1
155622,-75.187969924812,3,3,0,70,0,1
155780,-75.187969924812,3,1,3,60,0,1
155938,-75.187969924812,3,2,0,80,0,1
156095,-75.187969924812,3,1,3,60,0,1
156254,-75.187969924812,3,2,0,80,0,1
156411,-75.187969924812,4,1,1,60,0,1
156569,-75.187969924812,3,3,0,70,0,1
156727,-75.187969924812,3,1,3,60,0,1
156885,-75.187969924812,3,3,0,70,0,1
157042,-75.187969924812,3,1,3,60,0,1
157201,-75.187969924812,3,2,0,80,0,1
157359,-37.593984962406,4,1,1,60,0,1
157517,-37.593984962406,3,3,0,70,0,1
157674,-75.187969924812,3,1,3,60,0,1
157832,-75.187969924812,3,3,0,70,0,1
157990,-75.187969924812,3,1,3,60,0,1
158149,-75.187969924812,3,2,0,80,0,1
158306,-75.187969924812,4,1,1,60,0,1
158464,-75.187969924812,3,3,0,70,0,1
158622,-75.187969924812,3,1,3,60,0,1
158780,-75.187969924812,3,3,0,70,0,1
158937,-75.187969924812,3,1,3,60,0,1
159096,-75.187969924812,3,2,0,80,0,1
159253,-75.187969924812,4,1,1,60,0,1
159411,-75.187969924812,3,3,0,70,0,1
159569,-75.187969924812,3,1,3,60,0,1
159727,-75.187969924812,3,2,0,80,0,1
159884,-75.187969924812,3,1,3,60,0,1
160043,-75.187969924812,3,2,0,80,0,1
160201,-75.187969924812,4,1,1,60,0,1
160359,-75.187969924812,3,2,0,80,0,1
160517,-75.187969924812,3,1,3,60,0,1
160675,-75.187969924812,3,2,0,80,0,1
160832,-75.187969924812,3,1,3,60,0,1
160991,-75.187969924812,3,2,0,80,0,1
161148,-75.187969924812,4,1,1,60,0,1
161306,-75.187969924812,3,3,0,70,0,1
161464,-75.187969924812,3,1,3,60,0,1
161622,-75.187969924812,3,2,0,80,0,1
161779,-75.187969924812,3,1,3,60,0,1
161938,-75.187969924812,3,2,0,80,0,1
162095,-75.187969924812,4,1,1,60,0,0
162253,-75.187969924812,3,3,0,70,0,0
162411,-75.187969924812,3,1,3,60,0,0
162569,-75.187969924812,3,3,0,70,0,0
162726,-75.187969924812,3,1,3,60,0,0
162885,-75.187969924812,3,2,0,80,0,0
163043,-75.187969924812,4,1,1,60,0,1
163201,-75.187969924812,4,3,0,70,0,1
163359,-75.187969924812,4,1,3,60,0,1
163517,-75.187969924812,4,2,0,80,0,1
163674,-75.187969924812,4,1,3,60,0,1
163832,-75.187969924812,4,2,0,80,0,1
163990,-75.187969924812,4,1,1,60,0,1
164148,-75.187969924812,4,3,0,70,0,1
164306,-75.187969924812,4,1,3,60,0,1
164464,-75.187969924812,4,3,0,70,0,1
164621,-75.187969924812,4,1,3,60,0,1
164938,-75.187969924812,4,1,1,60,0,1
165096,-75.187969924812,4,3,0,70,0,1
165254,-75.187969924812,4,1,3,60,0,1
165411,-75.187969924812,4,2,0,80,0,1
165569,-75.187969924812,4,1,3,60,0,1
165727,-75.187969924812,4,2,0,80,0,1
165885,-75.187969924812,4,1,1,60,0,1
166043,-75.187969924812,4,3,0,70,0,1
166201,-75.187969924812,4,1,3,60,0,1
166359,-75.187969924812,4,3,0,70,0,1
166516,-75.187969924812,4,1,3,60,0,1
166674,-75.187969924812,4,2,0,80,0,1
166832,-75.187969924812,4,1,1,60,0,1
166990,-75.187969924812,4,3,0,70,0,1
167148,-75.187969924812,4,1,3,60,0,1
167306,-75.187969924812,4,3,0,70,0,1
167463,-75.187969924812,4,1,3,60,0,1
167622,-75.187969924812,4,2,0,80,0,1
167780,-75.187969924812,4,1,1,60,0,1
167938,-75.187969924812,4,3,0,70,0,1
168017,-75.187969924812,4,2,1,80,0,1
168096,-75.187969924812,4,1,3,60,0,1
168253,-75.187969924812,4,2,0,80,0,1
168411,-75.187969924812,4,1,3,60,0,1
168569,-75.187969924812,4,2,0,80,0,1
168727,-75.187969924812,4,1,1,60,0,1
168885,-75.187969924812,4,3,0,70,0,1
169043,-75.187969924812,4,1,3,60,0,1
169201,-75.187969924812,4,3,0,70,0,1
169358,-75.187969924812,4,1,3,60,0,1
169517,-75.187969924812,4,2,0,80,0,1
169674,-75.187969924812,4,1,1,60,0,1
169832,-75.187969924812,4,1,3,60,0,1
169990,-75.187969924812,4,1,1,60,0,1
170148,-75.187969924812,4,1,3,60,0,1
170306,-33.3333333333333,4,3,1,80,0,1
170622,-75.187969924812,4,1,1,60,0,1
170780,-75.187969924812,4,3,0,70,0,1
170938,-75.187969924812,4,1,3,60,0,1
171096,-75.187969924812,4,2,0,80,0,1
171253,-75.187969924812,4,1,3,60,0,1
171412,-75.187969924812,4,2,0,80,0,1
171569,-75.187969924812,4,1,1,60,0,1
171727,-75.187969924812,4,3,0,70,0,1
171885,-75.187969924812,4,1,3,60,0,1
172043,-75.187969924812,4,3,0,70,0,1
172200,-75.187969924812,4,1,3,60,0,1
172359,-75.187969924812,4,2,0,80,0,1
172516,-37.593984962406,4,1,1,60,0,1
172675,-75.187969924812,4,3,0,70,0,1
172832,-75.187969924812,4,1,3,60,0,1
172990,-75.187969924812,4,3,0,70,0,1
173148,-75.187969924812,4,1,3,60,0,1
173307,-75.187969924812,4,2,0,80,0,1
173464,-75.187969924812,4,1,1,60,0,1
173622,-75.187969924812,4,3,0,70,0,1
173780,-75.187969924812,4,1,3,60,0,1
173938,-75.187969924812,4,3,0,70,0,1
174095,-75.187969924812,4,1,3,60,0,1
174254,-75.187969924812,4,2,0,80,0,1
174411,-75.187969924812,4,1,1,60,0,1
174569,-75.187969924812,4,3,1,70,0,1
174727,-75.187969924812,4,1,3,60,0,1
174885,-75.187969924812,4,3,1,70,0,1
175042,-75.187969924812,4,1,3,60,0,1
175201,-75.187969924812,4,2,1,70,0,1
175359,-75.187969924812,4,1,1,60,0,1
175517,-75.187969924812,4,2,1,70,0,1
175675,-75.187969924812,4,1,3,60,0,1
175833,-75.187969924812,4,2,1,70,0,1
175990,-75.187969924812,4,1,3,60,0,1
176149,-75.187969924812,4,2,1,70,0,1
176306,-75.187969924812,4,1,1,60,0,1
176464,-75.187969924812,4,3,1,70,0,1
176622,-75.187969924812,4,1,3,60,0,1
176780,-75.187969924812,4,2,0,80,0,1
176937,-75.187969924812,4,1,3,60,0,1
177096,-75.187969924812,4,2,0,80,0,1
177253,-75.187969924812,4,1,1,60,0,1
177332,-75.187969924812,4,1,1,50,0,1
177569,-75.187969924812,4,1,3,60,0,1
177648,-75.187969924812,4,1,3,45,0,1
177884,-75.187969924812,4,1,3,60,0,1
177964,-75.187969924812,4,1,3,40,0,1
178201,315.789473684211,4,3,2,50,1,0
179464,-100,4,2,2,60,0,0
179543,-100,4,3,2,50,0,0
180727,-100,4,2,2,60,0,0
180806,-100,4,3,2,50,0,0
181990,-100,4,2,2,60,0,0
182069,-100,4,3,2,50,0,0
183253,-100,4,2,2,60,0,0
183332,-100,4,3,2,50,0,0
184516,-100,4,2,2,60,0,0
184595,-100,4,3,2,50,0,0
185779,-100,4,2,2,60,0,0
185858,-100,4,3,2,50,0,0
187043,-100,4,2,2,60,0,0
187122,-100,4,3,2,50,0,0
188306,-100,4,2,1,40,0,0
189569,-100,4,2,1,45,0,0
190832,-100,4,2,1,50,0,0
192095,-100,4,2,1,55,0,0
193358,-100,4,2,1,60,0,0
193832,-100,4,3,2,50,0,0
193990,-100,4,2,1,60,0,0
194622,-100,4,2,1,65,0,0
195095,-100,4,3,2,55,0,0
195253,-100,4,2,1,65,0,0
195885,-100,4,2,1,70,0,0
196043,-100,4,3,2,60,0,0
196121,-100,4,2,1,70,0,0
196358,-100,4,3,2,60,0,0
196436,-100,4,2,1,70,0,0
196674,-100,4,3,2,60,0,0
196752,-100,4,2,1,70,0,0
196990,-100,4,3,2,60,0,0
197068,-100,4,2,1,70,0,0
198411,-40,4,1,1,60,0,1
200622,-28.5714285714286,4,1,1,60,0,1
200937,-40,4,1,1,60,0,1
202201,-75.187969924812,4,1,1,60,0,1
202990,-75.187969924812,4,1,1,55,0,1
203148,-75.187969924812,4,1,1,50,0,1
203306,-75.187969924812,4,1,1,45,0,1
203464,-40,4,1,1,60,0,1
205674,-22.2222222222222,4,1,1,60,0,1
205832,-22.2222222222222,4,1,2,60,0,1
205990,-40,4,1,1,60,0,1
207885,-40,4,1,1,60,0,1
208043,-40,4,1,1,65,0,1
208201,-40,4,1,1,70,0,1
208358,-40,4,1,1,75,0,1
208516,-40,4,1,1,60,0,1
210727,-28.5714285714286,4,1,1,60,0,1
211043,-40,4,1,1,60,0,1
212306,-75.187969924812,4,1,1,60,0,1
213095,-75.187969924812,4,1,1,55,0,1
213253,-75.187969924812,4,1,1,50,0,1
213411,-75.187969924812,4,1,1,45,0,1
213569,-40,4,1,1,60,0,1
215779,-40,4,3,0,60,0,1
216095,-40,4,1,1,60,0,1
216332,-40,4,1,1,62,0,1
216569,-40,4,1,1,64,0,1
216806,-40,4,1,1,66,0,1
217043,-33.3333333333333,4,1,1,68,0,1
217279,-33.3333333333333,4,1,1,70,0,1
217516,-33.3333333333333,4,1,1,72,0,1
217753,-33.3333333333333,4,1,1,74,0,1
217990,-28.5714285714286,4,1,2,75,0,1
218148,-28.5714285714286,4,1,1,70,0,1
218306,-28.5714285714286,4,1,2,65,0,1
218464,-28.5714285714286,4,1,1,60,0,1
218622,-40,4,2,1,80,0,0
218779,-40,4,1,0,70,0,0
218937,-40,4,2,10,50,0,0
219095,-40,4,2,1,60,0,0
219253,-40,4,2,10,50,0,0
219411,-40,4,2,1,60,0,0
219569,-40,4,2,10,50,0,0
219727,-40,4,2,1,60,0,0
220201,-40,4,2,10,50,0,0
220359,-40,4,2,1,60,0,0
220516,-40,4,2,10,50,0,0
220674,-40,4,2,1,60,0,0
220832,-40,4,2,10,50,0,0
220990,-40,4,2,1,60,0,0
221306,-40,4,1,0,70,0,0
221464,-40,4,2,10,50,0,0
221622,-40,4,2,1,60,0,0
221779,-40,4,2,10,50,0,0
221937,-40,4,2,1,60,0,0
222095,-40,4,2,10,50,0,0
222253,-40,4,2,1,60,0,0
222727,-40,4,2,10,50,0,0
222885,-40,4,2,1,60,0,0
223043,-40,4,2,10,50,0,0
223201,-40,4,2,1,60,0,0
223358,-40,4,2,10,50,0,0
223516,-40,4,2,1,60,0,0
223832,-40,4,1,0,70,0,0
223990,-40,4,2,10,50,0,0
224148,-40,4,2,1,60,0,0
224306,-40,4,2,10,50,0,0
224464,-40,4,2,1,60,0,0
224622,-40,4,2,10,50,0,0
224780,-40,4,2,1,60,0,0
225253,-40,4,2,10,50,0,0
225411,-40,4,2,1,60,0,0
225569,-40,4,2,10,50,0,0
225727,-40,4,2,1,60,0,0
225885,-40,4,2,10,50,0,0
226043,-40,4,2,1,60,0,0
226358,-40,4,1,0,70,0,0
226516,-40,4,2,10,50,0,0
226674,-40,4,2,1,60,0,0
226832,-40,4,2,10,50,0,0
226990,-40,4,2,1,60,0,0
227148,-40,4,2,10,50,0,0
227306,-40,4,2,1,60,0,0
227622,-40,4,1,0,70,0,0
227779,-40,4,2,10,50,0,0
227937,-40,4,1,0,70,0,0
228094,-40,4,2,10,50,0,0
228253,-40,4,1,0,70,0,0
228410,-40,4,2,10,50,0,0
228569,-40,4,2,1,60,0,0
228727,-28.5714285714286,4,1,3,50,0,0
229043,-40,4,1,3,50,0,0
231253,-28.5714285714286,4,1,3,55,0,0
231569,-40,4,1,3,55,0,0
233779,-40,4,1,3,60,0,0
233937,-40,4,1,1,60,0,0
234095,-40,4,1,3,60,0,0
234253,-40,4,1,1,60,0,0
234411,-40,4,1,3,60,0,0
234569,-40,4,1,1,60,0,0
234727,-40,4,1,3,60,0,0
234885,-40,4,1,1,60,0,0
235043,-40,4,1,3,60,0,0
235201,-40,4,1,1,60,0,0
235359,-40,4,1,3,60,0,0
235516,-40,4,1,1,60,0,0
235674,-40,4,1,3,60,0,0
235832,-40,4,1,1,60,0,0
235990,-40,4,3,0,60,0,0
236306,-40,4,1,1,60,0,0
236543,-40,4,1,1,62,0,0
236780,-40,4,1,1,64,0,0
237017,-40,4,1,1,66,0,0
237254,-40,4,1,1,68,0,0
237490,-40,4,1,1,70,0,0
237727,-40,4,1,1,72,0,0
237964,-40,4,1,1,74,0,0
238201,-40,4,1,2,75,0,0
238832,-100,4,3,0,40,0,0
241516,-100,4,2,0,40,0,0
241990,-100,4,2,0,30,0,0
242622,-100,4,2,0,20,0,0
243253,-100,4,2,0,10,0,0
243885,-100,4,2,0,5,0,0

[Colours]
Combo1 : 53,53,53
Combo2 : 212,212,212
Combo3 : 159,159,159
Combo4 : 106,106,106

[HitObjects]
112,192,1360,6,0,L|208:192,2,96,14|2|0,0:0|0:0|0:0,0:0:0:0:
256,192,1833,2,0,B|272:96,1,96,2|0,0:0|0:0,0:0:0:0:
128,192,2149,2,0,B|112:96,1,96,2|0,0:0|0:0,0:0:0:0:
160,96,2386,1,0,0:0:0:0:
256,96,2465,2,0,L|256:144,1,48,2|0,0:0|0:0,0:0:0:0:
160,96,2623,6,0,L|64:96,2,96,2|2|0,0:0|0:0|0:0,0:0:0:0:
160,96,3017,1,0,0:0:0:0:
64,192,3096,2,0,B|48:96,1,96,2|0,0:0|0:0,0:0:0:0:
96,96,3333,1,0,0:0:0:0:
192,192,3412,2,0,B|208:96,1,96,2|2,0:0|0:0,0:0:0:0:
64,96,3728,1,2,0:0:0:0:
208,192,3886,6,0,L|304:192,2,96,2|2|0,0:0|0:0|0:0,0:0:0:0:
352,192,4360,2,0,B|368:96,1,96,2|0,0:0|0:0,0:0:0:0:
224,192,4675,2,0,B|208:96,1,96,2|0,0:0|0:0,0:0:0:0:
256,96,4912,1,0,0:0:0:0:
352,96,4991,2,0,L|352:144,1,48,2|0,0:0|0:0,0:0:0:0:
256,96,5149,6,0,L|160:96,2,96,2|2|0,0:0|0:0|0:0,0:0:0:0:
256,96,5544,1,0,0:0:0:0:
160,192,5623,2,0,B|144:96,1,96,2|0,0:0|0:0,0:0:0:0:
192,96,5860,1,0,0:0:0:0:
288,192,5938,2,0,B|304:96,1,96,2|2,0:0|0:0,0:0:0:0:
160,96,6254,1,2,0:0:0:0:
304,192,6412,6,0,L|400:192,2,96,2|2|0,0:0|0:0|0:0,0:0:0:0:
448,192,6886,2,0,B|464:96,1,96,2|0,0:0|0:0,0:0:0:0:
320,192,7202,2,0,B|304:96,1,96,2|0,0:0|0:0,0:0:0:0:
352,96,7438,1,0,0:0:0:0:
448,96,7517,2,0,L|448:144,1,48,2|0,0:0|0:0,0:0:0:0:
352,96,7675,6,0,L|256:96,2,96,2|2|0,0:0|0:0|0:0,0:0:0:0:
352,96,8070,1,0,0:0:0:0:
256,192,8149,2,0,B|240:96,1,96,2|0,0:0|0:0,0:0:0:0:
288,96,8386,1,0,0:0:0:0:
384,192,8465,2,0,B|400:96,1,96,2|2,0:0|0:0,0:0:0:0:
256,96,8781,1,2,0:0:0:0:
112,192,8938,6,0,L|208:192,2,96,2|2|0,0:0|0:0|0:0,0:0:0:0:
256,192,9412,2,0,B|272:96,1,96,2|0,0:0|0:0,0:0:0:0:
128,192,9728,2,0,B|112:96,1,96,2|0,0:0|0:0,0:0:0:0:
160,96,9965,1,0,0:0:0:0:
256,96,10044,2,0,L|256:144,1,48,2|0,0:0|0:0,0:0:0:0:
160,96,10202,6,0,L|256:96,1,96,2|0,0:0|0:0,0:0:0:0:
112,96,10517,2,0,L|64:96,2,48,2|0|0,0:0|0:0|0:0,0:0:0:0:
208,96,10833,1,0,0:0:0:0:
352,96,10991,2,0,L|352:144,1,48,2|0,0:0|0:0,0:0:0:0:
256,192,11149,1,2,0:0:0:0:
304,192,11228,1,0,0:0:0:0:
400,192,11307,1,2,0:0:0:0:
160,192,11465,6,0,L|144:128,2,64,14|0|0,0:0|0:0|0:0,0:0:0:0:
272,192,11781,1,0,0:0:0:0:
160,192,11886,2,0,L|112:148,1,64,2|0,0:0|0:0,0:0:0:0:
208,192,12096,2,0,L|256:148,2,64,2|0|0,0:0|0:0|0:0,0:0:0:0:
304,192,12412,2,0,L|320:128,2,64,2|0|0,0:0|0:0|0:0,0:0:0:0:
208,192,12728,6,0,L|192:128,2,64,2|0|0,0:0|0:0|0:0,0:0:0:0:
320,192,13044,1,0,0:0:0:0:
208,192,13149,2,0,L|160:148,1,64,2|0,0:0|0:0,0:0:0:0:
272,144,13360,2,0,L|224:100,2,64,2|0|0,0:0|0:0|0:0,0:0:0:0:
160,192,13675,2,0,L|160:256,2,64,2|0|0,0:0|0:0|0:0,0:0:0:0:
352,192,13991,6,0,L|368:128,2,64,10|0|0,0:0|0:0|0:0,0:0:0:0:
240,192,14307,1,0,0:0:0:0:
352,192,14412,2,0,L|400:148,1,64,2|0,0:0|0:0,0:0:0:0:
304,192,14623,2,0,L|256:148,2,64,2|0|0,0:0|0:0|0:0,0:0:0:0:
208,192,14938,2,0,L|192:128,2,64,2|0|0,0:0|0:0|0:0,0:0:0:0:
304,192,15254,6,0,L|320:128,2,64,2|0|0,0:0|0:0|0:0,0:0:0:0:
192,192,15570,1,0,0:0:0:0:
304,192,15675,2,0,L|352:148,1,64,2|0,0:0|0:0,0:0:0:0:
240,144,15886,2,0,L|176:144,2,64,2|0|0,0:0|0:0|0:0,0:0:0:0:
352,256,16202,2,0,L|288:256,2,64,2|2|2,0:0|0:0|0:0,0:0:0:0:
160,256,16517,5,10,0:0:0:0:
272,256,16623,2,0,L|256:192,1,64,0|0,0:0|0:0,0:0:0:0:
368,192,16833,1,2,0:0:0:0:
256,192,16938,2,0,L|304:148,1,64,2|0,0:0|0:0,0:0:0:0:
192,144,17149,2,0,L|144:100,1,64,2|0,0:0|0:0,0:0:0:0:
256,96,17360,1,0,0:0:0:0:
144,48,17465,2,0,L|192:4,2,64,2|0|0,0:0|0:0|0:0,0:0:0:0:
256,192,17781,6,0,L|272:128,2,64,10|0|0,0:0|0:0|0:0,0:0:0:0:
144,192,18096,1,0,0:0:0:0:
256,192,18202,2,0,L|304:148,1,64,2|0,0:0|0:0,0:0:0:0:
192,144,18412,2,0,L|240:100,2,64,2|2|2,0:0|0:0|0:0,0:0:0:0:
304,192,18728,2,0,L|304:128,2,64,2|0|0,0:0|0:0|0:0,0:0:0:0:
112,192,19044,5,10,0:0:0:0:
256,192,19202,1,0,0:0:0:0:
16,96,19360,1,8,0:0:0:0:
160,96,19517,1,0,0:0:0:0:
400,192,19675,2,0,L|400:144,1,48,8|0,0:0|0:0,0:0:0:0:
336,192,19833,2,0,L|336:144,1,48,2|0,0:0|0:0,0:0:0:0:
480,80,19991,1,10,0:0:0:0:
416,80,20070,1,0,0:0:0:0:
480,80,20149,1,2,0:0:0:0:
416,80,20228,1,0,0:0:0:0:
272,80,20307,5,8,0:0:0:0:
208,80,20386,1,2,0:0:0:0:
352,192,20465,1,8,0:0:0:0:
416,192,20544,1,2,0:0:0:0:
208,304,20623,1,8,0:0:0:0:
272,304,20702,1,2,0:0:0:0:
416,304,20781,1,8,0:0:0:0:
352,304,20860,1,2,0:0:0:0:
208,128,20938,5,10,0:0:0:0:
168,136,20978,1,0,0:0:0:0:
136,160,21017,1,2,0:0:0:0:
128,192,21057,1,0,0:0:0:0:
136,160,21096,1,2,0:0:0:0:
168,136,21136,1,0,0:0:0:0:
208,128,21175,1,2,0:0:0:0:
384,64,21254,2,0,L|384:208,1,144,2|0,0:0|0:0,0:0:0:0:
128,64,21570,6,0,L|368:64,1,240,14|0,0:0|0:0,0:0:0:0:
384,128,21886,2,0,L|144:128,1,240,10|0,0:0|0:0,0:0:0:0:
160,192,22202,2,0,L|400:192,1,240,10|0,0:0|0:0,0:0:0:0:
416,256,22517,2,0,L|176:256,1,240,10|0,0:0|0:0,0:0:0:0:
160,320,22833,6,0,L|400:320,1,240,10|0,0:0|0:0,0:0:0:0:
384,256,23149,2,0,L|144:256,1,240,10|0,0:0|0:0,0:0:0:0:
128,192,23465,2,0,L|368:192,1,240,10|0,0:0|0:0,0:0:0:0:
464,128,23781,2,0,L|128:128,1,336.000003204346,8|10,0:0|0:0,0:0:0:0:
368,64,24096,6,0,L|128:64,1,240,10|0,0:0|0:0,0:0:0:0:
112,128,24412,2,0,L|352:128,1,240,10|0,0:0|0:0,0:0:0:0:
368,192,24728,2,0,L|128:192,1,240,10|0,0:0|0:0,0:0:0:0:
144,256,25044,2,0,L|384:256,1,240,10|0,0:0|0:0,0:0:0:0:
480,320,25360,6,0,L|480:272,1,48,10|0,0:0|0:0,0:0:0:0:
336,192,25517,1,2,0:0:0:0:
240,320,25675,2,0,L|240:272,1,48,10|0,0:0|0:0,0:0:0:0:
384,192,25833,1,2,0:0:0:0:
480,96,25991,2,0,L|432:96,1,48,10|0,0:0|0:0,0:0:0:0:
288,96,26149,2,0,L|240:96,1,48,2|0,0:0|0:0,0:0:0:0:
384,96,26307,2,0,L|368:144,1,48,10|0,0:0|0:0,0:0:0:0:
224,96,26465,2,0,L|208:144,1,48,2|0,0:0|0:0,0:0:0:0:
352,64,26623,6,0,L|112:64,1,240,10|0,0:0|0:0,0:0:0:0:
96,128,26938,2,0,L|336:128,1,240,10|0,0:0|0:0,0:0:0:0:
320,192,27254,2,0,L|80:192,1,240,10|0,0:0|0:0,0:0:0:0:
64,256,27570,2,0,L|304:256,1,240,10|0,0:0|0:0,0:0:0:0:
320,320,27886,6,0,L|80:320,1,240,10|0,0:0|0:0,0:0:0:0:
96,256,28202,2,0,L|336:256,1,240,10|0,0:0|0:0,0:0:0:0:
352,192,28517,2,0,L|112:192,1,240,10|0,0:0|0:0,0:0:0:0:
16,128,28833,2,0,L|448:128,1,432.000016479493,8|10,0:0|0:0,0:0:0:0:
208,64,29149,6,0,L|448:64,1,240,10|0,0:0|0:0,0:0:0:0:
464,128,29465,2,0,L|224:128,1,240,10|0,0:0|0:0,0:0:0:0:
208,192,29781,2,0,L|448:192,1,240,10|0,0:0|0:0,0:0:0:0:
432,256,30096,2,0,L|192:256,1,240,10|0,0:0|0:0,0:0:0:0:
96,192,30412,6,0,L|336:192,1,240,10|2,0:0|0:0,0:0:0:0:
432,128,30728,2,0,L|192:128,1,240,10|2,0:0|0:0,0:0:0:0:
96,64,31044,2,0,L|144:64,1,48,10|0,0:0|0:0,0:0:0:0:
288,64,31202,2,0,L|336:64,1,48,2|0,0:0|0:0,0:0:0:0:
192,192,31360,1,10,0:0:0:0:
128,192,31438,1,0,0:0:0:0:
288,192,31517,1,2,0:0:0:0:
224,192,31596,1,0,0:0:0:0:
384,64,31675,6,0,L|144:64,1,240,14|0,0:0|0:0,0:0:0:0:
128,128,31991,2,0,L|368:128,1,240,10|0,0:0|0:0,0:0:0:0:
352,192,32307,2,0,L|112:192,1,240,10|0,0:0|0:0,0:0:0:0:
96,256,32623,2,0,L|336:256,1,240,10|0,0:0|0:0,0:0:0:0:
352,320,32938,6,0,L|112:320,1,240,10|0,0:0|0:0,0:0:0:0:
128,256,33254,2,0,L|368:256,1,240,10|0,0:0|0:0,0:0:0:0:
384,192,33570,2,0,L|144:192,1,240,10|0,0:0|0:0,0:0:0:0:
48,128,33886,2,0,L|384:128,1,336.000003204346,8|10,0:0|0:0,0:0:0:0:
144,64,34202,6,0,L|384:64,1,240,10|0,0:0|0:0,0:0:0:0:
400,128,34517,2,0,L|160:128,1,240,10|0,0:0|0:0,0:0:0:0:
144,192,34833,2,0,L|384:192,1,240,10|0,0:0|0:0,0:0:0:0:
368,256,35149,2,0,L|128:256,1,240,10|0,0:0|0:0,0:0:0:0:
32,320,35465,6,0,L|80:320,1,48,10|0,0:0|0:0,0:0:0:0:
224,192,35623,1,2,0:0:0:0:
320,320,35781,2,0,L|272:320,1,48,10|0,0:0|0:0,0:0:0:0:
128,192,35938,1,2,0:0:0:0:
32,96,36096,2,0,L|80:96,1,48,10|0,0:0|0:0,0:0:0:0:
224,96,36254,2,0,L|272:96,1,48,2|0,0:0|0:0,0:0:0:0:
128,96,36412,2,0,L|144:144,1,48,10|0,0:0|0:0,0:0:0:0:
288,96,36570,2,0,L|304:144,1,48,2|0,0:0|0:0,0:0:0:0:
160,64,36728,6,0,L|400:64,1,240,10|2,0:0|0:0,0:0:0:0:
256,128,37044,2,0,L|496:128,1,240,10|2,0:0|0:0,0:0:0:0:
352,320,37360,2,0,L|112:320,1,240,10|2,0:0|0:0,0:0:0:0:
256,256,37675,2,0,L|16:256,1,240,10|2,0:0|0:0,0:0:0:0:
160,64,37991,6,0,L|400:64,1,240,10|2,0:0|0:0,0:0:0:0:
256,128,38307,2,0,L|496:128,1,240,10|2,0:0|0:0,0:0:0:0:
352,320,38623,2,0,L|112:320,1,240,10|2,0:0|0:0,0:0:0:0:
256,352,38938,2,0,P|276:192|176:28,1,360,2|0,0:0|0:0,0:0:0:0:
16,192,39254,6,0,L|256:192,1,240,10|0,0:0|0:0,0:0:0:0:
336,128,39491,2,0,L|96:128,1,240,10|0,0:0|0:0,0:0:0:0:
16,64,39728,2,0,L|256:64,1,240,10|0,0:0|0:0,0:0:0:0:
176,128,39965,2,0,L|416:128,1,240,10|0,0:0|0:0,0:0:0:0:
496,192,40202,6,0,L|208:192,1,288.000010986329,10|0,0:0|0:0,0:0:0:0:
64,256,40438,2,0,L|352:256,1,288.000010986329,10|0,0:0|0:0,0:0:0:0:
496,320,40675,2,0,L|208:320,1,288.000010986329,10|0,0:0|0:0,0:0:0:0:
352,256,40912,2,0,L|64:256,1,288.000010986329,10|0,0:0|0:0,0:0:0:0:
256,192,41149,6,0,L|432:192,1,168.000001602173,10|0,0:0|0:0,0:0:0:0:
256,192,41307,2,0,L|80:192,1,168.000001602173,2|0,0:0|0:0,0:0:0:0:
256,192,41465,2,0,L|400:96,1,168.000001602173,2|0,0:0|0:0,0:0:0:0:
256,192,41623,2,0,L|112:96,1,168.000001602173,2|0,0:0|0:0,0:0:0:0:
256,0,41781,6,0,B|448:160|256:320|256:320|64:160|256:0|256:0|384:176|256:352|256:352|128:176|256:0|256:0|320:192|256:380|256:380|192:192|256:16,1,2292,6|0,0:0|0:0,0:0:0:0:
272,0,45570,6,0,B|316:192|272:380|272:380|228:192|272:0|272:0|316:192|272:380|272:380|228:192|272:0|272:0|400:96|400:224|272:320|272:320|80:320|80:320|224:320,1,2256,2|0,0:0|0:0,0:0:0:0:
80,320,49360,6,0,L|64:224,1,96,4|0,0:0|0:0,0:0:0:0:
160,192,49675,1,0,0:0:0:0:
112,192,49754,1,0,0:0:0:0:
208,192,49912,1,0,0:0:0:0:
256,192,49991,2,0,L|272:240,2,48,2|0|0,0:0|0:0|0:0,0:0:0:0:
160,192,50307,1,0,0:0:0:0:
256,192,50465,1,0,0:0:0:0:
352,192,50623,5,0,0:0:0:0:
304,192,50702,1,0,0:0:0:0:
192,112,50860,1,0,0:0:0:0:
240,112,50938,1,2,0:0:0:0:
288,112,51017,1,0,0:0:0:0:
240,112,51096,1,0,0:0:0:0:
336,112,51254,1,0,0:0:0:0:
240,112,51412,1,0,0:0:0:0:
336,192,51570,1,0,0:0:0:0:
288,192,51649,1,0,0:0:0:0:
192,192,51807,1,0,0:0:0:0:
288,256,51886,6,0,L|336:256,2,48,2|0|0,0:0|0:0|0:0,0:0:0:0:
256,192,52123,1,0,0:0:0:0:
288,128,52202,2,0,L|304:80,2,48,0|0|0,0:0|0:0|0:0,0:0:0:0:
256,64,52438,1,0,0:0:0:0:
224,128,52517,2,0,L|176:128,2,48,0|0|0,0:0|0:0|0:0,0:0:0:0:
272,128,52754,1,0,0:0:0:0:
368,192,52833,5,2,0:0:0:0:
320,192,52912,1,0,0:0:0:0:
368,192,52991,2,0,L|384:240,1,48,0|0,0:0|0:0,0:0:0:0:
336,256,53149,2,0,L|320:304,1,48,0|0,0:0|0:0,0:0:0:0:
368,320,53307,1,0,0:0:0:0:
416,256,53386,2,0,L|432:304,1,48,0|0,0:0|0:0,0:0:0:0:
384,320,53544,1,0,0:0:0:0:
336,256,53623,2,0,L|320:304,1,48,0|0,0:0|0:0,0:0:0:0:
416,192,53781,5,2,0:0:0:0:
352,192,53860,1,0,0:0:0:0:
320,144,53938,2,0,L|320:96,1,48,0|0,0:0|0:0,0:0:0:0:
384,96,54096,2,0,L|432:96,2,48,0|0|0,0:0|0:0|0:0,0:0:0:0:
336,48,54333,2,0,L|384:48,2,48,0|0|0,0:0|0:0|0:0,0:0:0:0:
288,96,54570,2,0,L|336:96,1,48,0|0,0:0|0:0,0:0:0:0:
240,192,54728,5,2,0:0:0:0:
304,192,54807,1,0,0:0:0:0:
368,192,54886,1,0,0:0:0:0:
304,192,54965,1,0,0:0:0:0:
240,192,55044,2,0,L|224:144,1,48,0|0,0:0|0:0,0:0:0:0:
288,144,55202,1,0,0:0:0:0:
224,144,55281,2,0,L|208:96,1,48,0|0,0:0|0:0,0:0:0:0:
272,96,55438,1,0,0:0:0:0:
208,96,55517,2,0,L|192:48,1,48,0|0,0:0|0:0,0:0:0:0:
288,48,55675,5,2,0:0:0:0:
352,48,55754,1,0,0:0:0:0:
288,48,55833,1,0,0:0:0:0:
352,48,55912,1,0,0:0:0:0:
256,128,55991,1,8,0:0:0:0:
192,128,56070,1,0,0:0:0:0:
192,192,56149,1,8,0:0:0:0:
256,192,56228,1,0,0:0:0:0:
352,192,56307,2,0,L|368:144,3,48,8|0|0|0,0:0|0:0|0:0|0:0,0:0:0:0:
272,272,56623,1,8,0:0:0:0:
192,272,56702,1,0,0:0:0:0:
272,272,56781,1,8,0:0:0:0:
352,272,56860,1,0,0:0:0:0:
208,192,56938,6,0,B|112:192|112:192|112:96|112:96|208:96,1,288,10|0,0:0|0:0,0:0:0:0:
256,96,57490,1,0,0:0:0:0:
112,96,57569,1,8,0:0:0:0:
112,96,57845,1,0,0:0:0:0:
256,96,57885,6,0,B|256:192|256:192|160:192,1,192,2|2,0:0|0:0,0:0:0:0:
256,192,58359,1,0,0:0:0:0:
208,192,58438,1,0,0:0:0:0:
64,192,58516,1,10,0:0:0:0:
448,96,58832,6,0,B|448:192|448:192|352:192,1,192,10|2,0:0|0:0,0:0:0:0:
256,192,59306,1,0,0:0:0:0:
304,192,59385,1,0,0:0:0:0:
448,192,59464,1,10,0:0:0:0:
64,96,59780,6,0,B|64:192|64:192|160:192|160:192|160:96,1,288,2|0,0:0|0:0,0:0:0:0:
112,96,60332,1,0,0:0:0:0:
256,96,60411,1,10,0:0:0:0:
256,192,60688,1,0,0:0:0:0:
112,192,60727,6,0,B|16:192|16:192|112:192|112:192|208:192,1,288,10|0,0:0|0:0,0:0:0:0:
160,96,61280,1,0,0:0:0:0:
16,96,61359,1,10,0:0:0:0:
400,96,61674,6,0,B|304:96|304:96|400:96,1,192,2|2,0:0|0:0,0:0:0:0:
304,192,62148,1,0,0:0:0:0:
352,192,62227,1,0,0:0:0:0:
496,192,62306,1,10,0:0:0:0:
112,96,62622,6,0,B|208:96|208:96|112:96,1,192,10|2,0:0|0:0,0:0:0:0:
208,192,63095,1,0,0:0:0:0:
256,192,63174,1,0,0:0:0:0:
112,192,63253,1,10,0:0:0:0:
496,192,63569,5,10,0:0:0:0:
352,192,63727,1,0,0:0:0:0:
496,192,63885,1,8,0:0:0:0:
352,192,64043,2,0,L|400:192,2,48,0|0|10,0:0|0:0|0:0,0:0:0:0:
496,192,64359,1,0,0:0:0:0:
256,64,64516,6,0,B|352:64|352:64|256:64|256:64|352:64,1,288,10|0,0:0|0:0,0:0:0:0:
304,64,65069,1,0,0:0:0:0:
448,64,65148,1,10,0:0:0:0:
64,192,65464,6,0,B|160:192|160:192|64:192,1,192,2|2,0:0|0:0,0:0:0:0:
160,192,65938,1,0,0:0:0:0:
208,192,66016,1,0,0:0:0:0:
64,192,66095,2,0,P|48:160|64:104,1,96,10|0,0:0|0:0,0:0:0:0:
112,96,66332,1,0,0:0:0:0:
144,96,66372,1,0,0:0:0:0:
288,96,66411,6,0,B|288:192|288:192|192:192|192:192|288:192,1,288,10|0,0:0|0:0,0:0:0:0:
240,192,66964,1,0,0:0:0:0:
96,192,67043,1,10,0:0:0:0:
96,192,67319,1,0,0:0:0:0:
240,64,67359,6,0,B|336:64|336:64|240:64|240:64|336:64,1,288,2|0,0:0|0:0,0:0:0:0:
288,64,67911,1,0,0:0:0:0:
144,64,67990,1,10,0:0:0:0:
240,64,68148,2,0,L|240:112,1,48,2|0,0:0|0:0,0:0:0:0:
96,192,68306,6,0,B|96:288|96:288|192:288|192:288|96:288,1,288,10|0,0:0|0:0,0:0:0:0:
144,192,68859,1,0,0:0:0:0:
288,192,68938,2,0,B|288:96|288:96|240:96,1,144,10|0,0:0|0:0,0:0:0:0:
384,96,69253,6,0,B|288:96|288:96|384:96,1,192,2|2,0:0|0:0,0:0:0:0:
480,192,69727,1,0,0:0:0:0:
432,192,69806,1,0,0:0:0:0:
288,96,69885,2,0,L|384:96,1,96,10|0,0:0|0:0,0:0:0:0:
336,96,70122,1,0,0:0:0:0:
192,192,70201,5,10,0:0:0:0:
336,192,70359,1,0,0:0:0:0:
192,192,70516,1,8,0:0:0:0:
432,96,70674,1,2,0:0:0:0:
192,96,70832,1,10,0:0:0:0:
432,96,70990,1,2,0:0:0:0:
96,192,71148,6,0,L|80:144,1,48,10|0,0:0|0:0,0:0:0:0:
224,192,71306,2,0,L|224:144,1,48,8|0,0:0|0:0,0:0:0:0:
368,192,71464,2,0,L|384:144,1,48,8|0,0:0|0:0,0:0:0:0:
240,192,71622,2,0,L|240:144,1,48,8|0,0:0|0:0,0:0:0:0:
80,96,71780,2,0,L|128:96,1,48,8|0,0:0|0:0,0:0:0:0:
272,96,71938,1,10,0:0:0:0:
416,96,72016,1,2,0:0:0:0:
272,96,72095,6,0,P|240:160|272:272,1,192,12|2,0:0|0:0,0:0:0:0:
368,272,72569,2,0,L|368:224,1,48,0|0,0:0|0:0,0:0:0:0:
272,192,72727,1,10,0:0:0:0:
368,192,72885,1,0,0:0:0:0:
128,192,73043,6,0,L|128:96,1,96,8|0,0:0|0:0,0:0:0:0:
176,96,73280,1,0,0:0:0:0:
128,192,73359,2,0,L|128:96,1,96,2|0,0:0|0:0,0:0:0:0:
176,96,73595,1,0,0:0:0:0:
272,192,73674,2,0,L|272:96,1,96,10|0,0:0|0:0,0:0:0:0:
32,192,73990,6,0,L|32:96,1,96,8|0,0:0|0:0,0:0:0:0:
80,96,74227,1,0,0:0:0:0:
32,192,74306,2,0,L|32:96,1,96,2|0,0:0|0:0,0:0:0:0:
176,192,74622,2,0,L|192:144,2,48,10|0|0,0:0|0:0|0:0,0:0:0:0:
128,192,74859,1,0,0:0:0:0:
272,192,74938,6,0,B|368:192|368:192|272:192,1,192,8|2,0:0|0:0,0:0:0:0:
256,144,75332,1,0,0:0:0:0:
272,96,75411,1,0,0:0:0:0:
320,96,75490,1,0,0:0:0:0:
416,96,75569,2,0,L|416:144,1,48,10|0,0:0|0:0,0:0:0:0:
320,192,75727,2,0,L|272:192,1,48,2|0,0:0|0:0,0:0:0:0:
416,192,75885,6,0,B|416:288|416:288|320:288,1,192,8|2,0:0|0:0,0:0:0:0:
224,288,76359,2,0,L|272:288,1,48,0|0,0:0|0:0,0:0:0:0:
176,96,76516,2,0,L|176:144,1,48,10|0,0:0|0:0,0:0:0:0:
272,192,76674,2,0,L|224:192,1,48,0|0,0:0|0:0,0:0:0:0:
80,48,76832,6,0,L|176:48,1,96,8|0,0:0|0:0,0:0:0:0:
224,80,77069,1,0,0:0:0:0:
176,112,77148,2,0,L|80:112,1,96,2|0,0:0|0:0,0:0:0:0:
32,80,77385,1,0,0:0:0:0:
128,192,77464,2,0,L|32:192,1,96,10|0,0:0|0:0,0:0:0:0:
80,240,77701,1,0,0:0:0:0:
224,192,77780,6,0,L|320:192,1,96,8|0,0:0|0:0,0:0:0:0:
272,224,78016,1,0,0:0:0:0:
320,256,78095,2,0,L|416:256,1,96,2|0,0:0|0:0,0:0:0:0:
368,224,78332,1,0,0:0:0:0:
272,336,78411,2,0,L|368:336,1,96,10|0,0:0|0:0,0:0:0:0:
128,192,78727,6,0,B|128:336|128:336|272:336,1,288.000010986329,8|2,0:0|0:0,0:0:0:0:
320,336,79122,1,0,0:0:0:0:
224,288,79201,2,0,L|176:288,1,48,0|0,0:0|0:0,0:0:0:0:
272,288,79359,2,0,L|272:240,1,48,10|0,0:0|0:0,0:0:0:0:
176,240,79516,2,0,L|224:240,1,48,2|0,0:0|0:0,0:0:0:0:
368,192,79674,6,0,B|176:192,1,192,12|10,0:0|0:0,0:0:0:0:
272,96,80148,2,0,L|320:96,1,48,0|0,0:0|0:0,0:0:0:0:
224,96,80306,2,0,L|176:96,3,48,10|0|0|0,0:0|0:0|0:0|0:0,0:0:0:0:
320,192,80622,6,0,L|320:96,1,96,8|0,0:0|0:0,0:0:0:0:
272,96,80859,1,0,0:0:0:0:
176,192,80938,2,0,L|176:96,1,96,10|0,0:0|0:0,0:0:0:0:
224,96,81174,1,0,0:0:0:0:
128,48,81253,2,0,L|224:48,1,96,10|0,0:0|0:0,0:0:0:0:
464,192,81569,6,0,L|464:96,1,96,8|0,0:0|0:0,0:0:0:0:
416,96,81806,1,0,0:0:0:0:
320,32,81885,2,0,L|416:32,1,96,10|0,0:0|0:0,0:0:0:0:
368,32,82122,1,0,0:0:0:0:
272,192,82201,2,0,L|368:192,1,96,10|0,0:0|0:0,0:0:0:0:
128,96,82516,6,0,B|272:96|272:96|128:96,1,288.000010986329,8|10,0:0|0:0,0:0:0:0:
80,96,82911,1,0,0:0:0:0:
176,240,82990,2,0,L|224:240,1,48,0|0,0:0|0:0,0:0:0:0:
128,240,83148,2,0,L|128:192,1,48,10|0,0:0|0:0,0:0:0:0:
224,192,83306,2,0,L|176:192,1,48,2|0,0:0|0:0,0:0:0:0:
320,192,83464,6,0,B|320:336|320:336|176:336,1,288.000010986329,8|10,0:0|0:0,0:0:0:0:
320,192,83938,2,0,L|320:144,1,48,8|0,0:0|0:0,0:0:0:0:
176,80,84095,2,0,L|176:128,1,48,10|0,0:0|0:0,0:0:0:0:
272,80,84253,2,0,L|224:80,1,48,0|0,0:0|0:0,0:0:0:0:
80,80,84411,6,0,L|80:176,1,96,8|0,0:0|0:0,0:0:0:0:
128,176,84648,1,0,0:0:0:0:
272,192,84727,1,10,0:0:0:0:
416,192,84885,1,8,0:0:0:0:
176,256,85043,1,10,0:0:0:0:
320,256,85201,2,0,L|320:208,1,48,0|0,0:0|0:0,0:0:0:0:
176,192,85359,5,8,0:0:0:0:
128,192,85438,1,0,0:0:0:0:
96,144,85516,1,0,0:0:0:0:
96,96,85595,1,0,0:0:0:0:
128,48,85674,1,10,0:0:0:0:
176,48,85753,1,0,0:0:0:0:
320,48,85832,2,0,L|368:48,1,48,8|0,0:0|0:0,0:0:0:0:
224,48,85990,2,0,L|224:96,1,48,10|0,0:0|0:0,0:0:0:0:
368,96,86148,2,0,L|320:96,1,48,2|0,0:0|0:0,0:0:0:0:
176,192,86306,6,0,P|148:244|144:280,1,96,8|0,0:0|0:0,0:0:0:0:
175,319,86543,1,0,0:0:0:0:
224,320,86622,1,2,0:0:0:0:
168,264,86701,1,0,0:0:0:0:
232,264,86780,1,2,0:0:0:0:
160,208,86859,1,0,0:0:0:0:
352,96,86938,1,2,0:0:0:0:
392,104,86977,1,0,0:0:0:0:
424,128,87016,1,0,0:0:0:0:
432,160,87056,1,0,0:0:0:0:
424,128,87095,1,0,0:0:0:0:
392,104,87135,1,0,0:0:0:0:
352,96,87174,1,0,0:0:0:0:
112,48,87253,6,0,B|96:176|96:176|160:176,1,191.519992109619,12|0,0:0|0:0,0:0:0:0:
352,48,87569,2,0,B|336:176|336:176|272:176,1,191.519992109619,8|0,0:0|0:0,0:0:0:0:
80,48,87885,1,8,0:0:0:0:
320,48,88043,1,8,0:0:0:0:
64,48,88201,6,0,B|48:176|48:176|112:176,1,191.519992109619,8|0,0:0|0:0,0:0:0:0:
304,48,88516,2,0,B|288:176|288:176|224:176,1,191.519992109619,8|0,0:0|0:0,0:0:0:0:
32,48,88832,2,0,B|16:176|16:176|80:176,1,191.519992109619,8|0,0:0|0:0,0:0:0:0:
272,48,89148,6,0,B|400:48|400:48|336:48,1,191.519992109619,8|0,0:0|0:0,0:0:0:0:
144,48,89464,2,0,B|16:48|16:48|80:48,1,191.519992109619,8|0,0:0|0:0,0:0:0:0:
272,192,89780,1,8,0:0:0:0:
16,192,89938,1,8,0:0:0:0:
272,192,90095,6,0,B|400:192|400:192|336:192,1,191.519992109619,8|0,0:0|0:0,0:0:0:0:
144,192,90411,2,0,B|32:128|32:128|96:128,1,191.519992109619,8|0,0:0|0:0,0:0:0:0:
288,192,90727,2,0,B|304:64|304:64|240:64,1,191.519992109619,8|0,0:0|0:0,0:0:0:0:
432,192,91043,6,0,B|496:192|496:192|368:192,1,191.519992109619,8|0,0:0|0:0,0:0:0:0:
176,64,91359,2,0,B|48:64|48:64|112:64,1,191.519992109619,8|0,0:0|0:0,0:0:0:0:
304,64,91674,1,8,0:0:0:0:
48,64,91832,1,8,0:0:0:0:
432,192,91990,6,0,B|496:192|496:192|368:192,1,191.519992109619,8|0,0:0|0:0,0:0:0:0:
176,192,92306,2,0,B|48:192|48:192|112:192,1,191.519992109619,8|0,0:0|0:0,0:0:0:0:
304,192,92622,2,0,B|368:192|368:192|240:192,1,191.519992109619,8|0,0:0|0:0,0:0:0:0:
48,64,92938,6,0,B|176:64|176:64|112:64,1,191.519992109619,8|0,0:0|0:0,0:0:0:0:
304,192,93253,2,0,B|416:128|416:128|352:128,1,191.519992109619,8|0,0:0|0:0,0:0:0:0:
160,192,93569,2,0,B|144:64|144:64|208:64,1,191.519992109619,8|0,0:0|0:0,0:0:0:0:
400,112,93885,6,0,B|416:352|416:352|176:352,1,480,8|2,0:0|0:0,0:0:0:0:
112,352,94280,1,0,0:0:0:0:
304,192,94359,2,0,L|368:192,1,63.8399973698732,8|0,0:0|0:0,0:0:0:0:
176,192,94516,2,0,L|192:128,1,63.8399973698732,8|0,0:0|0:0,0:0:0:0:
384,192,94674,2,0,L|400:128,1,63.8399973698732,8|0,0:0|0:0,0:0:0:0:
208,48,94832,6,0,B|80:48|80:48|144:48,1,191.519992109619,8|0,0:0|0:0,0:0:0:0:
336,48,95148,2,0,B|464:48|464:48|400:48,1,191.519992109619,8|0,0:0|0:0,0:0:0:0:
208,192,95464,1,8,0:0:0:0:
464,192,95622,1,8,0:0:0:0:
208,64,95780,6,0,B|192:192|192:192|256:192,1,191.519992109619,8|0,0:0|0:0,0:0:0:0:
448,64,96095,2,0,B|432:192|432:192|368:192,1,191.519992109619,8|0,0:0|0:0,0:0:0:0:
176,64,96411,2,0,B|64:128|64:128|128:128,1,191.519992109619,8|0,0:0|0:0,0:0:0:0:
320,192,96727,6,0,B|448:192|448:192|384:192,1,191.519992109619,8|0,0:0|0:0,0:0:0:0:
192,192,97043,2,0,B|64:192|64:192|128:192,1,191.519992109619,8|0,0:0|0:0,0:0:0:0:
320,192,97359,2,0,B|432:128|432:128|368:128,1,191.519992109619,8|0,0:0|0:0,0:0:0:0:
176,192,97674,6,0,B|160:320|160:320|224:320,1,191.519992109619,8|0,0:0|0:0,0:0:0:0:
416,320,97990,2,0,L|432:192,1,127.679994739746,8|0,0:0|0:0,0:0:0:0:
176,96,98306,1,8,0:0:0:0:
432,96,98464,1,8,0:0:0:0:
176,192,98622,6,0,B|48:192|48:192|112:192,1,191.519992109619,8|0,0:0|0:0,0:0:0:0:
304,192,98938,2,0,B|368:192|368:192|240:192,1,191.519992109619,8|0,0:0|0:0,0:0:0:0:
48,192,99253,1,8,0:0:0:0:
304,352,99411,6,0,B|48:352|48:352|32:96|32:96|112:192,1,638.399973698732,8|0,0:0|0:0,0:0:0:0:
304,192,99885,2,0,B|368:192|368:192|240:192,1,191.519992109619,8|0,0:0|0:0,0:0:0:0:
432,192,100201,2,0,B|496:192|496:192|368:192,1,191.519992109619,8|0,0:0|0:0,0:0:0:0:
176,112,100516,6,0,B|48:112|48:112|112:112,1,191.519992109619,8|0,0:0|0:0,0:0:0:0:
304,192,100832,2,0,L|208:192,2,85.1199964931642,8|2|2,0:0|0:0|0:0,0:0:0:0:
48,112,101148,2,0,L|176:112,1,127.679994739746,8|0,0:0|0:0,0:0:0:0:
416,112,101464,6,0,L|416:176,1,64,8|0,0:0|0:0,0:0:0:0:
336,192,101674,1,0,0:0:0:0:
144,192,101780,1,8,0:0:0:0:
224,192,101885,1,0,0:0:0:0:
144,192,101990,1,0,0:0:0:0:
336,192,102095,2,0,L|352:160,2,24,8|0|0,0:0|0:0|0:0,0:0:0:0:
144,192,102253,2,0,L|128:160,2,24,8|0|0,0:0|0:0|0:0,0:0:0:0:
336,64,102411,6,0,L|208:64,1,127.679994739746,12|0,0:0|0:0,0:0:0:0:
208,64,102648,1,0,0:0:0:0:
272,112,102727,2,0,L|208:112,1,63.8399973698732,0|0,0:0|0:0,0:0:0:0:
400,192,102885,2,0,L|464:192,1,63.8399973698732,2|0,0:0|0:0,0:0:0:0:
272,272,103043,2,0,L|400:272,1,127.679994739746,8|10,0:0|0:0,0:0:0:0:
336,272,103280,1,0,0:0:0:0:
144,64,103359,6,0,L|16:64,1,127.679994739746,8|0,0:0|0:0,0:0:0:0:
16,64,103595,1,0,0:0:0:0:
80,112,103674,2,0,L|16:112,1,63.8399973698732,0|0,0:0|0:0,0:0:0:0:
208,192,103832,2,0,L|272:192,1,63.8399973698732,2|0,0:0|0:0,0:0:0:0:
80,272,103990,2,0,L|208:272,1,127.679994739746,8|10,0:0|0:0,0:0:0:0:
144,272,104227,1,0,0:0:0:0:
336,64,104306,6,0,L|208:64,1,127.679994739746,8|0,0:0|0:0,0:0:0:0:
272,64,104543,1,0,0:0:0:0:
208,112,104622,2,0,L|272:112,1,63.8399973698732,0|0,0:0|0:0,0:0:0:0:
464,192,104780,2,0,L|400:192,1,63.8399973698732,2|0,0:0|0:0,0:0:0:0:
207,272,104938,2,0,L|335:272,1,127.679994739746,8|10,0:0|0:0,0:0:0:0:
271,272,105174,1,0,0:0:0:0:
80,64,105253,6,0,L|208:64,1,127.679994739746,8|0,0:0|0:0,0:0:0:0:
144,64,105490,1,0,0:0:0:0:
208,112,105569,2,0,L|144:112,1,63.8399973698732,0|0,0:0|0:0,0:0:0:0:
336,112,105727,2,0,L|336:176,1,63.8399973698732,2|0,0:0|0:0,0:0:0:0:
144,272,105885,2,0,L|272:272,1,127.679994739746,8|10,0:0|0:0,0:0:0:0:
208,272,106122,1,0,0:0:0:0:
400,64,106201,6,0,L|272:64,1,127.679994739746,8|0,0:0|0:0,0:0:0:0:
336,64,106438,1,0,0:0:0:0:
336,112,106516,2,0,L|272:112,1,63.8399973698732,0|0,0:0|0:0,0:0:0:0:
80,192,106674,2,0,L|144:192,1,63.8399973698732,2|0,0:0|0:0,0:0:0:0:
336,272,106832,2,0,L|208:272,1,127.679994739746,8|10,0:0|0:0,0:0:0:0:
272,272,107069,1,0,0:0:0:0:
80,192,107148,6,0,L|72:104,1,85.1199964931642,8|0,0:0|0:0,0:0:0:0:
160,96,107359,1,0,0:0:0:0:
368,96,107464,2,0,L|272:96,2,85.1199964931642,8|2|2,0:0|0:0|0:0,0:0:0:0:
160,192,107780,2,0,L|288:192,1,127.679994739746,8|0,0:0|0:0,0:0:0:0:
224,192,108016,1,0,0:0:0:0:
416,288,108095,6,0,L|288:288,1,127.679994739746,8|0,0:0|0:0,0:0:0:0:
352,288,108332,1,0,0:0:0:0:
160,192,108411,2,0,L|288:192,1,127.679994739746,10|0,0:0|0:0,0:0:0:0:
224,192,108648,1,0,0:0:0:0:
416,192,108727,2,0,L|432:64,1,127.679994739746,10|0,0:0|0:0,0:0:0:0:
368,64,108964,1,0,0:0:0:0:
176,64,109043,6,0,L|160:128,1,63.8399973698732,8|0,0:0|0:0,0:0:0:0:
240,64,109201,2,0,L|224:128,1,63.8399973698732,8|0,0:0|0:0,0:0:0:0:
32,192,109359,2,0,L|96:192,1,63.8399973698732,2|0,0:0|0:0,0:0:0:0:
288,192,109516,2,0,L|352:192,1,63.8399973698732,10|0,0:0|0:0,0:0:0:0:
160,192,109674,2,0,L|160:128,1,63.8399973698732,8|0,0:0|0:0,0:0:0:0:
352,128,109832,2,0,L|288:128,1,63.8399973698732,10|0,0:0|0:0,0:0:0:0:
96,64,109990,6,0,L|224:64,1,127.679994739746,8|0,0:0|0:0,0:0:0:0:
160,64,110227,1,0,0:0:0:0:
160,128,110306,2,0,L|224:128,1,63.8399973698732,0|0,0:0|0:0,0:0:0:0:
416,192,110464,2,0,L|352:192,1,63.8399973698732,10|0,0:0|0:0,0:0:0:0:
160,256,110622,2,0,L|288:256,1,127.679994739746,8|2,0:0|0:0,0:0:0:0:
224,256,110859,1,0,0:0:0:0:
32,256,110938,6,0,L|16:128,1,127.679994739746,8|0,0:0|0:0,0:0:0:0:
80,128,111174,1,0,0:0:0:0:
272,256,111253,2,0,L|288:128,1,127.679994739746,10|0,0:0|0:0,0:0:0:0:
224,128,111490,1,0,0:0:0:0:
32,256,111569,2,0,L|160:256,1,127.679994739746,10|0,0:0|0:0,0:0:0:0:
96,256,111806,1,0,0:0:0:0:
288,64,111885,6,0,L|160:64,1,127.679994739746,8|0,0:0|0:0,0:0:0:0:
224,64,112122,1,0,0:0:0:0:
224,128,112201,2,0,L|160:128,1,63.8399973698732,0|0,0:0|0:0,0:0:0:0:
352,192,112359,2,0,L|416:192,1,63.8399973698732,2|0,0:0|0:0,0:0:0:0:
224,256,112516,2,0,L|352:256,1,127.679994739746,10|2,0:0|0:0,0:0:0:0:
288,256,112753,1,0,0:0:0:0:
96,64,112832,6,0,L|224:64,1,127.679994739746,8|0,0:0|0:0,0:0:0:0:
160,64,113069,2,0,L|160:96,1,31.9199986849366,2|0,0:0|0:0,0:0:0:0:
288,96,113148,2,0,L|352:96,1,63.8399973698732,10|0,0:0|0:0,0:0:0:0:
160,144,113306,2,0,L|96:144,1,63.8399973698732,0|0,0:0|0:0,0:0:0:0:
288,192,113464,2,0,L|160:192,1,127.679994739746,10|0,0:0|0:0,0:0:0:0:
224,192,113701,1,0,0:0:0:0:
416,64,113780,6,0,L|288:64,1,127.679994739746,8|0,0:0|0:0,0:0:0:0:
288,64,114016,1,0,0:0:0:0:
352,112,114095,2,0,L|288:112,1,63.8399973698732,0|0,0:0|0:0,0:0:0:0:
480,192,114253,2,0,L|480:128,1,63.8399973698732,2|0,0:0|0:0,0:0:0:0:
288,272,114411,2,0,L|416:272,1,127.679994739746,8|10,0:0|0:0,0:0:0:0:
352,272,114648,1,0,0:0:0:0:
160,64,114727,6,0,L|288:64,1,127.679994739746,8|0,0:0|0:0,0:0:0:0:
288,64,114964,1,0,0:0:0:0:
224,112,115043,2,0,L|288:112,1,63.8399973698732,0|0,0:0|0:0,0:0:0:0:
96,192,115201,2,0,L|160:192,1,63.8399973698732,2|0,0:0|0:0,0:0:0:0:
352,272,115359,2,0,L|224:272,1,127.679994739746,8|10,0:0|0:0,0:0:0:0:
288,272,115595,1,0,0:0:0:0:
96,64,115674,6,0,L|224:64,1,127.679994739746,8|0,0:0|0:0,0:0:0:0:
160,64,115911,1,0,0:0:0:0:
224,112,115990,2,0,L|160:112,1,63.8399973698732,0|0,0:0|0:0,0:0:0:0:
352,192,116148,2,0,L|416:192,1,63.8399973698732,2|0,0:0|0:0,0:0:0:0:
224,272,116306,2,0,L|224:208,1,63.8399973698732,8|0,0:0|0:0,0:0:0:0:
416,272,116464,2,0,L|352:272,1,63.8399973698732,10|0,0:0|0:0,0:0:0:0:
160,192,116622,6,0,L|144:128,1,63.8399973698732,8|0,0:0|0:0,0:0:0:0:
336,192,116780,2,0,L|320:128,1,63.8399973698732,8|0,0:0|0:0,0:0:0:0:
96,112,116938,2,0,L|80:48,1,63.8399973698732,8|0,0:0|0:0,0:0:0:0:
304,112,117095,2,0,L|288:48,1,63.8399973698732,8|0,0:0|0:0,0:0:0:0:
64,272,117253,1,10,0:0:0:0:
104,264,117293,1,0,0:0:0:0:
136,240,117332,1,0,0:0:0:0:
144,208,117372,1,0,0:0:0:0:
136,240,117411,1,0,0:0:0:0:
104,264,117451,1,0,0:0:0:0:
64,272,117490,1,0,0:0:0:0:
256,272,117569,6,0,L|448:272,2,192,12|8|8,0:0|0:0|0:0,0:0:0:0:
64,192,118516,6,0,L|256:96,2,192,8|8|8,0:0|0:0|0:0,0:0:0:0:
448,384,119464,5,8,0:0:0:0:
459,362,119484,1,0,0:0:0:0:
468,340,119503,1,0,0:0:0:0:
477,318,119523,1,0,0:0:0:0:
483,295,119543,1,0,0:0:0:0:
489,271,119563,1,0,0:0:0:0:
492,248,119582,1,0,0:0:0:0:
495,224,119602,1,0,0:0:0:0:
496,200,119622,1,0,0:0:0:0:
495,176,119641,1,0,0:0:0:0:
493,152,119661,1,0,0:0:0:0:
489,128,119681,1,0,0:0:0:0:
483,105,119701,1,0,0:0:0:0:
477,82,119720,1,0,0:0:0:0:
468,59,119740,1,0,0:0:0:0:
459,37,119760,1,0,0:0:0:0:
448,384,119780,5,8,0:0:0:0:
430,368,119799,1,0,0:0:0:0:
413,350,119819,1,0,0:0:0:0:
400,330,119839,1,0,0:0:0:0:
388,309,119859,1,0,0:0:0:0:
379,287,119878,1,0,0:0:0:0:
372,264,119898,1,0,0:0:0:0:
368,241,119918,1,0,0:0:0:0:
366,217,119938,1,0,0:0:0:0:
367,193,119957,1,0,0:0:0:0:
371,169,119977,1,0,0:0:0:0:
378,146,119997,1,0,0:0:0:0:
387,124,120016,1,0,0:0:0:0:
398,103,120036,1,0,0:0:0:0:
412,83,120056,1,0,0:0:0:0:
428,65,120076,1,0,0:0:0:0:
448,48,120095,5,10,0:0:0:0:
480,48,120115,1,0,0:0:0:0:
452,48,120135,1,0,0:0:0:0:
476,48,120155,1,0,0:0:0:0:
448,48,120174,1,0,0:0:0:0:
480,48,120194,1,0,0:0:0:0:
452,48,120214,1,0,0:0:0:0:
476,48,120234,1,0,0:0:0:0:
448,48,120253,1,0,0:0:0:0:
480,48,120273,1,0,0:0:0:0:
452,48,120293,1,0,0:0:0:0:
476,48,120313,1,0,0:0:0:0:
448,48,120332,1,0,0:0:0:0:
480,48,120352,1,0,0:0:0:0:
452,48,120372,1,0,0:0:0:0:
360,48,120411,5,2,0:0:0:0:
336,48,120431,1,0,0:0:0:0:
336,96,120490,1,2,0:0:0:0:
360,96,120510,1,0,0:0:0:0:
360,144,120569,1,2,0:0:0:0:
336,144,120589,1,0,0:0:0:0:
336,192,120648,1,2,0:0:0:0:
360,192,120668,1,0,0:0:0:0:
224,192,120727,5,2,0:0:0:0:
200,192,120747,1,0,0:0:0:0:
424,288,120885,1,2,0:0:0:0:
400,288,120905,1,0,0:0:0:0:
192,112,121043,5,2,0:0:0:0:
216,112,121063,1,0,0:0:0:0:
440,192,121201,1,2,0:0:0:0:
464,192,121220,1,0,0:0:0:0:
256,272,121359,6,0,L|64:272,2,192,8|8|8,0:0|0:0|0:0,0:0:0:0:
448,192,122306,6,0,L|256:96,2,192,8|8|8,0:0|0:0|0:0,0:0:0:0:
64,352,123253,6,0,B|304:352|304:352|320:128,1,450,10|0,0:0|0:0,0:0:0:0:
320,352,123569,2,0,B|80:352|80:352|65:142,1,450,10|0,0:0|0:0,0:0:0:0:
64,352,123885,2,0,B|304:352|304:352|80:352,1,450,10|0,0:0|0:0,0:0:0:0:
80,288,124201,6,0,B|344:288|344:288|96:288,1,495.000004720688,10|0,0:0|0:0,0:0:0:0:
96,224,124516,2,0,B|384:224|384:224|112:224,1,540.000020599366,10|0,0:0|0:0,0:0:0:0:
112,160,124832,2,0,L|448:160,1,336.000003204346,10|0,0:0|0:0,0:0:0:0:
208,96,125148,6,0,L|496:96,2,288.000010986329,8|8|8,0:0|0:0|0:0,0:0:0:0:
16,192,126095,6,0,L|272:192,2,240,8|8|8,0:0|0:0|0:0,0:0:0:0:
400,96,127043,5,8,0:0:0:0:
418,111,127063,1,0,0:0:0:0:
430,131,127082,1,0,0:0:0:0:
434,155,127102,1,0,0:0:0:0:
431,178,127122,1,0,0:0:0:0:
419,199,127141,1,0,0:0:0:0:
402,217,127161,1,0,0:0:0:0:
417,232,127181,1,0,0:0:0:0:
429,252,127201,1,0,0:0:0:0:
433,276,127220,1,0,0:0:0:0:
430,299,127240,1,0,0:0:0:0:
418,320,127260,1,0,0:0:0:0:
400,336,127280,1,0,0:0:0:0:
256,336,127359,5,2,0:0:0:0:
248,320,127378,1,0,0:0:0:0:
360,192,127516,1,2,0:0:0:0:
368,168,127536,1,0,0:0:0:0:
480,160,127674,1,2,0:0:0:0:
464,160,127694,1,0,0:0:0:0:
352,280,127832,1,2,0:0:0:0:
336,280,127852,1,0,0:0:0:0:
128,192,127990,5,10,0:0:0:0:
104,192,128010,1,0,0:0:0:0:
224,112,128148,1,2,0:0:0:0:
248,112,128168,1,0,0:0:0:0:
40,192,128306,1,2,0:0:0:0:
8,192,128326,1,0,0:0:0:0:
128,112,128464,1,2,0:0:0:0:
160,112,128484,1,0,0:0:0:0:
368,112,128622,5,2,0:0:0:0:
336,112,128641,1,0,0:0:0:0:
216,176,128701,1,2,0:0:0:0:
184,176,128720,1,0,0:0:0:0:
64,112,128780,1,2,0:0:0:0:
32,112,128799,1,0,0:0:0:0:
152,192,128859,1,2,0:0:0:0:
184,192,128878,1,0,0:0:0:0:
304,272,128938,6,0,L|496:272,2,192,8|8|8,0:0|0:0|0:0,0:0:0:0:
112,192,129885,6,0,L|304:96,2,192,8|8|8,0:0|0:0|0:0,0:0:0:0:
496,192,130832,6,0,L|496:176,1,12,8|0,0:0|0:0,0:0:0:0:
472,192,130872,2,0,L|472:176,1,12,0|0,0:0|0:0,0:0:0:0:
496,192,130911,2,0,L|496:176,1,12,0|0,0:0|0:0,0:0:0:0:
472,192,130951,2,0,L|472:176,1,12,0|0,0:0|0:0,0:0:0:0:
496,192,130990,2,0,L|496:176,1,12,0|0,0:0|0:0,0:0:0:0:
472,192,131030,2,0,L|472:176,1,12,0|0,0:0|0:0,0:0:0:0:
496,192,131069,1,0,0:0:0:0:
280,192,131148,6,0,L|424:192,1,144.000005493164,8|0,0:0|0:0,0:0:0:0:
64,128,131464,2,0,B|352:128|352:128|80:128,1,540.000020599366,10|0,0:0|0:0,0:0:0:0:
80,240,131780,6,0,B|344:240|344:240|96:240,1,495.000004720688,10|0,0:0|0:0,0:0:0:0:
96,352,132095,2,0,B|336:352|336:352|352:112,1,480,8|2,0:0|0:0,0:0:0:0:
320,48,132464,1,2,0:0:0:0:
256,16,132516,1,2,0:0:0:0:
144,16,132569,1,2,0:0:0:0:
32,16,132622,1,2,0:0:0:0:
144,16,132674,1,2,0:0:0:0:
256,192,132727,6,0,L|448:192,2,192,12|8|8,0:0|0:0|0:0,0:0:0:0:
64,192,133674,6,0,L|208:48,2,192,8|8|8,0:0|0:0|0:0,0:0:0:0:
320,192,134622,6,0,L|128:192,1,192,2|0,0:0|0:0,0:0:0:0:
272,128,135095,2,0,L|80:128,1,192,2|0,0:0|0:0,0:0:0:0:
224,64,135569,6,0,L|128:64,1,96,2|0,0:0|0:0,0:0:0:0:
272,64,135885,2,0,L|256:160,1,96,2|0,0:0|0:0,0:0:0:0:
400,64,136201,2,0,L|416:160,1,96,2|0,0:0|0:0,0:0:0:0:
176,192,136516,6,0,L|368:192,2,192,8|8|8,0:0|0:0|0:0,0:0:0:0:
368,192,137464,6,0,L|224:48,2,192,8|8|8,0:0|0:0|0:0,0:0:0:0:
112,192,138411,6,0,L|208:192,2,96,2|0|0,0:0|0:0|0:0,0:0:0:0:
256,128,138885,2,0,L|64:128,1,192,2|0,0:0|0:0,0:0:0:0:
208,64,139359,6,0,L|112:64,1,96,2|0,0:0|0:0,0:0:0:0:
256,128,139674,2,0,L|352:128,1,96,2|0,0:0|0:0,0:0:0:0:
208,192,139990,1,2,0:0:0:0:
160,192,140069,1,0,0:0:0:0:
144,240,140148,1,0,0:0:0:0:
160,288,140227,1,0,0:0:0:0:
400,192,140306,6,0,L|112:192,1,288.000010986329,8|8,0:0|0:0,0:0:0:0:
256,128,140780,2,0,L|208:128,1,48,0|0,0:0|0:0,0:0:0:0:
64,128,140938,1,8,0:0:0:0:
448,192,141253,6,0,L|160:192,1,288.000010986329,8|8,0:0|0:0,0:0:0:0:
304,128,141727,2,0,L|256:128,1,48,0|0,0:0|0:0,0:0:0:0:
112,128,141885,2,0,L|64:128,2,48,8|0|0,0:0|0:0|0:0,0:0:0:0:
352,192,142201,6,0,L|64:192,1,288.000010986329,8|8,0:0|0:0,0:0:0:0:
208,128,142674,2,0,L|208:80,1,48,0|0,0:0|0:0,0:0:0:0:
64,128,142832,2,0,L|64:80,1,48,8|0,0:0|0:0,0:0:0:0:
208,80,142990,2,0,L|256:80,1,48,8|0,0:0|0:0,0:0:0:0:
400,192,143148,6,0,L|112:192,1,288.000010986329,8|8,0:0|0:0,0:0:0:0:
256,128,143622,2,0,L|256:80,1,48,8|0,0:0|0:0,0:0:0:0:
400,80,143780,2,0,L|352:80,1,48,8|0,0:0|0:0,0:0:0:0:
208,80,143938,2,0,L|256:80,1,48,8|0,0:0|0:0,0:0:0:0:
400,192,144095,6,0,L|256:192,1,144.000005493164,8|0,0:0|0:0,0:0:0:0:
496,80,144411,2,0,L|352:80,1,144.000005493164,8|0,0:0|0:0,0:0:0:0:
112,192,144727,2,0,L|400:192,1,288.000010986329,8|0,0:0|0:0,0:0:0:0:
112,192,145043,6,0,L|256:192,1,144.000005493164,8|0,0:0|0:0,0:0:0:0:
16,80,145359,2,0,L|160:80,1,144.000005493164,8|0,0:0|0:0,0:0:0:0:
400,192,145674,2,0,L|112:192,1,288.000010986329,8|0,0:0|0:0,0:0:0:0:
400,80,145990,5,8,0:0:0:0:
400,104,146030,1,0,0:0:0:0:
400,128,146069,1,0,0:0:0:0:
328,80,146148,1,2,0:0:0:0:
328,104,146188,1,0,0:0:0:0:
328,128,146227,1,0,0:0:0:0:
256,80,146306,1,2,0:0:0:0:
256,104,146345,1,0,0:0:0:0:
256,128,146385,1,0,0:0:0:0:
184,80,146464,5,2,0:0:0:0:
184,104,146503,1,0,0:0:0:0:
184,128,146543,1,0,0:0:0:0:
112,80,146622,1,2,0:0:0:0:
112,104,146661,1,0,0:0:0:0:
112,128,146701,1,0,0:0:0:0:
184,80,146780,1,2,0:0:0:0:
184,104,146819,1,0,0:0:0:0:
184,128,146859,1,0,0:0:0:0:
336,192,146938,5,8,0:0:0:0:
400,192,147016,1,0,0:0:0:0:
336,256,147095,1,0,0:0:0:0:
400,256,147174,1,0,0:0:0:0:
256,256,147253,1,8,0:0:0:0:
320,256,147332,1,0,0:0:0:0:
464,256,147411,1,2,0:0:0:0:
400,256,147490,1,0,0:0:0:0:
256,192,147569,1,8,0:0:0:0:
112,192,147648,1,0,0:0:0:0:
256,192,147727,1,0,0:0:0:0:
400,192,147806,1,0,0:0:0:0:
208,192,147885,6,0,B|80:192|80:192|144:192,1,191.519992109619,12|0,0:0|0:0,0:0:0:0:
336,64,148201,2,0,L|208:64,1,127.679994739746,8|2,0:0|0:0,0:0:0:0:
464,192,148516,1,8,0:0:0:0:
208,192,148674,1,2,0:0:0:0:
464,192,148832,6,0,B|336:192,1,127.679994739746,8|0,0:0|0:0,0:0:0:0:
400,192,149069,1,0,0:0:0:0:
208,192,149148,2,0,L|192:66,1,127.679994739746,10|0,0:0|0:0,0:0:0:0:
448,192,149464,2,0,L|432:64,1,127.679994739746,10|0,0:0|0:0,0:0:0:0:
176,192,149780,6,0,B|160:64|160:64|224:64,1,191.519992109619,8|0,0:0|0:0,0:0:0:0:
416,64,150095,2,0,L|288:64,1,127.679994739746,8|2,0:0|0:0,0:0:0:0:
32,192,150411,1,0,0:0:0:0:
288,192,150569,1,2,0:0:0:0:
32,192,150727,6,0,B|16:64|16:64|80:64,1,191.519992109619,8|0,0:0|0:0,0:0:0:0:
272,64,151043,2,0,L|288:192,1,127.679994739746,8|0,0:0|0:0,0:0:0:0:
32,192,151359,1,8,0:0:0:0:
288,192,151516,1,2,0:0:0:0:
32,192,151674,6,0,B|16:64|16:64|80:64,1,191.519992109619,8|0,0:0|0:0,0:0:0:0:
272,64,151990,2,0,L|336:64,1,63.8399973698732,8|0,0:0|0:0,0:0:0:0:
144,64,152148,2,0,L|144:128,1,63.8399973698732,2|0,0:0|0:0,0:0:0:0:
336,192,152306,1,8,0:0:0:0:
80,192,152464,1,2,0:0:0:0:
336,192,152622,6,0,B|352:64,1,127.679994739746,0|0,0:0|0:0,0:0:0:0:
248,64,152898,1,2,0:0:0:0:
352,64,152938,2,0,L|480:64,1,127.679994739746,0|2,0:0|0:0,0:0:0:0:
224,192,153253,1,0,0:0:0:0:
480,192,153411,1,2,0:0:0:0:
224,192,153569,6,0,B|96:192|96:192|160:192,1,191.519992109619,8|0,0:0|0:0,0:0:0:0:
352,64,153885,2,0,L|224:64,1,127.679994739746,8|2,0:0|0:0,0:0:0:0:
288,64,154122,1,0,0:0:0:0:
480,192,154201,1,8,0:0:0:0:
224,192,154359,1,2,0:0:0:0:
480,64,154516,6,0,L|352:64,1,127.679994739746,8|8,0:0|0:0,0:0:0:0:
96,64,154832,2,0,L|224:64,1,127.679994739746,8|8,0:0|0:0,0:0:0:0:
304,64,155069,1,0,0:0:0:0:
96,192,155148,2,0,B|384:192|384:192|368:336,1,432.000016479493,10|0,0:0|0:0,0:0:0:0:
176,192,155464,6,0,B|48:192|48:192|112:192,1,191.519992109619,8|0,0:0|0:0,0:0:0:0:
304,64,155780,2,0,L|176:64,1,127.679994739746,8|2,0:0|0:0,0:0:0:0:
432,192,156095,1,8,0:0:0:0:
176,192,156253,1,2,0:0:0:0:
432,192,156411,6,0,B|304:192,1,127.679994739746,8|0,0:0|0:0,0:0:0:0:
368,192,156648,1,0,0:0:0:0:
176,192,156727,2,0,L|160:66,1,127.679994739746,10|0,0:0|0:0,0:0:0:0:
416,64,157043,1,8,0:0:0:0:
128,64,157201,1,2,0:0:0:0:
448,192,157359,6,0,L|192:192,1,255.359989479493,10|0,0:0|0:0,0:0:0:0:
256,192,157595,1,0,0:0:0:0:
64,192,157674,2,0,L|48:66,1,127.679994739746,10|0,0:0|0:0,0:0:0:0:
304,64,157990,1,8,0:0:0:0:
16,64,158148,1,2,0:0:0:0:
336,192,158306,6,0,L|464:192,1,127.679994739746,10|0,0:0|0:0,0:0:0:0:
208,64,158622,2,0,L|336:64,1,127.679994739746,8|0,0:0|0:0,0:0:0:0:
336,64,158859,1,0,0:0:0:0:
144,192,158938,2,0,L|80:192,1,63.8399973698732,8|0,0:0|0:0,0:0:0:0:
272,192,159095,2,0,L|336:192,1,63.8399973698732,2|0,0:0|0:0,0:0:0:0:
144,192,159253,6,0,B|16:192|16:192|80:192,1,191.519992109619,8|0,0:0|0:0,0:0:0:0:
272,192,159569,2,0,L|272:128,1,63.8399973698732,8|0,0:0|0:0,0:0:0:0:
80,128,159727,1,2,0:0:0:0:
336,128,159885,1,10,0:0:0:0:
48,48,160043,6,0,L|176:48,1,127.679994739746,2|8,0:0|0:0,0:0:0:0:
464,48,160359,2,0,L|400:48,2,63.8399973698732,2|0|8,0:0|0:0|0:0,0:0:0:0:
208,48,160674,1,2,0:0:0:0:
496,48,160832,1,8,0:0:0:0:
176,48,160990,1,2,0:0:0:0:
496,192,161148,6,0,L|416:160,3,85.1199964931642,8|0|0|8,0:0|0:0|0:0|0:0,0:0:0:0:
96,160,161622,1,2,0:0:0:0:
384,160,161780,1,8,0:0:0:0:
128,160,161938,1,2,0:0:0:0:
416,192,162095,6,0,L|336:160,2,85.1199964931642,10|0|0,0:0|0:0|0:0,0:0:0:0:
160,192,162411,1,10,0:0:0:0:
256,192,162516,1,0,0:0:0:0:
352,192,162622,1,0,0:0:0:0:
96,112,162727,1,8,0:0:0:0:
256,112,162806,1,0,0:0:0:0:
416,112,162885,1,2,0:0:0:0:
256,112,162964,1,0,0:0:0:0:
64,192,163043,6,0,B|0:192|0:192|128:192,1,191.519992109619,12|0,0:0|0:0,0:0:0:0:
320,192,163359,2,0,L|384:192,2,63.8399973698732,8|0|2,0:0|0:0|0:0,0:0:0:0:
64,192,163674,1,8,0:0:0:0:
320,192,163832,1,2,0:0:0:0:
64,192,163990,6,0,B|192:192,1,127.679994739746,8|0,0:0|0:0,0:0:0:0:
128,192,164227,1,0,0:0:0:0:
320,192,164306,2,0,L|336:66,1,127.679994739746,10|0,0:0|0:0,0:0:0:0:
80,192,164622,2,0,L|96:64,1,127.679994739746,10|0,0:0|0:0,0:0:0:0:
352,192,164938,6,0,B|336:64|336:64|272:64,1,191.519992109619,8|0,0:0|0:0,0:0:0:0:
80,64,165253,2,0,L|208:64,1,127.679994739746,8|2,0:0|0:0,0:0:0:0:
464,192,165569,1,0,0:0:0:0:
176,192,165727,1,2,0:0:0:0:
496,192,165885,6,0,B|512:64|512:64|448:64,1,191.519992109619,8|0,0:0|0:0,0:0:0:0:
256,64,166201,2,0,L|240:192,1,127.679994739746,8|0,0:0|0:0,0:0:0:0:
496,192,166516,1,8,0:0:0:0:
240,192,166674,1,2,0:0:0:0:
496,192,166832,6,0,B|512:64|512:64|448:64,1,191.519992109619,8|0,0:0|0:0,0:0:0:0:
256,64,167148,2,0,L|192:64,1,63.8399973698732,8|0,0:0|0:0,0:0:0:0:
384,64,167306,2,0,L|384:128,1,63.8399973698732,2|0,0:0|0:0,0:0:0:0:
192,192,167464,1,8,0:0:0:0:
448,192,167622,1,2,0:0:0:0:
192,192,167780,6,0,B|176:64,1,127.679994739746,0|0,0:0|0:0,0:0:0:0:
280,64,168056,1,2,0:0:0:0:
176,64,168095,2,0,L|48:64,1,127.679994739746,0|2,0:0|0:0,0:0:0:0:
304,192,168411,1,0,0:0:0:0:
48,192,168569,1,2,0:0:0:0:
304,192,168727,6,0,L|368:192,1,63.8399973698732,8|0,0:0|0:0,0:0:0:0:
304,192,168885,2,0,L|240:192,1,63.8399973698732,2|0,0:0|0:0,0:0:0:0:
432,64,169043,2,0,L|432:128,1,63.8399973698732,8|0,0:0|0:0,0:0:0:0:
368,128,169201,2,0,L|432:128,1,63.8399973698732,2|0,0:0|0:0,0:0:0:0:
240,192,169359,2,0,L|176:192,1,63.8399973698732,8|0,0:0|0:0,0:0:0:0:
400,192,169516,2,0,L|336:192,1,63.8399973698732,2|0,0:0|0:0,0:0:0:0:
112,192,169674,6,0,L|96:64,1,127.679994739746,8|8,0:0|0:0,0:0:0:0:
351,64,169990,2,0,L|223:64,1,127.679994739746,8|8,0:0|0:0,0:0:0:0:
224,64,170227,1,0,0:0:0:0:
415,192,170306,2,0,B|127:192|127:192|111:336,1,432.000016479493,10|0,0:0|0:0,0:0:0:0:
304,192,170622,6,0,B|432:192|432:192|368:192,1,191.519992109619,8|0,0:0|0:0,0:0:0:0:
176,64,170938,2,0,L|112:64,2,63.8399973698732,8|0|2,0:0|0:0|0:0,0:0:0:0:
432,64,171253,2,0,L|368:64,1,63.8399973698732,8|0,0:0|0:0,0:0:0:0:
176,64,171411,2,0,L|240:64,1,63.8399973698732,2|0,0:0|0:0,0:0:0:0:
48,192,171569,6,0,B|176:192,1,127.679994739746,8|0,0:0|0:0,0:0:0:0:
112,192,171806,1,0,0:0:0:0:
304,192,171885,2,0,L|320:66,1,127.679994739746,10|0,0:0|0:0,0:0:0:0:
64,64,172201,1,8,0:0:0:0:
352,64,172359,2,0,L|288:64,1,63.8399973698732,2|0,0:0|0:0,0:0:0:0:
32,192,172516,6,0,L|288:192,1,255.359989479493,10|0,0:0|0:0,0:0:0:0:
224,192,172753,1,0,0:0:0:0:
416,192,172832,2,0,L|432:66,1,127.679994739746,10|0,0:0|0:0,0:0:0:0:
176,64,173148,1,8,0:0:0:0:
464,64,173306,1,2,0:0:0:0:
144,192,173464,6,0,L|16:192,1,127.679994739746,10|0,0:0|0:0,0:0:0:0:
272,64,173780,2,0,L|144:64,1,127.679994739746,8|0,0:0|0:0,0:0:0:0:
144,64,174016,1,0,0:0:0:0:
336,192,174095,2,0,L|400:192,1,63.8399973698732,8|0,0:0|0:0,0:0:0:0:
208,192,174253,2,0,L|144:192,1,63.8399973698732,2|0,0:0|0:0,0:0:0:0:
336,80,174411,6,0,L|272:80,1,63.8399973698732,8|0,0:0|0:0,0:0:0:0:
80,80,174569,2,0,L|64:144,1,63.8399973698732,8|0,0:0|0:0,0:0:0:0:
256,80,174727,2,0,L|256:144,1,63.8399973698732,8|0,0:0|0:0,0:0:0:0:
448,80,174885,2,0,L|464:144,1,63.8399973698732,10|0,0:0|0:0,0:0:0:0:
272,80,175043,2,0,L|272:144,1,63.8399973698732,10|0,0:0|0:0,0:0:0:0:
80,192,175201,2,0,L|32:256,1,63.8399973698732,10|0,0:0|0:0,0:0:0:0:
232,192,175359,6,0,L|232:256,1,63.8399973698732,8|0,0:0|0:0,0:0:0:0:
424,192,175516,2,0,L|472:256,1,63.8399973698732,10|0,0:0|0:0,0:0:0:0:
272,192,175674,2,0,L|272:256,1,63.8399973698732,8|0,0:0|0:0,0:0:0:0:
80,144,175832,2,0,L|16:144,1,63.8399973698732,10|0,0:0|0:0,0:0:0:0:
208,144,175990,2,0,L|208:208,1,63.8399973698732,8|0,0:0|0:0,0:0:0:0:
400,144,176148,2,0,L|464:144,1,63.8399973698732,10|0,0:0|0:0,0:0:0:0:
240,144,176306,5,10,0:0:0:0:
176,144,176385,1,0,0:0:0:0:
176,208,176464,1,0,0:0:0:0:
240,208,176543,1,0,0:0:0:0:
464,208,176622,2,0,L|464:272,1,63.8399973698732,8|0,0:0|0:0,0:0:0:0:
240,272,176780,2,0,L|176:272,1,63.8399973698732,2|0,0:0|0:0,0:0:0:0:
400,272,176938,2,0,L|464:272,1,63.8399973698732,8|0,0:0|0:0,0:0:0:0:
240,272,177095,2,0,L|240:208,1,63.8399973698732,2|0,0:0|0:0,0:0:0:0:
464,48,177253,5,10,0:0:0:0:
400,48,177332,1,0,0:0:0:0:
336,48,177411,1,0,0:0:0:0:
272,48,177490,1,0,0:0:0:0:
456,112,177569,1,10,0:0:0:0:
400,112,177648,1,0,0:0:0:0:
344,112,177727,1,0,0:0:0:0:
288,112,177806,1,0,0:0:0:0:
448,176,177885,1,8,0:0:0:0:
400,176,177964,1,0,0:0:0:0:
352,176,178043,1,0,0:0:0:0:
304,176,178122,1,0,0:0:0:0:
448,352,178201,6,0,P|480:192|448:72,1,288,12|0,0:0|0:0,0:0:0:0:
400,48,178753,1,0,0:0:0:0:
208,352,178832,2,0,P|176:192|208:72,1,288,8|2,0:0|0:0,0:0:0:0:
64,352,179464,6,0,P|32:192|64:72,1,288,0|0,0:0|0:0,0:0:0:0:
112,48,180016,1,0,0:0:0:0:
304,352,180095,2,0,P|336:192|304:72,1,288,8|0,0:0|0:0,0:0:0:0:
448,352,180727,6,0,P|480:240|448:176,1,192,0|0,0:0|0:0,0:0:0:0:
336,176,181201,2,0,L|384:176,1,48,0|0,0:0|0:0,0:0:0:0:
192,352,181358,2,0,P|136:304|112:192,1,192,8|0,0:0|0:0,0:0:0:0:
208,176,181832,1,0,0:0:0:0:
64,352,181990,6,0,P|32:240|64:176,1,192,0|0,0:0|0:0,0:0:0:0:
176,176,182464,2,0,L|128:176,1,48,0|0,0:0|0:0,0:0:0:0:
320,336,182622,2,0,P|306:242|239:176,1,192,8|0,0:0|0:0,0:0:0:0:
384,176,183095,1,0,0:0:0:0:
144,176,183253,6,0,L|128:128,3,48,0|0|0|0,0:0|0:0|0:0|0:0,0:0:0:0:
160,96,183569,1,0,0:0:0:0:
224,96,183648,1,0,0:0:0:0:
368,96,183727,2,0,L|368:144,1,48,0|0,0:0|0:0,0:0:0:0:
176,192,183885,6,0,L|128:192,2,48,8|0|0,0:0|0:0|0:0,0:0:0:0:
240,192,184122,2,0,L|288:192,2,48,0|0|0,0:0|0:0|0:0,0:0:0:0:
96,192,184358,2,0,L|96:240,1,48,0|0,0:0|0:0,0:0:0:0:
240,144,184516,6,0,L|256:96,3,48,0|0|0|0,0:0|0:0|0:0|0:0,0:0:0:0:
240,64,184793,1,0,0:0:0:0:
192,64,184832,1,0,0:0:0:0:
128,64,184911,1,0,0:0:0:0:
128,128,184990,1,0,0:0:0:0:
192,128,185069,1,0,0:0:0:0:
384,192,185148,6,0,L|432:192,2,48,8|0|0,0:0|0:0|0:0,0:0:0:0:
320,192,185385,2,0,L|272:192,2,48,0|0|0,0:0|0:0|0:0,0:0:0:0:
464,192,185622,2,0,L|464:144,1,48,0|0,0:0|0:0,0:0:0:0:
440,112,185740,1,0,0:0:0:0:
336,176,185779,6,0,L|320:128,3,48
352,96,186095,1,0,0:0:0:0:
416,96,186174,1,0,0:0:0:0:
272,96,186253,2,0,L|272:144,1,48,0|0,0:0|0:0,0:0:0:0:
80,192,186411,5,8,0:0:0:0:
32,192,186490,1,0,0:0:0:0:
32,128,186569,1,0,0:0:0:0:
80,128,186648,1,0,0:0:0:0:
144,128,186727,1,0,0:0:0:0:
96,128,186806,1,0,0:0:0:0:
240,128,186885,2,0,L|240:176,1,48,0|0,0:0|0:0,0:0:0:0:
96,128,187043,5,0,0:0:0:0:
256,192,187201,12,0,187990,0:0:0:0:
128,192,188306,5,8,0:0:0:0:
384,192,188622,1,8,0:0:0:0:
128,192,188937,1,8,0:0:0:0:
384,192,189253,2,0,L|384:128,1,64,8|0,0:0|0:0,0:0:0:0:
304,112,189464,1,0,0:0:0:0:
128,192,189569,5,8,0:0:0:0:
384,192,189885,1,8,0:0:0:0:
128,192,190201,1,8,0:0:0:0:
384,192,190516,2,0,L|320:192,2,64,8|0|0,0:0|0:0|0:0,0:0:0:0:
192,80,190832,6,0,L|176:176,1,96,8|0,0:0|0:0,0:0:0:0:
336,80,191148,1,8,0:0:0:0:
80,176,191464,2,0,L|64:272,1,96,8|0,0:0|0:0,0:0:0:0:
224,272,191779,2,0,L|224:208,1,64,10|0,0:0|0:0,0:0:0:0:
144,192,191990,1,0,0:0:0:0:
320,80,192095,6,0,L|336:176,1,96,10|0,0:0|0:0,0:0:0:0:
176,80,192411,1,10,0:0:0:0:
432,176,192727,2,0,L|448:272,1,96,10|0,0:0|0:0,0:0:0:0:
288,272,193043,2,0,L|352:272,2,64,10|0|0,0:0|0:0|0:0,0:0:0:0:
112,192,193358,6,0,L|176:192,2,64,10|0|0,0:0|0:0|0:0,0:0:0:0:
224,80,193674,1,10,0:0:0:0:
64,80,193832,2,0,L|112:80,1,48,0|0,0:0|0:0,0:0:0:0:
256,80,193990,1,10,0:0:0:0:
416,80,194148,1,2,0:0:0:0:
256,80,194306,1,10,0:0:0:0:
416,80,194464,1,2,0:0:0:0:
128,80,194622,6,0,L|112:176,1,96,10|0,0:0|0:0,0:0:0:0:
272,304,194937,1,10,0:0:0:0:
112,304,195095,2,0,L|160:304,1,48,0|0,0:0|0:0,0:0:0:0:
304,304,195253,1,10,0:0:0:0:
464,304,195411,1,2,0:0:0:0:
304,304,195569,1,10,0:0:0:0:
464,304,195727,1,2,0:0:0:0:
176,192,195885,6,0,L|168:144,1,48,10|0,0:0|0:0,0:0:0:0:
24,192,196043,2,0,L|16:144,1,48,0|0,0:0|0:0,0:0:0:0:
176,192,196201,2,0,L|184:144,1,48,10|0,0:0|0:0,0:0:0:0:
336,192,196358,2,0,L|344:144,1,48,0|0,0:0|0:0,0:0:0:0:
488,192,196516,2,0,L|496:144,1,48,10|0,0:0|0:0,0:0:0:0:
336,192,196674,2,0,L|328:144,1,48,0|0,0:0|0:0,0:0:0:0:
176,192,196832,2,0,L|168:144,1,48,10|0,0:0|0:0,0:0:0:0:
336,192,196990,2,0,L|344:144,1,48,0|0,0:0|0:0,0:0:0:0:
64,288,197148,6,0,L|56:264,2,24,10|0|0,0:0|0:0|0:0,0:0:0:0:
336,288,197306,2,0,L|344:264,2,24,2|0|0,0:0|0:0|0:0,0:0:0:0:
120,288,197464,2,0,L|112:264,2,24,10|0|0,0:0|0:0|0:0,0:0:0:0:
392,288,197622,2,0,L|400:264,2,24,2|0|0,0:0|0:0|0:0,0:0:0:0:
176,288,197779,2,0,L|168:264,2,24,10|0|0,0:0|0:0|0:0,0:0:0:0:
448,288,197937,2,0,L|456:264,2,24,2|0|0,0:0|0:0|0:0,0:0:0:0:
216,288,198095,6,0,L|192:288,1,24,10|0,0:0|0:0,0:0:0:0:
88,176,198174,2,0,L|112:176,1,24,2|0,0:0|0:0,0:0:0:0:
236,176,198253,2,0,L|260:176,1,24,2|0,0:0|0:0,0:0:0:0:
384,176,198332,2,0,L|408:176,1,24,2|0,0:0|0:0,0:0:0:0:
304,32,198411,6,0,L|64:32,1,240,14|0,0:0|0:0,0:0:0:0:
48,112,198727,2,0,L|288:112,1,240,10|0,0:0|0:0,0:0:0:0:
144,352,199043,2,0,L|384:352,1,240,10|0,0:0|0:0,0:0:0:0:
400,272,199358,2,0,L|160:272,1,240,10|0,0:0|0:0,0:0:0:0:
160,272,199595,1,0,0:0:0:0:
304,32,199674,6,0,L|64:32,1,240,10|0,0:0|0:0,0:0:0:0:
48,112,199990,2,0,L|288:112,1,240,10|0,0:0|0:0,0:0:0:0:
144,352,200306,2,0,L|384:352,1,240,10|0,0:0|0:0,0:0:0:0:
88,272,200622,2,0,L|424:272,1,336.000003204346,8|10,0:0|0:0,0:0:0:0:
352,272,200858,1,0,0:0:0:0:
208,32,200937,6,0,L|448:32,1,240,10|0,0:0|0:0,0:0:0:0:
464,112,201253,2,0,L|224:112,1,240,10|0,0:0|0:0,0:0:0:0:
368,352,201569,2,0,L|128:352,1,240,10|0,0:0|0:0,0:0:0:0:
112,272,201885,2,0,L|352:272,1,240,10|0,0:0|0:0,0:0:0:0:
352,272,202122,1,0,0:0:0:0:
208,32,202201,6,0,L|192:96,1,63.8399973698732,10|0,0:0|0:0,0:0:0:0:
384,192,202358,1,2,0:0:0:0:
128,64,202516,2,0,L|144:128,1,63.8399973698732,10|0,0:0|0:0,0:0:0:0:
336,224,202674,1,2,0:0:0:0:
80,96,202832,2,0,L|16:96,1,63.8399973698732,10|0,0:0|0:0,0:0:0:0:
208,96,202990,2,0,L|272:96,1,63.8399973698732,2|0,0:0|0:0,0:0:0:0:
80,256,203148,2,0,L|96:192,1,63.8399973698732,10|0,0:0|0:0,0:0:0:0:
288,256,203306,2,0,L|304:192,1,63.8399973698732,2|0,0:0|0:0,0:0:0:0:
160,32,203464,6,0,L|400:32,1,240,10|0,0:0|0:0,0:0:0:0:
416,112,203779,2,0,L|176:112,1,240,10|0,0:0|0:0,0:0:0:0:
320,352,204095,2,0,L|80:352,1,240,10|0,0:0|0:0,0:0:0:0:
64,272,204411,2,0,L|304:272,1,240,10|0,0:0|0:0,0:0:0:0:
304,272,204648,1,0,0:0:0:0:
160,32,204727,6,0,L|400:32,1,240,10|0,0:0|0:0,0:0:0:0:
416,112,205043,2,0,L|176:112,1,240,10|0,0:0|0:0,0:0:0:0:
320,352,205358,2,0,L|80:352,1,240,10|0,0:0|0:0,0:0:0:0:
448,272,205674,2,0,L|16:272,1,432.000016479493,8|10,0:0|0:0,0:0:0:0:
160,272,205911,1,0,0:0:0:0:
304,32,205990,6,0,L|64:32,1,240,10|0,0:0|0:0,0:0:0:0:
48,112,206306,2,0,L|288:112,1,240,10|0,0:0|0:0,0:0:0:0:
144,352,206622,2,0,L|384:352,1,240,10|0,0:0|0:0,0:0:0:0:
400,272,206937,2,0,L|160:272,1,240,10|0,0:0|0:0,0:0:0:0:
160,272,207174,1,0,0:0:0:0:
304,32,207253,6,0,L|64:32,1,240,10|2,0:0|0:0,0:0:0:0:
352,96,207569,1,10,0:0:0:0:
296,96,207648,1,0,0:0:0:0:
352,96,207727,1,2,0:0:0:0:
64,96,207885,1,10,0:0:0:0:
120,96,207964,1,0,0:0:0:0:
264,192,208043,1,2,0:0:0:0:
208,192,208122,1,0,0:0:0:0:
352,320,208201,1,10,0:0:0:0:
424,320,208279,1,0,0:0:0:0:
280,256,208358,1,2,0:0:0:0:
352,256,208437,1,0,0:0:0:0:
208,32,208516,6,0,L|448:32,1,240,14|0,0:0|0:0,0:0:0:0:
464,112,208832,2,0,L|224:112,1,240,10|0,0:0|0:0,0:0:0:0:
368,352,209148,2,0,L|128:352,1,240,10|0,0:0|0:0,0:0:0:0:
112,272,209464,2,0,L|352:272,1,240,10|0,0:0|0:0,0:0:0:0:
352,272,209701,1,0,0:0:0:0:
208,32,209779,6,0,L|448:32,1,240,10|0,0:0|0:0,0:0:0:0:
464,112,210095,2,0,L|224:112,1,240,10|0,0:0|0:0,0:0:0:0:
368,352,210411,2,0,L|128:352,1,240,10|0,0:0|0:0,0:0:0:0:
424,272,210727,2,0,L|88:272,1,336.000003204346,8|10,0:0|0:0,0:0:0:0:
160,272,210964,1,0,0:0:0:0:
304,32,211043,6,0,L|64:32,1,240,10|0,0:0|0:0,0:0:0:0:
48,112,211358,2,0,L|288:112,1,240,10|0,0:0|0:0,0:0:0:0:
144,352,211674,2,0,L|384:352,1,240,10|0,0:0|0:0,0:0:0:0:
400,272,211990,2,0,L|160:272,1,240,10|0,0:0|0:0,0:0:0:0:
160,272,212227,1,0,0:0:0:0:
304,32,212306,6,0,L|320:96,1,63.8399973698732,10|0,0:0|0:0,0:0:0:0:
128,192,212464,1,2,0:0:0:0:
384,64,212622,2,0,L|368:128,1,63.8399973698732,10|0,0:0|0:0,0:0:0:0:
176,224,212779,1,2,0:0:0:0:
432,96,212937,2,0,L|496:96,1,63.8399973698732,10|0,0:0|0:0,0:0:0:0:
304,96,213095,2,0,L|240:96,1,63.8399973698732,2|0,0:0|0:0,0:0:0:0:
432,256,213253,2,0,L|416:192,1,63.8399973698732,10|0,0:0|0:0,0:0:0:0:
224,256,213411,2,0,L|208:192,1,63.8399973698732,2|0,0:0|0:0,0:0:0:0:
352,32,213569,6,0,L|112:32,1,240,10|2,0:0|0:0,0:0:0:0:
256,192,213885,2,0,L|16:192,1,240,10|2,0:0|0:0,0:0:0:0:
160,352,214201,2,0,L|400:352,1,240,10|2,0:0|0:0,0:0:0:0:
256,192,214516,2,0,L|496:192,1,240,10|2,0:0|0:0,0:0:0:0:
352,32,214832,6,0,L|112:32,1,240,10|2,0:0|0:0,0:0:0:0:
256,192,215148,2,0,L|16:192,1,240,10|2,0:0|0:0,0:0:0:0:
160,352,215464,2,0,L|400:352,1,240,10|2,0:0|0:0,0:0:0:0:
256,352,215779,2,0,P|236:192|336:28,1,360,2|0,0:0|0:0,0:0:0:0:
496,192,216095,6,0,L|256:192,1,240,10|0,0:0|0:0,0:0:0:0:
96,128,216332,2,0,L|336:128,1,240,10|0,0:0|0:0,0:0:0:0:
496,64,216569,2,0,L|256:64,1,240,10|0,0:0|0:0,0:0:0:0:
416,128,216806,2,0,L|176:128,1,240,10|0,0:0|0:0,0:0:0:0:
16,192,217043,6,0,L|304:192,1,288.000010986329,10|0,0:0|0:0,0:0:0:0:
464,256,217279,2,0,L|176:256,1,288.000010986329,10|0,0:0|0:0,0:0:0:0:
16,320,217516,2,0,L|304:320,1,288.000010986329,10|0,0:0|0:0,0:0:0:0:
144,256,217753,2,0,L|432:256,1,288.000010986329,10|0,0:0|0:0,0:0:0:0:
256,192,217990,6,0,L|80:192,1,168.000001602173,10|0,0:0|0:0,0:0:0:0:
256,192,218148,2,0,L|432:192,1,168.000001602173,2|0,0:0|0:0,0:0:0:0:
256,192,218306,2,0,L|112:96,1,168.000001602173,2|0,0:0|0:0,0:0:0:0:
256,192,218464,2,0,L|400:96,1,168.000001602173,2|0,0:0|0:0,0:0:0:0:
256,96,218622,6,0,B|16:96|16:96|256:96|256:96|352:316|352:316|208:124|208:124|304:344|304:344|160:152|160:152|256:372,1,1680,6|0,0:0|0:0,0:0:0:0:
224,368,219806,1,0,0:0:0:0:
160,208,219885,6,0,B|64:-12|64:-12|208:180|208:180|252:68|252:68|208:180|208:180|448:180|448:180|208:180|208:180|64:376|64:376|160:156,1,1680,8|0,0:0|0:0,0:0:0:0:
192,96,221069,1,0,0:0:0:0:
256,96,221148,6,0,B|496:96|496:96|256:96|256:96|160:316|160:316|304:124|304:124|208:344|208:344|352:152|352:152|256:372,1,1680,8|2,0:0|0:0,0:0:0:0:
304,368,222332,1,0,0:0:0:0:
208,208,222411,6,0,B|112:-12|112:-12|256:180|256:180|300:68|300:68|256:180|256:180|496:180|496:180|256:180|256:180|112:376|112:376|112:128,1,1680,8|0,0:0|0:0,0:0:0:0:
208,368,223674,6,0,B|448:368|448:368|208:368|208:368|304:148|304:148|448:340|448:340|352:120|352:120|208:312|208:312|304:92,1,1680,8|0,0:0|0:0,0:0:0:0:
352,64,224858,1,0,0:0:0:0:
304,64,224937,6,0,B|160:256|160:256|304:64|304:64|400:284|400:284|160:284|160:284|400:284|400:284|496:64|496:64|352:256,1,1680,8|2,0:0|0:0,0:0:0:0:
320,256,226122,1,0,0:0:0:0:
256,368,226201,6,0,B|16:368|16:368|256:368|256:368|160:148|160:148|16:340|16:340|112:120|112:120|256:312|256:312|160:92,1,1680,8|0,0:0|0:0,0:0:0:0:
192,64,227385,1,0,0:0:0:0:
256,64,227464,6,0,B|496:64|496:64|480:304|480:304|240:304|240:304|256:64|256:64|16:64|16:64|32:304|32:304|272:304,1,1680,0|0,0:0|0:0,0:0:0:0:
32,352,228727,6,0,L|368:352,1,336.000003204346,8|2,0:0|0:0,0:0:0:0:
128,272,229043,2,0,L|368:272,1,240,8|0,0:0|0:0,0:0:0:0:
384,192,229358,2,0,L|144:192,1,240,8|0,0:0|0:0,0:0:0:0:
128,112,229674,2,0,L|368:112,1,240,8|0,0:0|0:0,0:0:0:0:
384,32,229911,1,0,0:0:0:0:
240,272,229990,6,0,L|480:272,1,240,8|0,0:0|0:0,0:0:0:0:
496,192,230306,2,0,L|256:192,1,240,8|0,0:0|0:0,0:0:0:0:
400,112,230622,2,0,L|160:112,1,240,10|0,0:0|0:0,0:0:0:0:
240,32,230858,1,0,0:0:0:0:
384,192,230937,2,0,L|144:192,1,240,8|0,0:0|0:0,0:0:0:0:
384,352,231253,6,0,L|48:352,1,336.000003204346,8|2,0:0|0:0,0:0:0:0:
288,272,231569,2,0,L|48:272,1,240,8|0,0:0|0:0,0:0:0:0:
64,192,231885,2,0,L|304:192,1,240,8|0,0:0|0:0,0:0:0:0:
320,112,232201,2,0,L|80:112,1,240,8|0,0:0|0:0,0:0:0:0:
96,32,232437,1,0,0:0:0:0:
288,272,232516,6,0,L|48:272,1,240,8|0,0:0|0:0,0:0:0:0:
32,192,232832,2,0,L|272:192,1,240,8|0,0:0|0:0,0:0:0:0:
128,112,233148,2,0,L|368:112,1,240,10|0,0:0|0:0,0:0:0:0:
288,32,233385,1,0,0:0:0:0:
144,192,233464,2,0,L|384:192,1,240,8|0,0:0|0:0,0:0:0:0:
96,32,233779,6,0,L|336:32,1,240,8|2,0:0|0:0,0:0:0:0:
176,112,234095,2,0,L|416:112,1,240,8|2,0:0|0:0,0:0:0:0:
400,160,234332,1,0,0:0:0:0:
256,192,234411,2,0,L|496:192,1,240,8|2,0:0|0:0,0:0:0:0:
336,272,234727,2,0,L|96:272,1,240,8|2,0:0|0:0,0:0:0:0:
256,192,235043,6,0,L|16:192,1,240,8|2,0:0|0:0,0:0:0:0:
176,112,235358,2,0,L|416:112,1,240,8|2,0:0|0:0,0:0:0:0:
336,48,235595,1,0,0:0:0:0:
176,272,235674,2,0,L|416:272,1,240,8|2,0:0|0:0,0:0:0:0:
256,352,235990,2,0,P|208:224|320:48,1,360,2|0,0:0|0:0,0:0:0:0:
472,32,236306,5,8,0:0:0:0:
408,32,236385,1,0,0:0:0:0:
344,32,236464,1,0,0:0:0:0:
200,192,236543,1,8,0:0:0:0:
264,192,236622,1,0,0:0:0:0:
328,192,236701,1,0,0:0:0:0:
184,352,236779,5,8,0:0:0:0:
112,352,236858,1,0,0:0:0:0:
40,352,236937,1,0,0:0:0:0:
184,192,237016,1,8,0:0:0:0:
256,192,237095,1,0,0:0:0:0:
328,192,237174,1,0,0:0:0:0:
472,32,237253,5,8,0:0:0:0:
392,32,237332,1,0,0:0:0:0:
312,32,237411,1,0,0:0:0:0:
168,192,237490,1,8,0:0:0:0:
248,192,237569,1,0,0:0:0:0:
328,192,237648,1,0,0:0:0:0:
184,352,237727,5,8,0:0:0:0:
40,352,237806,1,0,0:0:0:0:
184,352,237885,1,0,0:0:0:0:
328,352,237964,1,8,0:0:0:0:
472,352,238043,1,0,0:0:0:0:
328,352,238122,1,0,0:0:0:0:
112,192,238201,6,0,L|80:128,2,60,8|0|0,0:0|0:0|0:0,0:0:0:0:
292,128,238358,1,2,0:0:0:0:
256,128,238398,1,0,0:0:0:0:
220,128,238437,1,0,0:0:0:0:
400,192,238516,2,0,L|432:128,2,60,8|0|0,0:0|0:0|0:0,0:0:0:0:
220,128,238674,1,2,0:0:0:0:
256,128,238714,1,0,0:0:0:0:
292,128,238753,1,0,0:0:0:0:
127,47,238832,5,2,0:0:0:0:
113,31,238852,1,0,0:0:0:0:
111,61,238872,1,0,0:0:0:0:
95,47,238891,1,0,0:0:0:0:
96,77,238911,1,0,0:0:0:0:
79,65,238931,1,0,0:0:0:0:
82,95,238951,1,0,0:0:0:0:
63,85,238970,1,0,0:0:0:0:
71,114,238990,1,0,0:0:0:0:
51,106,239010,1,0,0:0:0:0:
63,133,239029,1,0,0:0:0:0:
42,127,239049,1,0,0:0:0:0:
56,154,239069,1,0,0:0:0:0:
34,150,239089,1,0,0:0:0:0:
51,175,239108,1,0,0:0:0:0:
29,174,239128,1,0,0:0:0:0:
50,197,239148,5,0,0:0:0:0:
27,198,239168,1,0,0:0:0:0:
50,218,239187,1,0,0:0:0:0:
27,222,239207,1,0,0:0:0:0:
51,239,239227,1,0,0:0:0:0:
29,245,239247,1,0,0:0:0:0:
56,261,239266,1,0,0:0:0:0:
34,269,239286,1,0,0:0:0:0:
63,281,239306,1,0,0:0:0:0:
42,292,239326,1,0,0:0:0:0:
71,301,239345,1,0,0:0:0:0:
51,314,239365,1,0,0:0:0:0:
82,319,239385,1,0,0:0:0:0:
63,334,239404,1,0,0:0:0:0:
95,337,239424,1,0,0:0:0:0:
78,354,239444,1,0,0:0:0:0:
110,353,239464,5,0,0:0:0:0:
94,372,239483,1,0,0:0:0:0:
126,368,239503,1,0,0:0:0:0:
112,388,239523,1,0,0:0:0:0:
143,380,239543,1,0,0:0:0:0:
131,402,239562,1,0,0:0:0:0:
162,391,239582,1,0,0:0:0:0:
152,414,239602,1,0,0:0:0:0:
182,399,239622,1,0,0:0:0:0:
174,423,239641,1,0,0:0:0:0:
202,406,239661,1,0,0:0:0:0:
196,431,239681,1,0,0:0:0:0:
223,411,239701,1,0,0:0:0:0:
220,436,239720,1,0,0:0:0:0:
245,413,239740,1,0,0:0:0:0:
244,438,239760,1,0,0:0:0:0:
266,413,239779,5,0,0:0:0:0:
268,438,239799,1,0,0:0:0:0:
288,411,239819,1,0,0:0:0:0:
292,436,239839,1,0,0:0:0:0:
309,406,239858,1,0,0:0:0:0:
315,431,239878,1,0,0:0:0:0:
329,399,239898,1,0,0:0:0:0:
338,423,239918,1,0,0:0:0:0:
349,390,239937,1,0,0:0:0:0:
360,413,239957,1,0,0:0:0:0:
368,379,239977,1,0,0:0:0:0:
381,401,239997,1,0,0:0:0:0:
385,367,240016,1,0,0:0:0:0:
400,387,240036,1,0,0:0:0:0:
401,352,240056,1,0,0:0:0:0:
418,371,240076,1,0,0:0:0:0:
416,336,240095,5,0,0:0:0:0:
434,353,240115,1,0,0:0:0:0:
428,319,240135,1,0,0:0:0:0:
448,334,240154,1,0,0:0:0:0:
439,300,240174,1,0,0:0:0:0:
460,313,240194,1,0,0:0:0:0:
447,281,240214,1,0,0:0:0:0:
469,291,240233,1,0,0:0:0:0:
454,260,240253,1,0,0:0:0:0:
477,268,240273,1,0,0:0:0:0:
459,239,240293,1,0,0:0:0:0:
482,245,240312,1,0,0:0:0:0:
460,218,240332,1,0,0:0:0:0:
484,221,240352,1,0,0:0:0:0:
460,196,240372,1,0,0:0:0:0:
484,197,240391,1,0,0:0:0:0:
459,174,240411,5,0,0:0:0:0:
482,173,240431,1,0,0:0:0:0:
454,154,240451,1,0,0:0:0:0:
477,150,240470,1,0,0:0:0:0:
447,133,240490,1,0,0:0:0:0:
469,127,240510,1,0,0:0:0:0:
438,113,240529,1,0,0:0:0:0:
459,105,240549,1,0,0:0:0:0:
427,94,240569,1,0,0:0:0:0:
447,84,240589,1,0,0:0:0:0:
415,77,240608,1,0,0:0:0:0:
433,65,240628,1,0,0:0:0:0:
400,61,240648,1,0,0:0:0:0:
417,47,240668,1,0,0:0:0:0:
384,47,240687,1,0,0:0:0:0:
399,31,240707,1,0,0:0:0:0:
368,192,240727,6,0,L|376:208,1,12,0|0,0:0|0:0,0:0:0:0:
352,192,240766,2,0,L|360:208,1,12,0|0,0:0|0:0,0:0:0:0:
336,192,240806,2,0,L|344:208,1,12,0|0,0:0|0:0,0:0:0:0:
320,192,240845,2,0,L|328:208,1,12,0|0,0:0|0:0,0:0:0:0:
304,192,240885,2,0,L|312:208,1,12,0|0,0:0|0:0,0:0:0:0:
288,192,240924,2,0,L|296:208,1,12,0|0,0:0|0:0,0:0:0:0:
272,192,240964,2,0,L|280:208,1,12,0|0,0:0|0:0,0:0:0:0:
256,192,241003,2,0,L|264:208,1,12,0|0,0:0|0:0,0:0:0:0:
240,192,241043,6,0,L|248:208,1,12,0|0,0:0|0:0,0:0:0:0:
224,192,241082,2,0,L|232:208,1,12,0|0,0:0|0:0,0:0:0:0:
208,192,241122,2,0,L|216:208,1,12,0|0,0:0|0:0,0:0:0:0:
192,192,241161,2,0,L|200:208,1,12,0|0,0:0|0:0,0:0:0:0:
176,192,241201,2,0,L|184:208,1,12,0|0,0:0|0:0,0:0:0:0:
160,192,241240,2,0,L|168:208,1,12,0|0,0:0|0:0,0:0:0:0:
144,192,241279,2,0,L|152:208,1,12,0|0,0:0|0:0,0:0:0:0:
128,192,241319,2,0,L|136:208,1,12,0|0,0:0|0:0,0:0:0:0:
304,288,241358,5,6,0:0:0:0:
256,192,241516,12,0,243885,0:0:0:0:
