osu file format v14

[General]
AudioFilename: audio.ogg
AudioLeadIn: 0
PreviewTime: 117927
Countdown: 0
SampleSet: Soft
StackLeniency: 0.7
Mode: 3
LetterboxInBreaks: 0
SpecialStyle: 0
WidescreenStoryboard: 0

[Editor]
DistanceSpacing: 0.8
BeatDivisor: 4
GridSize: 16
TimelineZoom: 1.3

[Metadata]
Title:Infinite Strife,
TitleUnicode:Infinite Strife,
Artist:BlackYooh vs. siromaru
ArtistUnicode:BlackYooh vs. siromaru
Creator:Murumoo
Version:Extinction
Source:Arcaea
Tags:Akasha- Kuo Kyoka Raymond arpia97 - Inui Toko - FINAL VERDICT 6 main story Tairitsu Video Game Electronic instrumental dubstep Risa Yuzuki Blacky Yooh Siromaru Enji レク reku
BeatmapID:3699537
BeatmapSetID:1804062

[Difficulty]
HPDrainRate:8.5
CircleSize:4
OverallDifficulty:8.5
ApproachRate:5
SliderMultiplier:1.4
SliderTickRate:1

[Events]
//Background and Video events
0,0,"bg.jpg",0,0
//Break Periods
//Storyboard Layer 0 (Background)
//Storyboard Layer 1 (Fail)
//Storyboard Layer 2 (Pass)
//Storyboard Layer 3 (Foreground)
//Storyboard Layer 4 (Overlay)
//Storyboard Sound Samples

[TimingPoints]
1185,303.030303030303,4,2,1,40,1,0

[HitObjects]
320,192,275,128,0,1185:0:0:0:0:
64,192,1185,128,0,1488:0:0:0:50:drum.wav
192,192,1185,1,0,0:0:0:40:cymbal.wav
448,192,1185,1,0,0:0:0:0:
320,192,1488,1,0,0:0:0:0:
448,192,1639,1,0,0:0:0:0:
64,192,1791,128,0,2094:0:0:0:0:
192,192,1791,1,0,0:0:0:0:
448,192,1942,1,0,0:0:0:0:
320,192,2094,1,0,0:0:0:0:
192,192,2245,1,0,0:0:0:0:
64,192,2397,128,0,2700:0:0:0:0:
448,192,2397,1,0,0:0:0:0:
320,192,2700,1,0,0:0:0:0:
448,192,2851,1,0,0:0:0:0:
64,192,3003,128,0,3306:0:0:0:0:
192,192,3003,1,0,0:0:0:0:
320,192,3154,1,0,0:0:0:0:
192,192,3306,1,0,0:0:0:0:
64,192,3457,1,0,0:0:0:0:
320,192,3609,1,0,0:0:0:0:
448,192,3609,128,0,3912:0:0:0:0:
192,192,3912,1,0,0:0:0:0:
320,192,4063,1,0,0:0:0:0:
64,192,4215,1,0,0:0:0:0:
448,192,4215,128,0,4518:0:0:0:0:
192,192,4366,1,0,0:0:0:0:
320,192,4518,1,0,0:0:0:0:
64,192,4669,1,0,0:0:0:0:
192,192,4821,1,0,0:0:0:0:
448,192,4821,128,0,5124:0:0:0:0:
320,192,5124,1,0,0:0:0:0:
192,192,5275,1,0,0:0:0:0:
64,192,5427,1,0,0:0:0:0:
448,192,5427,128,0,5730:0:0:0:0:
320,192,5578,1,0,0:0:0:0:
192,192,5730,1,0,0:0:0:0:
64,192,5881,1,0,0:0:0:0:
320,192,6033,128,0,6336:0:0:0:0:
448,192,6033,1,0,0:0:0:0:
64,192,6336,1,0,0:0:0:0:
192,192,6488,1,0,0:0:0:0:
320,192,6639,128,0,6942:0:0:0:0:
448,192,6639,1,0,0:0:0:0:
64,192,6791,1,0,0:0:0:0:
192,192,6942,1,0,0:0:0:0:
448,192,7094,1,0,0:0:0:0:
64,192,7245,1,0,0:0:0:0:
320,192,7245,128,0,7548:0:0:0:0:
192,192,7548,1,0,0:0:0:0:
64,192,7700,1,0,0:0:0:0:
320,192,7851,128,0,8154:0:0:0:0:
448,192,7851,1,0,0:0:0:0:
192,192,8003,1,0,0:0:0:0:
64,192,8154,1,0,0:0:0:0:
320,192,8306,1,0,0:0:0:0:
192,192,8457,128,0,8760:0:0:0:0:
448,192,8457,1,0,0:0:0:0:
320,192,8760,1,0,0:0:0:0:
64,192,8912,1,0,0:0:0:0:
192,192,9063,128,0,9366:0:0:0:0:
448,192,9063,1,0,0:0:0:0:
320,192,9215,1,0,0:0:0:0:
64,192,9366,1,0,0:0:0:0:
448,192,9518,1,0,0:0:0:0:
192,192,9669,128,0,9972:0:0:0:0:
320,192,9669,1,0,0:0:0:0:
64,192,9972,1,0,0:0:0:0:
320,192,10124,1,0,0:0:0:0:
192,192,10275,128,0,10578:0:0:0:0:
448,192,10275,1,0,0:0:0:0:
64,192,10427,1,0,0:0:0:0:
320,192,10578,1,0,0:0:0:0:
192,192,10730,1,0,0:0:0:0:
64,192,10881,1,0,0:0:0:50:drum.wav
320,192,10881,1,0,0:0:0:40:cymbal.wav
448,192,10881,1,0,0:0:0:0:
192,192,11033,1,0,0:0:0:0:
320,192,11109,1,0,0:0:0:0:
64,192,11185,1,0,0:0:0:40:snare.wav
448,192,11185,1,0,0:0:0:0:
320,192,11260,1,0,0:0:0:0:
64,192,11336,1,0,0:0:0:0:
192,192,11336,1,0,0:0:0:0:
448,192,11412,1,0,0:0:0:0:
192,192,11488,1,0,0:0:0:50:drum.wav
320,192,11488,1,0,0:0:0:0:
64,192,11563,1,0,0:0:0:0:
320,192,11639,1,0,0:0:0:0:
448,192,11639,1,0,0:0:0:0:
192,192,11715,1,0,0:0:0:0:
64,192,11791,1,0,0:0:0:40:snare.wav
448,192,11791,1,0,0:0:0:0:
320,192,11866,1,0,0:0:0:0:
192,192,11942,1,0,0:0:0:0:
448,192,11942,1,0,0:0:0:0:
320,192,12018,1,0,0:0:0:0:
64,192,12094,1,0,0:0:0:50:drum.wav
192,192,12094,1,0,0:0:0:0:
320,192,12245,1,0,0:0:0:0:
192,192,12321,1,0,0:0:0:0:
64,192,12397,1,0,0:0:0:40:snare.wav
448,192,12397,1,0,0:0:0:0:
192,192,12472,1,0,0:0:0:0:
320,192,12548,1,0,0:0:0:0:
448,192,12548,1,0,0:0:0:0:
64,192,12624,1,0,0:0:0:0:
192,192,12700,1,0,0:0:0:50:drum.wav
320,192,12700,1,0,0:0:0:0:
448,192,12775,1,0,0:0:0:0:
64,192,12851,1,0,0:0:0:0:
192,192,12851,1,0,0:0:0:0:
320,192,12927,1,0,0:0:0:0:
64,192,13003,1,0,0:0:0:40:snare.wav
448,192,13003,1,0,0:0:0:0:
192,192,13154,1,0,0:0:0:0:
448,192,13154,1,0,0:0:0:0:
320,192,13230,1,0,0:0:0:0:
64,192,13306,1,0,0:0:0:50:drum.wav
192,192,13306,1,0,0:0:0:40:cymbal.wav
448,192,13306,1,0,0:0:0:0:
320,192,13457,1,0,0:0:0:0:
192,192,13533,1,0,0:0:0:0:
64,192,13609,1,0,0:0:0:40:snare.wav
448,192,13609,1,0,0:0:0:0:
192,192,13684,1,0,0:0:0:0:
320,192,13760,1,0,0:0:0:0:
448,192,13760,1,0,0:0:0:0:
64,192,13836,1,0,0:0:0:0:
192,192,13912,1,0,0:0:0:50:drum.wav
320,192,13912,1,0,0:0:0:0:
448,192,13988,1,0,0:0:0:0:
64,192,14063,1,0,0:0:0:0:
192,192,14063,1,0,0:0:0:0:
320,192,14139,1,0,0:0:0:0:
64,192,14215,1,0,0:0:0:40:snare.wav
448,192,14215,1,0,0:0:0:0:
192,192,14291,1,0,0:0:0:0:
64,192,14366,1,0,0:0:0:0:
320,192,14366,1,0,0:0:0:0:
192,192,14442,1,0,0:0:0:0:
320,192,14518,1,0,0:0:0:50:drum.wav
448,192,14518,1,0,0:0:0:0:
192,192,14669,1,0,0:0:0:0:
320,192,14745,1,0,0:0:0:0:
64,192,14821,1,0,0:0:0:40:snare.wav
448,192,14821,1,0,0:0:0:0:
320,192,14897,1,0,0:0:0:0:
64,192,14972,1,0,0:0:0:0:
192,192,14972,1,0,0:0:0:0:
448,192,15048,1,0,0:0:0:0:
192,192,15124,1,0,0:0:0:50:drum.wav
320,192,15124,1,0,0:0:0:0:
64,192,15200,1,0,0:0:0:0:
320,192,15275,1,0,0:0:0:0:
448,192,15275,1,0,0:0:0:0:
192,192,15351,1,0,0:0:0:0:
64,192,15427,1,0,0:0:0:40:snare.wav
448,192,15427,1,0,0:0:0:0:
192,192,15578,1,0,0:0:0:0:
320,192,15578,1,0,0:0:0:0:
64,192,15654,1,0,0:0:0:0:
192,192,15730,1,0,0:0:0:50:drum.wav
320,192,15730,1,0,0:0:0:40:cymbal.wav
448,192,15730,1,0,0:0:0:0:
64,192,15806,1,0,0:0:0:0:
320,192,15881,1,0,0:0:0:40:snare.wav
448,192,15881,1,0,0:0:0:0:
192,192,15957,1,0,0:0:0:0:
64,192,16033,1,0,0:0:0:50:drum.wav
448,192,16033,1,0,0:0:0:0:
320,192,16109,1,0,0:0:0:0:
64,192,16184,1,0,0:0:0:40:snare.wav
192,192,16184,1,0,0:0:0:0:
448,192,16260,1,0,0:0:0:0:
192,192,16336,1,0,0:0:0:50:drum.wav
320,192,16336,1,0,0:0:0:0:
64,192,16412,1,0,0:0:0:0:
320,192,16488,1,0,0:0:0:40:snare.wav
448,192,16488,1,0,0:0:0:0:
192,192,16563,1,0,0:0:0:0:
64,192,16639,1,0,0:0:0:50:drum.wav
320,192,16639,1,0,0:0:0:0:
448,192,16715,1,0,0:0:0:0:
64,192,16791,1,0,0:0:0:40:snare.wav
192,192,16791,1,0,0:0:0:0:
320,192,16866,1,0,0:0:0:0:
64,192,16942,1,0,0:0:0:50:drum.wav
192,192,16942,1,0,0:0:0:40:cymbal.wav
448,192,16942,1,0,0:0:0:0:
320,192,17018,1,0,0:0:0:0:
64,192,17094,1,0,0:0:0:40:snare.wav
192,192,17094,1,0,0:0:0:0:
448,192,17169,1,0,0:0:0:0:
192,192,17245,1,0,0:0:0:50:drum.wav
320,192,17245,1,0,0:0:0:0:
64,192,17321,1,0,0:0:0:0:
320,192,17397,1,0,0:0:0:40:snare.wav
448,192,17397,1,0,0:0:0:0:
192,192,17472,1,0,0:0:0:0:
320,192,17548,1,0,0:0:0:50:drum.wav
448,192,17548,1,0,0:0:0:0:
64,192,17624,1,0,0:0:0:0:
192,192,17700,1,0,0:0:0:40:snare.wav
320,192,17700,1,0,0:0:0:0:
448,192,17775,1,0,0:0:0:0:
64,192,17851,1,0,0:0:0:50:drum.wav
192,192,17851,1,0,0:0:0:0:
320,192,17927,1,0,0:0:0:0:
64,192,18003,1,0,0:0:0:40:snare.wav
448,192,18003,1,0,0:0:0:0:
192,192,18078,1,0,0:0:0:0:
64,192,18154,1,0,0:0:0:50:drum.wav
320,192,18154,1,0,0:0:0:40:cymbal.wav
448,192,18154,1,0,0:0:0:0:
192,192,18230,1,0,0:0:0:0:
320,192,18306,1,0,0:0:0:40:snare.wav
448,192,18306,1,0,0:0:0:0:
64,192,18381,1,0,0:0:0:0:
192,192,18457,1,0,0:0:0:50:drum.wav
320,192,18457,1,0,0:0:0:0:
448,192,18533,1,0,0:0:0:0:
64,192,18609,1,0,0:0:0:40:snare.wav
192,192,18609,1,0,0:0:0:0:
320,192,18685,1,0,0:0:0:0:
64,192,18760,1,0,0:0:0:50:drum.wav
192,192,18760,1,0,0:0:0:40:cymbal.wav
448,192,18760,1,0,0:0:0:0:
320,192,18836,1,0,0:0:0:0:
64,192,18912,1,0,0:0:0:40:snare.wav
192,192,18912,1,0,0:0:0:0:
448,192,18988,1,0,0:0:0:0:
192,192,19063,1,0,0:0:0:50:drum.wav
320,192,19063,1,0,0:0:0:0:
64,192,19139,1,0,0:0:0:0:
320,192,19215,1,0,0:0:0:40:snare.wav
448,192,19215,1,0,0:0:0:0:
192,192,19291,1,0,0:0:0:0:
64,192,19366,1,0,0:0:0:50:drum.wav
448,192,19366,1,0,0:0:0:0:
320,192,19442,1,0,0:0:0:0:
64,192,19518,1,0,0:0:0:50:tom01.wav
192,192,19518,1,0,0:0:0:0:
320,192,19594,1,0,0:0:0:50:tom02.wav
64,192,19669,1,0,0:0:0:50:tom03.wav
448,192,19669,1,0,0:0:0:0:
192,192,19745,1,0,0:0:0:0:
320,192,19821,1,0,0:0:0:50:tom01.wav
448,192,19821,1,0,0:0:0:0:
192,192,19897,1,0,0:0:0:50:tom02.wav
64,192,19972,1,0,0:0:0:50:tom03.wav
448,192,19972,1,0,0:0:0:0:
320,192,20048,1,0,0:0:0:0:
64,192,20124,1,0,0:0:0:50:tom03.wav
192,192,20124,1,0,0:0:0:0:
320,192,20200,1,0,0:0:0:50:tom03.wav
448,192,20200,1,0,0:0:0:0:
64,192,20275,1,0,0:0:0:50:tom02.wav
192,192,20275,1,0,0:0:0:0:
320,192,20351,1,0,0:0:0:50:tom02.wav
448,192,20351,1,0,0:0:0:0:
64,192,20427,1,0,0:0:0:50:tom01.wav
192,192,20427,1,0,0:0:0:0:
320,192,20503,1,0,0:0:0:50:tom01.wav
448,192,20503,1,0,0:0:0:0:
64,192,20578,128,0,21184:0:0:0:50:drum.wav
192,192,20578,1,0,0:0:0:0:
192,192,21184,128,0,21791:0:0:0:0:
448,192,21791,128,0,22397:0:0:0:0:
320,192,22397,128,0,23003:0:0:0:0:
64,192,23003,1,0,0:0:0:0:
192,192,23003,128,0,24215:0:0:0:0:
320,192,23306,1,0,0:0:0:0:
448,192,23407,1,0,0:0:0:0:
64,192,23508,1,0,0:0:0:0:
320,192,23609,1,0,0:0:0:0:
448,192,23710,1,0,0:0:0:0:
64,192,23811,1,0,0:0:0:0:
448,192,23912,1,0,0:0:0:0:
64,192,24013,1,0,0:0:0:0:
320,192,24114,1,0,0:0:0:0:
64,192,24215,128,0,25427:0:0:0:0:
448,192,24215,1,0,0:0:0:0:
192,192,24518,1,0,0:0:0:0:
320,192,24619,1,0,0:0:0:0:
448,192,24720,1,0,0:0:0:0:
192,192,24821,1,0,0:0:0:0:
448,192,24922,1,0,0:0:0:0:
320,192,25023,1,0,0:0:0:0:
192,192,25124,1,0,0:0:0:0:
448,192,25225,1,0,0:0:0:0:
192,192,25326,1,0,0:0:0:0:
320,192,25427,128,0,26033:0:0:0:0:
448,192,25427,1,0,0:0:0:0:
192,192,25730,1,0,0:0:0:0:
448,192,25831,1,0,0:0:0:0:
64,192,25932,1,0,0:0:0:0:
192,192,26033,128,0,26639:0:0:0:0:
448,192,26134,1,0,0:0:0:0:
320,192,26235,1,0,0:0:0:0:
64,192,26336,1,0,0:0:0:0:
448,192,26437,1,0,0:0:0:0:
320,192,26538,1,0,0:0:0:0:
64,192,26639,1,0,0:0:0:0:
448,192,26639,128,0,27245:0:0:0:0:
64,192,27094,1,0,0:0:0:0:
192,192,27094,1,0,0:0:0:0:
320,192,27245,128,0,27851:0:0:0:0:
64,192,27548,1,0,0:0:0:0:
448,192,27548,1,0,0:0:0:0:
192,192,27851,1,0,0:0:0:0:
448,192,27851,128,0,28760:0:0:0:0:
192,192,28154,1,0,0:0:0:0:
320,192,28255,1,0,0:0:0:0:
64,192,28356,1,0,0:0:0:0:
320,192,28457,1,0,0:0:0:0:
192,192,28558,1,0,0:0:0:0:
64,192,28659,1,0,0:0:0:0:
320,192,28760,128,0,29063:0:0:0:0:
448,192,28912,128,0,29063:0:0:0:0:
64,192,29063,128,0,30200:0:0:0:0:
192,192,29063,128,0,30200:0:0:0:0:
320,192,29669,128,0,30200:0:0:0:0:
64,192,30275,128,0,31488:0:0:0:40:snare.wav
192,192,30275,1,0,0:0:0:40:cymbal.wav
320,192,30275,1,0,0:0:0:0:
448,192,30275,1,0,0:0:0:0:
320,192,30578,1,0,0:0:0:40:snare.wav
448,192,30578,1,0,0:0:0:0:
320,192,30881,1,0,0:0:0:40:snare.wav
448,192,30881,1,0,0:0:0:0:
320,192,31184,1,0,0:0:0:40:snare.wav
448,192,31184,1,0,0:0:0:0:
192,192,31488,1,0,0:0:0:40:snare.wav
320,192,31488,1,0,0:0:0:0:
448,192,31488,128,0,32094:0:0:0:0:
192,192,31791,1,0,0:0:0:40:snare.wav
320,192,31791,1,0,0:0:0:0:
64,192,32094,1,0,0:0:0:40:snare.wav
192,192,32094,1,0,0:0:0:0:
320,192,32094,128,0,32700:0:0:0:0:
64,192,32397,1,0,0:0:0:40:snare.wav
192,192,32397,1,0,0:0:0:0:
64,192,32700,1,0,0:0:0:40:snare.wav
192,192,32700,128,0,33306:0:0:0:0:
448,192,32700,1,0,0:0:0:0:
64,192,33003,1,0,0:0:0:40:snare.wav
448,192,33003,1,0,0:0:0:0:
64,192,33306,1,0,0:0:0:40:snare.wav
320,192,33306,128,0,33912:0:0:0:0:
448,192,33306,1,0,0:0:0:0:
64,192,33609,1,0,0:0:0:40:snare.wav
448,192,33609,1,0,0:0:0:0:
64,192,33912,1,0,0:0:0:40:snare.wav
192,192,33912,1,0,0:0:0:0:
448,192,33912,128,0,35124:0:0:0:0:
64,192,34215,1,0,0:0:0:40:snare.wav
192,192,34215,1,0,0:0:0:0:
64,192,34518,1,0,0:0:0:40:snare.wav
192,192,34518,1,0,0:0:0:0:
64,192,34821,1,0,0:0:0:40:snare.wav
192,192,34821,1,0,0:0:0:0:
64,192,35124,1,0,0:0:0:50:drum.wav
192,192,35124,1,0,0:0:0:0:
320,192,35124,1,0,0:0:0:0:
64,192,35275,1,0,0:0:0:40:snare.wav
192,192,35275,1,0,0:0:0:0:
320,192,35427,1,0,0:0:0:40:snare.wav
448,192,35427,1,0,0:0:0:0:
320,192,35578,1,0,0:0:0:40:snare.wav
448,192,35578,1,0,0:0:0:0:
192,192,35730,1,0,0:0:0:50:drum.wav
320,192,35730,1,0,0:0:0:0:
192,192,35881,1,0,0:0:0:40:snare.wav
320,192,35881,1,0,0:0:0:0:
64,192,36033,1,0,0:0:0:40:snare.wav
192,192,36033,1,0,0:0:0:0:
64,192,36185,1,0,0:0:0:40:snare.wav
192,192,36185,1,0,0:0:0:0:
64,192,36336,1,0,0:0:0:50:drum.wav
320,192,36336,1,0,0:0:0:0:
448,192,36336,1,0,0:0:0:0:
64,192,36488,1,0,0:0:0:40:snare.wav
448,192,36488,1,0,0:0:0:0:
192,192,36639,1,0,0:0:0:40:snare.wav
320,192,36639,1,0,0:0:0:0:
192,192,36791,1,0,0:0:0:40:snare.wav
320,192,36791,1,0,0:0:0:0:
192,192,36942,1,0,0:0:0:50:drum.wav
448,192,36942,1,0,0:0:0:0:
192,192,37094,1,0,0:0:0:40:snare.wav
448,192,37094,1,0,0:0:0:0:
64,192,37245,1,0,0:0:0:40:snare.wav
320,192,37245,1,0,0:0:0:0:
64,192,37397,1,0,0:0:0:40:snare.wav
320,192,37397,1,0,0:0:0:0:
64,192,37548,1,0,0:0:0:0:
448,192,37548,1,0,0:0:0:0:
192,192,37624,1,0,0:0:0:0:
320,192,37700,1,0,0:0:0:0:
192,192,37775,1,0,0:0:0:0:
448,192,37851,1,0,0:0:0:0:
320,192,37927,1,0,0:0:0:0:
192,192,38003,1,0,0:0:0:0:
64,192,38078,1,0,0:0:0:0:
448,192,38154,1,0,0:0:0:0:
320,192,38230,1,0,0:0:0:0:
192,192,38306,1,0,0:0:0:0:
448,192,38381,1,0,0:0:0:0:
64,192,38457,1,0,0:0:0:0:
192,192,38533,1,0,0:0:0:0:
320,192,38609,1,0,0:0:0:0:
448,192,38685,1,0,0:0:0:0:
64,192,38760,1,0,0:0:0:50:tom03.wav
192,192,38760,1,0,0:0:0:0:
320,192,38836,1,0,0:0:0:50:tom03.wav
64,192,38912,1,0,0:0:0:50:tom03.wav
192,192,38912,1,0,0:0:0:0:
448,192,38988,1,0,0:0:0:50:tom03.wav
192,192,39063,1,0,0:0:0:50:tom03.wav
320,192,39063,1,0,0:0:0:0:
64,192,39139,1,0,0:0:0:50:tom02.wav
320,192,39215,1,0,0:0:0:50:tom02.wav
448,192,39215,1,0,0:0:0:0:
192,192,39291,1,0,0:0:0:50:tom02.wav
64,192,39366,1,0,0:0:0:50:tom02.wav
448,192,39366,128,0,39972:0:0:0:0:
320,192,39442,1,0,0:0:0:50:tom02.wav
64,192,39518,1,0,0:0:0:50:tom01.wav
320,192,39594,1,0,0:0:0:50:tom01.wav
64,192,39669,1,0,0:0:0:50:tom01.wav
192,192,39745,1,0,0:0:0:50:tom01.wav
64,192,39821,1,0,0:0:0:50:tom01.wav
192,192,39897,1,0,0:0:0:50:tom01.wav
64,192,39972,1,0,0:0:0:50:drum.wav
320,192,39972,128,0,40427:0:0:0:40:cymbal.wav
64,192,40124,1,0,0:0:0:0:
64,192,40275,1,0,0:0:0:0:
64,192,40427,1,0,0:0:0:0:
192,192,40578,128,0,41033:0:0:0:0:
448,192,40578,1,0,0:0:0:0:
448,192,40730,1,0,0:0:0:0:
448,192,40881,1,0,0:0:0:0:
448,192,41033,1,0,0:0:0:0:
192,192,41185,1,0,0:0:0:50:drum.wav
320,192,41185,128,0,41639:0:0:0:0:
192,192,41336,1,0,0:0:0:0:
192,192,41488,1,0,0:0:0:0:
192,192,41639,1,0,0:0:0:0:
64,192,41791,128,0,42245:0:0:0:0:
320,192,41791,1,0,0:0:0:0:
320,192,41942,1,0,0:0:0:0:
320,192,42094,1,0,0:0:0:0:
320,192,42245,1,0,0:0:0:0:
64,192,42397,1,0,0:0:0:50:drum.wav
448,192,42397,128,0,42851:0:0:0:0:
64,192,42548,1,0,0:0:0:0:
64,192,42700,1,0,0:0:0:0:
64,192,42851,1,0,0:0:0:0:
192,192,43003,128,0,43457:0:0:0:0:
448,192,43003,1,0,0:0:0:0:
448,192,43154,1,0,0:0:0:0:
448,192,43306,1,0,0:0:0:0:
448,192,43457,1,0,0:0:0:0:
192,192,43609,1,0,0:0:0:50:drum.wav
448,192,43609,128,0,44063:0:0:0:0:
192,192,43760,1,0,0:0:0:0:
192,192,43912,1,0,0:0:0:0:
192,192,44063,1,0,0:0:0:0:
64,192,44215,128,0,44669:0:0:0:0:
320,192,44215,1,0,0:0:0:0:
320,192,44366,1,0,0:0:0:0:
320,192,44518,1,0,0:0:0:0:
320,192,44669,1,0,0:0:0:0:
64,192,44821,1,0,0:0:0:50:drum.wav
448,192,44821,1,0,0:0:0:0:
192,192,44897,1,0,0:0:0:0:
448,192,44972,1,0,0:0:0:0:
64,192,45048,1,0,0:0:0:0:
448,192,45124,1,0,0:0:0:0:
320,192,45200,1,0,0:0:0:0:
448,192,45275,1,0,0:0:0:0:
64,192,45427,1,0,0:0:0:0:
192,192,45427,1,0,0:0:0:0:
448,192,45503,1,0,0:0:0:0:
64,192,45578,1,0,0:0:0:0:
320,192,45654,1,0,0:0:0:0:
64,192,45730,1,0,0:0:0:0:
448,192,45806,1,0,0:0:0:0:
64,192,45881,1,0,0:0:0:0:
192,192,46033,1,0,0:0:0:50:drum.wav
320,192,46033,1,0,0:0:0:0:
448,192,46109,1,0,0:0:0:0:
320,192,46185,1,0,0:0:0:0:
64,192,46260,1,0,0:0:0:0:
320,192,46336,1,0,0:0:0:0:
192,192,46412,1,0,0:0:0:0:
320,192,46488,1,0,0:0:0:0:
192,192,46639,1,0,0:0:0:0:
448,192,46639,1,0,0:0:0:0:
64,192,46715,1,0,0:0:0:0:
192,192,46791,1,0,0:0:0:0:
448,192,46866,1,0,0:0:0:0:
192,192,46942,1,0,0:0:0:0:
320,192,47018,1,0,0:0:0:0:
192,192,47094,1,0,0:0:0:0:
64,192,47245,1,0,0:0:0:50:drum.wav
448,192,47245,1,0,0:0:0:0:
320,192,47321,1,0,0:0:0:0:
448,192,47397,1,0,0:0:0:0:
192,192,47472,1,0,0:0:0:0:
448,192,47548,1,0,0:0:0:0:
64,192,47624,1,0,0:0:0:0:
448,192,47700,1,0,0:0:0:0:
64,192,47851,1,0,0:0:0:0:
320,192,47851,1,0,0:0:0:0:
192,192,47927,1,0,0:0:0:0:
64,192,48003,1,0,0:0:0:0:
320,192,48078,1,0,0:0:0:0:
64,192,48154,1,0,0:0:0:0:
448,192,48230,1,0,0:0:0:0:
64,192,48306,1,0,0:0:0:0:
192,192,48457,1,0,0:0:0:50:drum.wav
320,192,48457,1,0,0:0:0:0:
64,192,48533,1,0,0:0:0:0:
320,192,48609,1,0,0:0:0:0:
448,192,48685,1,0,0:0:0:0:
320,192,48760,1,0,0:0:0:0:
192,192,48836,1,0,0:0:0:0:
320,192,48912,1,0,0:0:0:0:
64,192,49063,1,0,0:0:0:0:
448,192,49063,128,0,49518:0:0:0:0:
320,192,49139,1,0,0:0:0:0:
64,192,49215,1,0,0:0:0:0:
192,192,49291,1,0,0:0:0:0:
64,192,49366,1,0,0:0:0:0:
320,192,49442,1,0,0:0:0:0:
64,192,49518,1,0,0:0:0:0:
192,192,49594,1,0,0:0:0:0:
64,192,49669,1,0,0:0:0:40:snare.wav
320,192,49669,1,0,0:0:0:40:cymbal.wav
448,192,49669,1,0,0:0:0:0:
192,192,49821,1,0,0:0:0:0:
320,192,49897,1,0,0:0:0:0:
64,192,49972,1,0,0:0:0:50:drum.wav
448,192,49972,1,0,0:0:0:0:
192,192,50048,1,0,0:0:0:0:
448,192,50124,1,0,0:0:0:0:
320,192,50200,1,0,0:0:0:0:
64,192,50275,1,0,0:0:0:40:snare.wav
192,192,50275,1,0,0:0:0:0:
448,192,50351,1,0,0:0:0:0:
320,192,50427,1,0,0:0:0:0:
64,192,50503,1,0,0:0:0:0:
320,192,50578,1,0,0:0:0:50:drum.wav
448,192,50578,1,0,0:0:0:0:
192,192,50654,1,0,0:0:0:0:
448,192,50730,1,0,0:0:0:0:
320,192,50806,1,0,0:0:0:0:
64,192,50881,1,0,0:0:0:40:snare.wav
192,192,50881,1,0,0:0:0:0:
448,192,50881,1,0,0:0:0:0:
320,192,51033,1,0,0:0:0:0:
192,192,51109,1,0,0:0:0:0:
64,192,51185,1,0,0:0:0:50:drum.wav
448,192,51185,1,0,0:0:0:0:
320,192,51260,1,0,0:0:0:0:
64,192,51336,1,0,0:0:0:0:
192,192,51412,1,0,0:0:0:0:
320,192,51488,1,0,0:0:0:40:snare.wav
448,192,51488,1,0,0:0:0:0:
64,192,51563,1,0,0:0:0:0:
192,192,51639,1,0,0:0:0:0:
448,192,51715,1,0,0:0:0:0:
64,192,51791,1,0,0:0:0:50:drum.wav
192,192,51791,1,0,0:0:0:0:
320,192,51866,1,0,0:0:0:0:
64,192,51942,1,0,0:0:0:0:
192,192,52018,1,0,0:0:0:0:
64,192,52094,1,0,0:0:0:40:snare.wav
320,192,52094,1,0,0:0:0:40:cymbal.wav
448,192,52094,1,0,0:0:0:0:
192,192,52245,1,0,0:0:0:0:
64,192,52321,1,0,0:0:0:0:
320,192,52397,1,0,0:0:0:50:drum.wav
448,192,52397,1,0,0:0:0:0:
192,192,52472,1,0,0:0:0:0:
448,192,52548,1,0,0:0:0:0:
320,192,52624,1,0,0:0:0:0:
64,192,52700,1,0,0:0:0:40:snare.wav
192,192,52700,1,0,0:0:0:0:
448,192,52775,1,0,0:0:0:0:
192,192,52851,1,0,0:0:0:0:
320,192,52927,1,0,0:0:0:0:
64,192,53003,1,0,0:0:0:50:drum.wav
448,192,53003,1,0,0:0:0:0:
192,192,53078,1,0,0:0:0:0:
448,192,53154,1,0,0:0:0:0:
320,192,53230,1,0,0:0:0:0:
64,192,53306,1,0,0:0:0:40:snare.wav
192,192,53306,1,0,0:0:0:0:
448,192,53306,1,0,0:0:0:0:
320,192,53457,1,0,0:0:0:0:
448,192,53533,1,0,0:0:0:0:
64,192,53609,1,0,0:0:0:50:drum.wav
192,192,53609,1,0,0:0:0:0:
320,192,53684,1,0,0:0:0:0:
64,192,53760,1,0,0:0:0:0:
192,192,53836,1,0,0:0:0:0:
320,192,53912,1,0,0:0:0:40:snare.wav
448,192,53912,1,0,0:0:0:0:
64,192,53988,1,0,0:0:0:0:
320,192,54063,1,0,0:0:0:0:
192,192,54139,1,0,0:0:0:0:
64,192,54215,1,0,0:0:0:50:drum.wav
448,192,54215,1,0,0:0:0:0:
320,192,54291,1,0,0:0:0:0:
64,192,54366,1,0,0:0:0:0:
192,192,54442,1,0,0:0:0:0:
64,192,54518,1,0,0:0:0:40:snare.wav
320,192,54518,128,0,54669:0:0:0:40:cymbal.wav
448,192,54518,128,0,54669:0:0:0:0:
192,192,54669,1,0,0:0:0:40:snare.wav
320,192,54745,1,0,0:0:0:0:
64,192,54821,128,0,54972:0:0:0:40:snare.wav
192,192,54821,128,0,54972:0:0:0:0:
448,192,54821,1,0,0:0:0:0:
320,192,54972,1,0,0:0:0:40:snare.wav
192,192,55048,1,0,0:0:0:0:
64,192,55124,1,0,0:0:0:40:snare.wav
320,192,55124,128,0,55275:0:0:0:40:cymbal.wav
448,192,55124,128,0,55275:0:0:0:0:
192,192,55275,1,0,0:0:0:40:snare.wav
320,192,55351,1,0,0:0:0:0:
64,192,55427,128,0,55578:0:0:0:40:snare.wav
192,192,55427,128,0,55578:0:0:0:0:
448,192,55427,1,0,0:0:0:0:
320,192,55578,1,0,0:0:0:40:snare.wav
192,192,55654,1,0,0:0:0:0:
64,192,55730,1,0,0:0:0:40:snare.wav
448,192,55730,1,0,0:0:0:0:
192,192,55806,1,0,0:0:0:0:
320,192,55881,1,0,0:0:0:40:snare.wav
448,192,55881,1,0,0:0:0:0:
64,192,55957,1,0,0:0:0:0:
192,192,56033,1,0,0:0:0:40:snare.wav
320,192,56033,1,0,0:0:0:0:
448,192,56109,1,0,0:0:0:0:
64,192,56185,1,0,0:0:0:40:snare.wav
192,192,56185,1,0,0:0:0:0:
320,192,56260,1,0,0:0:0:0:
64,192,56336,1,0,0:0:0:40:snare.wav
448,192,56336,1,0,0:0:0:40:cymbal.wav
192,192,56412,1,0,0:0:0:0:
320,192,56412,1,0,0:0:0:0:
64,192,56488,1,0,0:0:0:40:snare.wav
448,192,56488,1,0,0:0:0:0:
192,192,56563,1,0,0:0:0:0:
320,192,56639,1,0,0:0:0:40:snare.wav
448,192,56639,1,0,0:0:0:0:
64,192,56715,1,0,0:0:0:0:
192,192,56715,1,0,0:0:0:0:
320,192,56791,1,0,0:0:0:40:snare.wav
448,192,56791,1,0,0:0:0:0:
64,192,56866,1,0,0:0:0:0:
192,192,56866,1,0,0:0:0:0:
320,192,56942,1,0,0:0:0:0:
448,192,56942,128,0,57245:0:0:0:0:
64,192,57245,1,0,0:0:0:0:
448,192,57548,128,0,57851:0:0:0:0:
192,192,57851,1,0,0:0:0:0:
64,192,58154,128,0,59215:0:0:0:0:
448,192,58154,128,0,58457:0:0:0:0:
320,192,58457,1,0,0:0:0:0:
192,192,58760,128,0,59215:0:0:0:0:
64,192,59366,1,0,0:0:0:50:drum.wav
320,192,59366,1,0,0:0:0:40:cymbal.wav
448,192,59366,1,0,0:0:0:0:
192,192,59518,1,0,0:0:0:50:drum.wav
320,192,59518,1,0,0:0:0:0:
64,192,59669,1,0,0:0:0:40:snare.wav
192,192,59669,1,0,0:0:0:0:
448,192,59669,1,0,0:0:0:0:
64,192,59821,1,0,0:0:0:50:drum.wav
320,192,59821,1,0,0:0:0:0:
192,192,59972,1,0,0:0:0:40:snare.wav
320,192,59972,1,0,0:0:0:0:
448,192,59972,1,0,0:0:0:0:
64,192,60124,1,0,0:0:0:50:drum.wav
448,192,60124,1,0,0:0:0:0:
64,192,60275,1,0,0:0:0:40:snare.wav
192,192,60275,1,0,0:0:0:0:
320,192,60275,1,0,0:0:0:0:
192,192,60427,1,0,0:0:0:50:drum.wav
448,192,60427,1,0,0:0:0:0:
64,192,60578,1,0,0:0:0:40:snare.wav
320,192,60578,1,0,0:0:0:0:
448,192,60578,1,0,0:0:0:0:
192,192,60730,1,0,0:0:0:50:drum.wav
320,192,60730,1,0,0:0:0:0:
64,192,60881,1,0,0:0:0:40:snare.wav
192,192,60881,1,0,0:0:0:0:
448,192,60881,1,0,0:0:0:0:
320,192,61033,1,0,0:0:0:50:drum.wav
448,192,61033,1,0,0:0:0:0:
64,192,61185,1,0,0:0:0:0:
320,192,61185,1,0,0:0:0:0:
192,192,61185,1,0,0:0:0:40:snare.wav
64,192,61336,1,0,0:0:0:50:drum.wav
192,192,61336,1,0,0:0:0:0:
448,192,61336,1,0,0:0:0:0:
192,192,61488,1,0,0:0:0:40:snare.wav
320,192,61488,1,0,0:0:0:0:
448,192,61488,1,0,0:0:0:0:
64,192,61639,1,0,0:0:0:50:drum.wav
320,192,61639,1,0,0:0:0:0:
448,192,61639,1,0,0:0:0:0:
64,192,61791,1,0,0:0:0:40:snare.wav
192,192,61791,1,0,0:0:0:0:
448,192,61791,1,0,0:0:0:0:
192,192,61942,1,0,0:0:0:50:drum.wav
320,192,61942,1,0,0:0:0:0:
64,192,62094,1,0,0:0:0:40:snare.wav
320,192,62094,1,0,0:0:0:0:
448,192,62094,1,0,0:0:0:0:
192,192,62245,1,0,0:0:0:50:drum.wav
448,192,62245,1,0,0:0:0:0:
64,192,62397,1,0,0:0:0:40:snare.wav
192,192,62397,1,0,0:0:0:0:
320,192,62397,1,0,0:0:0:0:
64,192,62548,1,0,0:0:0:50:drum.wav
448,192,62548,1,0,0:0:0:0:
192,192,62700,1,0,0:0:0:40:snare.wav
320,192,62700,1,0,0:0:0:0:
448,192,62700,1,0,0:0:0:0:
64,192,62851,1,0,0:0:0:50:drum.wav
320,192,62851,1,0,0:0:0:0:
64,192,63003,1,0,0:0:0:40:snare.wav
192,192,63003,1,0,0:0:0:0:
448,192,63003,1,0,0:0:0:0:
192,192,63154,1,0,0:0:0:50:drum.wav
320,192,63154,1,0,0:0:0:0:
64,192,63306,1,0,0:0:0:40:snare.wav
320,192,63306,1,0,0:0:0:0:
448,192,63306,1,0,0:0:0:0:
64,192,63457,1,0,0:0:0:50:drum.wav
192,192,63457,1,0,0:0:0:0:
192,192,63609,1,0,0:0:0:40:snare.wav
320,192,63609,1,0,0:0:0:0:
448,192,63609,1,0,0:0:0:0:
448,192,63760,1,0,0:0:0:0:
64,192,63912,1,0,0:0:0:40:snare.wav
192,192,63912,1,0,0:0:0:0:
320,192,63912,1,0,0:0:0:0:
64,192,64063,1,0,0:0:0:50:drum.wav
192,192,64063,1,0,0:0:0:0:
448,192,64063,1,0,0:0:0:0:
64,192,64215,1,0,0:0:0:40:snare.wav
320,192,64215,1,0,0:0:0:0:
448,192,64215,1,0,0:0:0:0:
192,192,64366,1,0,0:0:0:50:drum.wav
320,192,64366,1,0,0:0:0:0:
64,192,64518,1,0,0:0:0:40:snare.wav
192,192,64518,1,0,0:0:0:0:
448,192,64518,1,0,0:0:0:0:
64,192,64669,1,0,0:0:0:50:drum.wav
320,192,64669,1,0,0:0:0:0:
192,192,64821,1,0,0:0:0:40:snare.wav
320,192,64821,1,0,0:0:0:0:
448,192,64821,1,0,0:0:0:0:
64,192,64972,1,0,0:0:0:50:drum.wav
448,192,64972,1,0,0:0:0:0:
64,192,65124,1,0,0:0:0:40:snare.wav
192,192,65124,1,0,0:0:0:0:
320,192,65124,1,0,0:0:0:0:
192,192,65275,1,0,0:0:0:50:drum.wav
448,192,65275,1,0,0:0:0:0:
64,192,65427,1,0,0:0:0:40:snare.wav
320,192,65427,1,0,0:0:0:0:
448,192,65427,1,0,0:0:0:0:
192,192,65578,1,0,0:0:0:50:drum.wav
320,192,65578,1,0,0:0:0:0:
64,192,65730,1,0,0:0:0:40:snare.wav
192,192,65730,1,0,0:0:0:0:
448,192,65730,1,0,0:0:0:0:
320,192,65881,1,0,0:0:0:50:drum.wav
448,192,65881,1,0,0:0:0:0:
64,192,66033,1,0,0:0:0:40:snare.wav
192,192,66033,1,0,0:0:0:0:
320,192,66033,1,0,0:0:0:0:
64,192,66184,1,0,0:0:0:50:drum.wav
192,192,66184,1,0,0:0:0:0:
448,192,66184,1,0,0:0:0:0:
192,192,66336,1,0,0:0:0:40:snare.wav
320,192,66336,1,0,0:0:0:0:
448,192,66336,1,0,0:0:0:0:
64,192,66488,1,0,0:0:0:50:drum.wav
320,192,66488,1,0,0:0:0:0:
448,192,66488,1,0,0:0:0:0:
64,192,66639,1,0,0:0:0:40:snare.wav
192,192,66639,1,0,0:0:0:0:
448,192,66639,1,0,0:0:0:0:
64,192,66791,1,0,0:0:0:50:drum.wav
192,192,66791,1,0,0:0:0:0:
320,192,66791,1,0,0:0:0:0:
192,192,66942,1,0,0:0:0:40:snare.wav
320,192,66942,1,0,0:0:0:0:
448,192,66942,1,0,0:0:0:0:
64,192,67094,1,0,0:0:0:50:drum.wav
320,192,67094,1,0,0:0:0:0:
448,192,67094,1,0,0:0:0:0:
64,192,67245,1,0,0:0:0:40:snare.wav
192,192,67245,1,0,0:0:0:0:
448,192,67245,1,0,0:0:0:0:
192,192,67397,1,0,0:0:0:50:drum.wav
320,192,67397,1,0,0:0:0:0:
64,192,67548,1,0,0:0:0:40:snare.wav
320,192,67548,1,0,0:0:0:0:
448,192,67548,1,0,0:0:0:0:
64,192,67700,1,0,0:0:0:50:drum.wav
192,192,67700,1,0,0:0:0:0:
192,192,67851,1,0,0:0:0:40:snare.wav
320,192,67851,1,0,0:0:0:0:
448,192,67851,1,0,0:0:0:0:
64,192,68003,1,0,0:0:0:50:drum.wav
448,192,68003,1,0,0:0:0:0:
64,192,68154,1,0,0:0:0:40:snare.wav
192,192,68154,1,0,0:0:0:0:
320,192,68154,1,0,0:0:0:0:
192,192,68306,1,0,0:0:0:50:drum.wav
448,192,68306,1,0,0:0:0:0:
64,192,68457,1,0,0:0:0:40:snare.wav
320,192,68457,1,0,0:0:0:0:
448,192,68457,1,0,0:0:0:0:
64,192,68609,1,0,0:0:0:50:drum.wav
192,192,68609,1,0,0:0:0:0:
448,192,68609,1,0,0:0:0:0:
64,192,68760,1,0,0:0:0:40:snare.wav
192,192,68760,1,0,0:0:0:0:
320,192,68760,1,0,0:0:0:0:
64,192,68912,1,0,0:0:0:50:drum.wav
320,192,68912,1,0,0:0:0:0:
448,192,68912,1,0,0:0:0:0:
192,192,69063,1,0,0:0:0:40:snare.wav
320,192,69063,1,0,0:0:0:40:cymbal.wav
448,192,69063,1,0,0:0:0:0:
64,192,69215,1,0,0:0:0:50:drum.wav
192,192,69291,1,0,0:0:0:50:drum.wav
64,192,69366,1,0,0:0:0:40:snare.wav
320,192,69366,1,0,0:0:0:0:
448,192,69366,1,0,0:0:0:0:
192,192,69518,1,0,0:0:0:50:drum.wav
320,192,69594,1,0,0:0:0:50:drum.wav
64,192,69669,1,0,0:0:0:40:snare.wav
448,192,69669,1,0,0:0:0:0:
320,192,69745,1,0,0:0:0:0:
192,192,69821,1,0,0:0:0:50:drum.wav
448,192,69897,1,0,0:0:0:50:drum.wav
64,192,69972,1,0,0:0:0:40:snare.wav
192,192,69972,1,0,0:0:0:0:
320,192,69972,1,0,0:0:0:0:
448,192,70048,1,0,0:0:0:0:
320,192,70124,1,0,0:0:0:50:drum.wav
192,192,70200,1,0,0:0:0:50:drum.wav
64,192,70275,1,0,0:0:0:40:snare.wav
448,192,70275,1,0,0:0:0:0:
192,192,70351,1,0,0:0:0:0:
320,192,70427,1,0,0:0:0:50:drum.wav
64,192,70503,1,0,0:0:0:50:drum.wav
192,192,70578,1,0,0:0:0:40:snare.wav
320,192,70578,1,0,0:0:0:0:
448,192,70578,1,0,0:0:0:0:
64,192,70654,1,0,0:0:0:0:
448,192,70730,1,0,0:0:0:50:drum.wav
192,192,70806,1,0,0:0:0:50:drum.wav
64,192,70881,1,0,0:0:0:40:snare.wav
320,192,70881,1,0,0:0:0:0:
448,192,70957,1,0,0:0:0:0:
64,192,71033,1,0,0:0:0:50:drum.wav
192,192,71033,1,0,0:0:0:0:
320,192,71109,1,0,0:0:0:50:drum.wav
192,192,71184,1,0,0:0:0:40:snare.wav
448,192,71184,1,0,0:0:0:0:
64,192,71260,1,0,0:0:0:0:
320,192,71336,1,0,0:0:0:50:drum.wav
448,192,71336,1,0,0:0:0:0:
192,192,71412,1,0,0:0:0:50:drum.wav
64,192,71488,1,0,0:0:0:40:snare.wav
320,192,71488,1,0,0:0:0:40:cymbal.wav
448,192,71488,1,0,0:0:0:0:
192,192,71639,1,0,0:0:0:50:drum.wav
320,192,71715,1,0,0:0:0:50:drum.wav
64,192,71791,1,0,0:0:0:40:snare.wav
192,192,71791,1,0,0:0:0:0:
448,192,71791,1,0,0:0:0:0:
320,192,71942,1,0,0:0:0:50:drum.wav
192,192,72018,1,0,0:0:0:50:drum.wav
64,192,72094,1,0,0:0:0:40:snare.wav
448,192,72094,1,0,0:0:0:0:
192,192,72169,1,0,0:0:0:0:
320,192,72245,1,0,0:0:0:50:drum.wav
64,192,72321,1,0,0:0:0:50:drum.wav
192,192,72397,1,0,0:0:0:40:snare.wav
320,192,72397,1,0,0:0:0:0:
448,192,72397,1,0,0:0:0:0:
64,192,72472,1,0,0:0:0:0:
192,192,72548,1,0,0:0:0:50:drum.wav
320,192,72624,1,0,0:0:0:50:drum.wav
64,192,72700,1,0,0:0:0:40:snare.wav
448,192,72700,1,0,0:0:0:0:
320,192,72775,1,0,0:0:0:0:
192,192,72851,1,0,0:0:0:50:drum.wav
448,192,72927,1,0,0:0:0:50:drum.wav
64,192,73003,1,0,0:0:0:40:snare.wav
192,192,73003,1,0,0:0:0:0:
320,192,73003,1,0,0:0:0:0:
448,192,73078,1,0,0:0:0:0:
64,192,73154,1,0,0:0:0:50:drum.wav
192,192,73230,1,0,0:0:0:50:drum.wav
320,192,73306,1,0,0:0:0:40:snare.wav
448,192,73306,1,0,0:0:0:0:
64,192,73381,1,0,0:0:0:50:drum.wav
192,192,73381,1,0,0:0:0:0:
320,192,73457,1,0,0:0:0:50:drum.wav
448,192,73457,1,0,0:0:0:0:
64,192,73533,1,0,0:0:0:50:drum.wav
192,192,73533,1,0,0:0:0:0:
320,192,73609,1,0,0:0:0:40:snare.wav
448,192,73609,1,0,0:0:0:0:
192,192,73684,1,0,0:0:0:50:drum.wav
64,192,73760,1,0,0:0:0:50:drum.wav
448,192,73760,1,0,0:0:0:0:
320,192,73836,1,0,0:0:0:50:drum.wav
64,192,73912,1,0,0:0:0:40:snare.wav
192,192,73912,1,0,0:0:0:40:cymbal.wav
448,192,73912,1,0,0:0:0:0:
320,192,74063,1,0,0:0:0:50:drum.wav
192,192,74139,1,0,0:0:0:50:drum.wav
64,192,74215,1,0,0:0:0:40:snare.wav
320,192,74215,1,0,0:0:0:0:
448,192,74215,1,0,0:0:0:0:
192,192,74366,1,0,0:0:0:50:drum.wav
320,192,74442,1,0,0:0:0:50:drum.wav
64,192,74518,1,0,0:0:0:40:snare.wav
448,192,74518,1,0,0:0:0:0:
192,192,74594,1,0,0:0:0:0:
320,192,74669,1,0,0:0:0:50:drum.wav
64,192,74745,1,0,0:0:0:50:drum.wav
192,192,74821,1,0,0:0:0:40:snare.wav
320,192,74821,1,0,0:0:0:0:
448,192,74821,1,0,0:0:0:0:
64,192,74897,1,0,0:0:0:0:
192,192,74972,1,0,0:0:0:50:drum.wav
320,192,75048,1,0,0:0:0:50:drum.wav
64,192,75124,1,0,0:0:0:40:snare.wav
448,192,75124,1,0,0:0:0:40:cymbal.wav
320,192,75200,1,0,0:0:0:0:
192,192,75275,1,0,0:0:0:50:drum.wav
448,192,75351,1,0,0:0:0:50:drum.wav
64,192,75427,1,0,0:0:0:40:snare.wav
192,192,75427,1,0,0:0:0:0:
320,192,75427,1,0,0:0:0:0:
448,192,75503,1,0,0:0:0:0:
64,192,75578,1,0,0:0:0:50:drum.wav
320,192,75654,1,0,0:0:0:50:drum.wav
192,192,75730,1,0,0:0:0:40:snare.wav
448,192,75730,1,0,0:0:0:0:
64,192,75806,1,0,0:0:0:0:
320,192,75881,1,0,0:0:0:50:drum.wav
448,192,75881,1,0,0:0:0:0:
192,192,75957,1,0,0:0:0:50:drum.wav
64,192,76033,1,0,0:0:0:40:snare.wav
320,192,76033,1,0,0:0:0:0:
448,192,76109,1,0,0:0:0:0:
64,192,76184,1,0,0:0:0:50:drum.wav
192,192,76184,1,0,0:0:0:0:
320,192,76260,1,0,0:0:0:50:drum.wav
64,192,76336,1,0,0:0:0:40:snare.wav
192,192,76336,1,0,0:0:0:40:cymbal.wav
448,192,76336,1,0,0:0:0:0:
320,192,76412,1,0,0:0:0:0:
64,192,76488,1,0,0:0:0:50:drum.wav
192,192,76488,1,0,0:0:0:0:
448,192,76563,1,0,0:0:0:0:
192,192,76639,1,0,0:0:0:40:snare.wav
320,192,76639,1,0,0:0:0:0:
64,192,76715,1,0,0:0:0:0:
320,192,76791,1,0,0:0:0:50:drum.wav
448,192,76791,1,0,0:0:0:0:
192,192,76866,1,0,0:0:0:0:
64,192,76942,1,0,0:0:0:40:snare.wav
320,192,76942,1,0,0:0:0:40:cymbal.wav
448,192,76942,1,0,0:0:0:0:
192,192,77018,1,0,0:0:0:0:
320,192,77094,1,0,0:0:0:50:drum.wav
448,192,77094,1,0,0:0:0:0:
64,192,77169,1,0,0:0:0:0:
192,192,77245,1,0,0:0:0:40:snare.wav
320,192,77245,1,0,0:0:0:0:
448,192,77321,1,0,0:0:0:0:
64,192,77397,1,0,0:0:0:50:drum.wav
192,192,77397,1,0,0:0:0:0:
320,192,77472,1,0,0:0:0:0:
64,192,77548,128,0,77700:0:0:0:40:snare.wav
192,192,77548,1,0,0:0:0:40:cymbal.wav
448,192,77548,1,0,0:0:0:0:
320,192,77700,1,0,0:0:0:0:
448,192,77700,1,0,0:0:0:0:
192,192,77750,1,0,0:0:0:0:
64,192,77801,1,0,0:0:0:0:
320,192,77851,1,0,0:0:0:0:
448,192,77851,128,0,78003:0:0:0:0:
64,192,78003,1,0,0:0:0:0:
192,192,78003,1,0,0:0:0:0:
320,192,78053,1,0,0:0:0:0:
448,192,78104,1,0,0:0:0:0:
64,192,78154,1,0,0:0:0:40:snare.wav
192,192,78154,1,0,0:0:0:0:
320,192,78230,1,0,0:0:0:50:drum.wav
448,192,78230,1,0,0:0:0:0:
64,192,78306,1,0,0:0:0:50:drum.wav
192,192,78306,1,0,0:0:0:0:
320,192,78381,1,0,0:0:0:50:drum.wav
448,192,78381,1,0,0:0:0:0:
64,192,78457,1,0,0:0:0:40:snare.wav
192,192,78457,1,0,0:0:0:0:
320,192,78533,1,0,0:0:0:50:drum.wav
448,192,78533,1,0,0:0:0:0:
64,192,78609,1,0,0:0:0:50:drum.wav
192,192,78609,1,0,0:0:0:0:
320,192,78684,1,0,0:0:0:50:drum.wav
64,192,78760,1,0,0:0:0:40:snare.wav
192,192,78760,1,0,0:0:0:40:cymbal.wav
448,192,78760,1,0,0:0:0:0:
320,192,78836,1,0,0:0:0:0:
64,192,78912,1,0,0:0:0:0:
192,192,78988,1,0,0:0:0:0:
64,192,79063,1,0,0:0:0:40:snare.wav
320,192,79063,1,0,0:0:0:0:
448,192,79063,1,0,0:0:0:0:
192,192,79139,1,0,0:0:0:0:
320,192,79215,1,0,0:0:0:0:
448,192,79291,1,0,0:0:0:0:
64,192,79366,1,0,0:0:0:50:drum.wav
192,192,79366,1,0,0:0:0:0:
320,192,79442,1,0,0:0:0:0:
192,192,79518,1,0,0:0:0:0:
448,192,79594,1,0,0:0:0:0:
64,192,79669,1,0,0:0:0:40:snare.wav
192,192,79669,1,0,0:0:0:0:
320,192,79669,1,0,0:0:0:0:
448,192,79745,1,0,0:0:0:0:
320,192,79821,1,0,0:0:0:0:
192,192,79897,1,0,0:0:0:0:
64,192,79972,1,0,0:0:0:50:drum.wav
448,192,79972,1,0,0:0:0:0:
192,192,80048,1,0,0:0:0:0:
448,192,80124,1,0,0:0:0:0:
320,192,80200,1,0,0:0:0:0:
64,192,80275,1,0,0:0:0:40:snare.wav
192,192,80275,1,0,0:0:0:0:
448,192,80275,1,0,0:0:0:0:
320,192,80351,1,0,0:0:0:0:
192,192,80427,1,0,0:0:0:40:snare.wav
64,192,80503,1,0,0:0:0:0:
320,192,80578,1,0,0:0:0:50:drum.wav
448,192,80578,1,0,0:0:0:0:
192,192,80654,1,0,0:0:0:0:
320,192,80730,1,0,0:0:0:0:
64,192,80806,1,0,0:0:0:0:
192,192,80881,1,0,0:0:0:40:snare.wav
320,192,80881,1,0,0:0:0:0:
448,192,80881,1,0,0:0:0:0:
64,192,80957,1,0,0:0:0:0:
192,192,81033,1,0,0:0:0:0:
320,192,81109,1,0,0:0:0:0:
64,192,81184,1,0,0:0:0:50:drum.wav
448,192,81184,1,0,0:0:0:0:
192,192,81260,1,0,0:0:0:0:
320,192,81336,1,0,0:0:0:0:
448,192,81412,1,0,0:0:0:0:
64,192,81488,1,0,0:0:0:40:snare.wav
192,192,81488,1,0,0:0:0:0:
320,192,81488,1,0,0:0:0:0:
448,192,81563,1,0,0:0:0:0:
192,192,81639,1,0,0:0:0:0:
320,192,81715,1,0,0:0:0:0:
64,192,81791,1,0,0:0:0:50:drum.wav
448,192,81791,1,0,0:0:0:0:
320,192,81866,1,0,0:0:0:0:
64,192,81942,1,0,0:0:0:0:
192,192,82018,1,0,0:0:0:0:
64,192,82094,1,0,0:0:0:40:snare.wav
320,192,82094,1,0,0:0:0:0:
448,192,82094,1,0,0:0:0:0:
192,192,82169,1,0,0:0:0:0:
448,192,82245,1,0,0:0:0:0:
320,192,82321,1,0,0:0:0:0:
64,192,82397,1,0,0:0:0:50:drum.wav
192,192,82397,1,0,0:0:0:0:
448,192,82472,1,0,0:0:0:0:
320,192,82548,1,0,0:0:0:0:
192,192,82624,1,0,0:0:0:0:
64,192,82700,1,0,0:0:0:40:snare.wav
320,192,82700,1,0,0:0:0:0:
448,192,82700,1,0,0:0:0:0:
192,192,82775,1,0,0:0:0:0:
448,192,82851,1,0,0:0:0:0:
320,192,82927,1,0,0:0:0:0:
64,192,83003,1,0,0:0:0:50:drum.wav
192,192,83003,1,0,0:0:0:0:
448,192,83078,1,0,0:0:0:0:
320,192,83154,1,0,0:0:0:0:
64,192,83230,1,0,0:0:0:0:
192,192,83306,1,0,0:0:0:40:snare.wav
320,192,83306,1,0,0:0:0:0:
448,192,83306,1,0,0:0:0:0:
64,192,83381,1,0,0:0:0:0:
192,192,83457,1,0,0:0:0:40:snare.wav
320,192,83533,1,0,0:0:0:0:
64,192,83609,1,0,0:0:0:50:drum.wav
448,192,83609,1,0,0:0:0:0:
192,192,83684,1,0,0:0:0:0:
320,192,83760,1,0,0:0:0:0:
64,192,83836,1,0,0:0:0:0:
192,192,83912,1,0,0:0:0:40:snare.wav
320,192,83912,1,0,0:0:0:0:
448,192,83912,1,0,0:0:0:0:
64,192,83988,1,0,0:0:0:0:
320,192,84063,1,0,0:0:0:0:
448,192,84063,1,0,0:0:0:0:
64,192,84139,1,0,0:0:0:0:
192,192,84139,1,0,0:0:0:0:
320,192,84215,1,0,0:0:0:50:drum.wav
448,192,84215,1,0,0:0:0:0:
192,192,84291,1,0,0:0:0:0:
64,192,84366,1,0,0:0:0:0:
320,192,84442,1,0,0:0:0:0:
64,192,84518,1,0,0:0:0:40:snare.wav
192,192,84518,1,0,0:0:0:0:
448,192,84518,1,0,0:0:0:0:
320,192,84594,1,0,0:0:0:0:
192,192,84669,1,0,0:0:0:0:
448,192,84745,1,0,0:0:0:0:
64,192,84821,1,0,0:0:0:50:drum.wav
192,192,84821,1,0,0:0:0:0:
320,192,84821,1,0,0:0:0:0:
448,192,84897,1,0,0:0:0:0:
320,192,84972,1,0,0:0:0:0:
192,192,85048,1,0,0:0:0:0:
64,192,85124,1,0,0:0:0:40:snare.wav
320,192,85124,1,0,0:0:0:0:
448,192,85124,1,0,0:0:0:0:
192,192,85200,1,0,0:0:0:0:
64,192,85275,1,0,0:0:0:0:
448,192,85275,1,0,0:0:0:0:
320,192,85351,1,0,0:0:0:0:
192,192,85427,1,0,0:0:0:50:drum.wav
448,192,85427,1,0,0:0:0:0:
64,192,85503,1,0,0:0:0:0:
320,192,85578,1,0,0:0:0:0:
192,192,85654,1,0,0:0:0:0:
64,192,85730,1,0,0:0:0:40:snare.wav
320,192,85730,1,0,0:0:0:0:
448,192,85730,1,0,0:0:0:0:
192,192,85806,1,0,0:0:0:0:
448,192,85881,1,0,0:0:0:40:snare.wav
320,192,85957,1,0,0:0:0:0:
64,192,86033,1,0,0:0:0:50:drum.wav
192,192,86033,1,0,0:0:0:0:
448,192,86033,1,0,0:0:0:0:
320,192,86109,1,0,0:0:0:0:
192,192,86184,1,0,0:0:0:0:
448,192,86260,1,0,0:0:0:0:
64,192,86336,1,0,0:0:0:40:snare.wav
192,192,86336,1,0,0:0:0:0:
320,192,86336,1,0,0:0:0:0:
448,192,86412,1,0,0:0:0:0:
64,192,86488,1,0,0:0:0:0:
192,192,86563,1,0,0:0:0:0:
64,192,86639,1,0,0:0:0:50:drum.wav
320,192,86639,1,0,0:0:0:0:
448,192,86639,1,0,0:0:0:0:
192,192,86715,1,0,0:0:0:0:
320,192,86791,1,0,0:0:0:0:
448,192,86866,1,0,0:0:0:0:
64,192,86942,1,0,0:0:0:40:snare.wav
192,192,86942,1,0,0:0:0:0:
320,192,86942,1,0,0:0:0:0:
448,192,87018,1,0,0:0:0:0:
192,192,87094,1,0,0:0:0:0:
320,192,87169,1,0,0:0:0:0:
64,192,87245,1,0,0:0:0:0:
192,192,87245,1,0,0:0:0:0:
320,192,87321,1,0,0:0:0:0:
448,192,87321,1,0,0:0:0:0:
64,192,87397,1,0,0:0:0:0:
192,192,87397,1,0,0:0:0:0:
448,192,87472,1,0,0:0:0:0:
192,192,87548,1,0,0:0:0:0:
320,192,87548,1,0,0:0:0:0:
64,192,87624,1,0,0:0:0:0:
320,192,87700,1,0,0:0:0:0:
448,192,87700,1,0,0:0:0:0:
64,192,87775,1,0,0:0:0:0:
192,192,87775,1,0,0:0:0:0:
320,192,87851,1,0,0:0:0:0:
448,192,87851,1,0,0:0:0:0:
64,192,87927,1,0,0:0:0:0:
192,192,88003,1,0,0:0:0:0:
320,192,88003,1,0,0:0:0:0:
448,192,88078,1,0,0:0:0:0:
64,192,88154,1,0,0:0:0:0:
192,192,88154,1,0,0:0:0:0:
320,192,88230,1,0,0:0:0:0:
64,192,88306,1,0,0:0:0:0:
320,192,88381,1,0,0:0:0:0:
64,192,88457,128,0,88760:0:0:0:50:drum.wav
192,192,88457,1,0,0:0:0:40:cymbal.wav
448,192,88457,1,0,0:0:0:0:
320,192,88533,1,0,0:0:0:0:
448,192,88609,1,0,0:0:0:0:
192,192,88684,1,0,0:0:0:0:
320,192,88760,1,0,0:0:0:40:snare.wav
448,192,88760,1,0,0:0:0:0:
192,192,88836,1,0,0:0:0:0:
64,192,88912,1,0,0:0:0:0:
448,192,88988,1,0,0:0:0:0:
192,192,89063,128,0,89366:0:0:0:50:drum.wav
320,192,89063,1,0,0:0:0:0:
64,192,89139,1,0,0:0:0:0:
448,192,89215,1,0,0:0:0:0:
320,192,89291,1,0,0:0:0:0:
64,192,89366,1,0,0:0:0:40:snare.wav
448,192,89366,1,0,0:0:0:0:
192,192,89442,1,0,0:0:0:0:
320,192,89518,1,0,0:0:0:0:
192,192,89594,1,0,0:0:0:0:
320,192,89669,128,0,89972:0:0:0:50:drum.wav
448,192,89669,1,0,0:0:0:0:
192,192,89745,1,0,0:0:0:0:
64,192,89821,1,0,0:0:0:0:
448,192,89897,1,0,0:0:0:0:
64,192,89972,1,0,0:0:0:40:snare.wav
192,192,89972,1,0,0:0:0:0:
448,192,90048,1,0,0:0:0:0:
192,192,90124,1,0,0:0:0:0:
320,192,90200,1,0,0:0:0:0:
64,192,90275,1,0,0:0:0:50:drum.wav
448,192,90275,128,0,90578:0:0:0:0:
192,192,90351,1,0,0:0:0:0:
320,192,90427,1,0,0:0:0:0:
64,192,90503,1,0,0:0:0:0:
192,192,90578,1,0,0:0:0:40:snare.wav
320,192,90578,1,0,0:0:0:0:
64,192,90654,1,0,0:0:0:0:
192,192,90730,1,0,0:0:0:0:
320,192,90806,1,0,0:0:0:0:
64,192,90881,128,0,92094:0:0:0:50:drum.wav
448,192,90881,1,0,0:0:0:0:
320,192,90957,1,0,0:0:0:0:
192,192,91033,1,0,0:0:0:0:
448,192,91109,1,0,0:0:0:0:
192,192,91184,1,0,0:0:0:40:snare.wav
320,192,91184,1,0,0:0:0:0:
448,192,91260,1,0,0:0:0:0:
192,192,91336,1,0,0:0:0:0:
320,192,91412,1,0,0:0:0:0:
192,192,91488,1,0,0:0:0:50:drum.wav
448,192,91488,1,0,0:0:0:0:
320,192,91563,1,0,0:0:0:0:
448,192,91639,1,0,0:0:0:0:
192,192,91715,1,0,0:0:0:0:
320,192,91791,1,0,0:0:0:40:snare.wav
448,192,91791,1,0,0:0:0:0:
192,192,91866,1,0,0:0:0:0:
320,192,91942,1,0,0:0:0:0:
192,192,92018,1,0,0:0:0:0:
320,192,92094,1,0,0:0:0:50:drum.wav
448,192,92094,128,0,92397:0:0:0:0:
192,192,92169,1,0,0:0:0:0:
64,192,92245,1,0,0:0:0:0:
320,192,92321,1,0,0:0:0:0:
64,192,92397,1,0,0:0:0:40:snare.wav
192,192,92397,1,0,0:0:0:0:
320,192,92472,1,0,0:0:0:0:
448,192,92548,1,0,0:0:0:0:
192,192,92624,1,0,0:0:0:0:
320,192,92700,128,0,93003:0:0:0:50:drum.wav
448,192,92700,1,0,0:0:0:0:
192,192,92775,1,0,0:0:0:0:
64,192,92851,1,0,0:0:0:0:
448,192,92927,1,0,0:0:0:0:
64,192,93003,1,0,0:0:0:40:snare.wav
192,192,93003,1,0,0:0:0:0:
320,192,93078,1,0,0:0:0:0:
64,192,93154,1,0,0:0:0:40:snare.wav
192,192,93154,1,0,0:0:0:0:
320,192,93230,1,0,0:0:0:0:
192,192,93306,128,0,94518:0:0:0:50:drum.wav
448,192,93306,1,0,0:0:0:40:cymbal.wav
320,192,93381,1,0,0:0:0:0:
64,192,93457,1,0,0:0:0:40:snare.wav
448,192,93533,1,0,0:0:0:0:
64,192,93609,1,0,0:0:0:40:snare.wav
320,192,93609,1,0,0:0:0:0:
448,192,93684,1,0,0:0:0:0:
320,192,93760,1,0,0:0:0:40:snare.wav
64,192,93836,1,0,0:0:0:0:
320,192,93912,1,0,0:0:0:50:drum.wav
448,192,93912,1,0,0:0:0:0:
64,192,93988,1,0,0:0:0:0:
448,192,94063,1,0,0:0:0:40:snare.wav
320,192,94139,1,0,0:0:0:0:
64,192,94215,1,0,0:0:0:40:snare.wav
448,192,94215,1,0,0:0:0:0:
320,192,94291,1,0,0:0:0:40:snare.wav
64,192,94366,1,0,0:0:0:40:snare.wav
320,192,94442,1,0,0:0:0:40:snare.wav
64,192,94518,1,0,0:0:0:50:drum.wav
448,192,94518,1,0,0:0:0:40:cymbal.wav
192,192,94594,1,0,0:0:0:0:
320,192,94669,1,0,0:0:0:40:snare.wav
448,192,94669,1,0,0:0:0:0:
64,192,94745,1,0,0:0:0:0:
192,192,94821,1,0,0:0:0:40:snare.wav
320,192,94821,1,0,0:0:0:0:
448,192,94897,1,0,0:0:0:0:
64,192,94972,1,0,0:0:0:40:snare.wav
192,192,94972,1,0,0:0:0:0:
320,192,95048,1,0,0:0:0:0:
64,192,95124,1,0,0:0:0:50:drum.wav
192,192,95124,1,0,0:0:0:0:
448,192,95124,1,0,0:0:0:0:
320,192,95200,1,0,0:0:0:0:
64,192,95275,1,0,0:0:0:40:snare.wav
192,192,95275,1,0,0:0:0:0:
448,192,95351,1,0,0:0:0:0:
192,192,95427,1,0,0:0:0:40:snare.wav
320,192,95427,1,0,0:0:0:0:
64,192,95503,1,0,0:0:0:0:
320,192,95578,1,0,0:0:0:40:snare.wav
448,192,95578,1,0,0:0:0:0:
192,192,95654,1,0,0:0:0:0:
320,192,95730,1,0,0:0:0:50:drum.wav
448,192,95730,1,0,0:0:0:40:cymbal.wav
64,192,95806,1,0,0:0:0:0:
192,192,95806,1,0,0:0:0:0:
320,192,95881,1,0,0:0:0:40:snare.wav
448,192,95881,1,0,0:0:0:0:
64,192,95957,1,0,0:0:0:40:snare.wav
192,192,95957,1,0,0:0:0:0:
320,192,96033,1,0,0:0:0:50:drum.wav
448,192,96033,1,0,0:0:0:0:
64,192,96109,1,0,0:0:0:0:
192,192,96184,1,0,0:0:0:40:snare.wav
320,192,96184,1,0,0:0:0:0:
448,192,96260,1,0,0:0:0:40:snare.wav
64,192,96336,1,0,0:0:0:50:drum.wav
192,192,96336,1,0,0:0:0:40:cymbal.wav
320,192,96412,1,0,0:0:0:0:
448,192,96412,1,0,0:0:0:0:
64,192,96488,1,0,0:0:0:40:snare.wav
192,192,96488,1,0,0:0:0:0:
320,192,96563,1,0,0:0:0:40:snare.wav
448,192,96563,1,0,0:0:0:0:
64,192,96639,1,0,0:0:0:50:drum.wav
192,192,96639,1,0,0:0:0:0:
448,192,96715,1,0,0:0:0:50:drum.wav
192,192,96791,1,0,0:0:0:40:snare.wav
320,192,96791,1,0,0:0:0:0:
64,192,96866,1,0,0:0:0:40:snare.wav
320,192,96942,1,0,0:0:0:40:snare.wav
448,192,96942,1,0,0:0:0:40:cymbal.wav
64,192,97018,1,0,0:0:0:50:drum.wav
192,192,97018,1,0,0:0:0:0:
320,192,97094,1,0,0:0:0:50:drum.wav
448,192,97094,1,0,0:0:0:0:
192,192,97169,1,0,0:0:0:50:drum.wav
64,192,97245,1,0,0:0:0:40:snare.wav
448,192,97245,1,0,0:0:0:0:
192,192,97321,1,0,0:0:0:50:drum.wav
320,192,97321,1,0,0:0:0:0:
64,192,97397,1,0,0:0:0:50:drum.wav
448,192,97397,1,0,0:0:0:0:
320,192,97472,1,0,0:0:0:50:drum.wav
64,192,97548,1,0,0:0:0:40:snare.wav
192,192,97548,1,0,0:0:0:0:
320,192,97624,1,0,0:0:0:50:drum.wav
448,192,97624,1,0,0:0:0:0:
64,192,97700,1,0,0:0:0:50:drum.wav
192,192,97700,1,0,0:0:0:0:
448,192,97775,1,0,0:0:0:50:drum.wav
192,192,97851,1,0,0:0:0:40:snare.wav
320,192,97851,1,0,0:0:0:0:
64,192,97927,1,0,0:0:0:50:drum.wav
448,192,97927,1,0,0:0:0:0:
192,192,98003,1,0,0:0:0:50:drum.wav
320,192,98003,1,0,0:0:0:0:
64,192,98078,1,0,0:0:0:50:drum.wav
320,192,98154,128,0,98306:0:0:0:50:drum.wav
448,192,98154,128,0,98306:0:0:0:0:
64,192,98306,1,0,0:0:0:0:
192,192,98344,1,0,0:0:0:0:
320,192,98381,1,0,0:0:0:0:
448,192,98419,1,0,0:0:0:0:
192,192,98457,1,0,0:0:0:0:
64,192,98495,1,0,0:0:0:0:
320,192,98533,1,0,0:0:0:0:
448,192,98571,1,0,0:0:0:0:
192,192,98609,1,0,0:0:0:0:
64,192,98647,1,0,0:0:0:0:
448,192,98684,1,0,0:0:0:0:
320,192,98722,1,0,0:0:0:0:
64,192,98760,128,0,98912:0:0:0:40:snare.wav
192,192,98760,128,0,98912:0:0:0:40:cymbal.wav
448,192,98912,1,0,0:0:0:0:
320,192,98988,1,0,0:0:0:0:
192,192,99063,1,0,0:0:0:0:
320,192,99101,1,0,0:0:0:0:
448,192,99139,1,0,0:0:0:0:
64,192,99215,1,0,0:0:0:0:
192,192,99253,1,0,0:0:0:0:
320,192,99291,1,0,0:0:0:0:
64,192,99366,1,0,0:0:0:50:drum.wav
448,192,99366,128,0,99669:0:0:0:0:
320,192,99518,128,0,99669:0:0:0:0:
192,192,99669,1,0,0:0:0:0:
320,192,99745,1,0,0:0:0:0:
64,192,99821,1,0,0:0:0:0:
448,192,99821,128,0,99972:0:0:0:0:
64,192,99972,128,0,100124:0:0:0:40:snare.wav
192,192,99972,128,0,100124:0:0:0:0:
320,192,99972,1,0,0:0:0:0:
448,192,100124,1,0,0:0:0:0:
320,192,100162,1,0,0:0:0:0:
192,192,100200,1,0,0:0:0:0:
64,192,100238,1,0,0:0:0:0:
320,192,100275,1,0,0:0:0:0:
448,192,100313,1,0,0:0:0:0:
192,192,100351,1,0,0:0:0:0:
64,192,100389,1,0,0:0:0:0:
320,192,100427,1,0,0:0:0:0:
448,192,100465,1,0,0:0:0:0:
64,192,100503,1,0,0:0:0:0:
192,192,100541,1,0,0:0:0:0:
320,192,100578,128,0,100806:0:0:0:50:drum.wav
448,192,100578,128,0,100806:0:0:0:0:
320,192,100881,128,0,100957:0:0:0:0:
448,192,100881,128,0,100957:0:0:0:0:
192,192,101033,128,0,101109:0:0:0:0:
320,192,101033,128,0,101109:0:0:0:0:
64,192,101184,128,0,101715:0:0:0:40:snare.wav
192,192,101184,128,0,101260:0:0:0:0:
448,192,101184,128,0,101260:0:0:0:0:
320,192,101336,128,0,101412:0:0:0:0:
448,192,101336,128,0,101412:0:0:0:0:
192,192,101488,128,0,101563:0:0:0:0:
320,192,101563,128,0,101639:0:0:0:0:
192,192,101639,128,0,101715:0:0:0:0:
64,192,101791,128,0,101942:0:0:0:50:drum.wav
192,192,101791,128,0,101942:0:0:0:0:
448,192,101942,1,0,0:0:0:0:
320,192,101980,1,0,0:0:0:0:
192,192,102018,1,0,0:0:0:0:
64,192,102056,1,0,0:0:0:0:
448,192,102094,1,0,0:0:0:0:
320,192,102131,1,0,0:0:0:0:
64,192,102169,1,0,0:0:0:0:
192,192,102207,1,0,0:0:0:0:
320,192,102245,1,0,0:0:0:0:
448,192,102283,1,0,0:0:0:0:
64,192,102321,1,0,0:0:0:0:
192,192,102359,1,0,0:0:0:0:
320,192,102397,128,0,102548:0:0:0:40:snare.wav
448,192,102397,128,0,102548:0:0:0:0:
64,192,102548,1,0,0:0:0:0:
192,192,102586,1,0,0:0:0:0:
320,192,102624,1,0,0:0:0:0:
448,192,102662,1,0,0:0:0:0:
64,192,102700,1,0,0:0:0:0:
192,192,102738,1,0,0:0:0:0:
448,192,102775,1,0,0:0:0:0:
320,192,102813,1,0,0:0:0:0:
192,192,102851,1,0,0:0:0:0:
64,192,102889,1,0,0:0:0:0:
448,192,102927,1,0,0:0:0:0:
320,192,102965,1,0,0:0:0:0:
64,192,103003,128,0,103306:0:0:0:50:drum.wav
192,192,103003,1,0,0:0:0:0:
192,192,103154,128,0,103306:0:0:0:0:
320,192,103306,1,0,0:0:0:0:
192,192,103381,1,0,0:0:0:0:
448,192,103457,1,0,0:0:0:0:
320,192,103495,1,0,0:0:0:0:
192,192,103533,1,0,0:0:0:0:
64,192,103571,1,0,0:0:0:0:
320,192,103609,128,0,103760:0:0:0:40:snare.wav
448,192,103609,128,0,103760:0:0:0:0:
192,192,103760,128,0,103836:0:0:0:0:
320,192,103836,128,0,103912:0:0:0:0:
64,192,103912,1,0,0:0:0:0:
192,192,103950,1,0,0:0:0:0:
320,192,103988,1,0,0:0:0:0:
448,192,104025,1,0,0:0:0:0:
64,192,104063,1,0,0:0:0:0:
192,192,104101,1,0,0:0:0:0:
448,192,104139,1,0,0:0:0:0:
320,192,104177,1,0,0:0:0:0:
64,192,104215,128,0,104366:0:0:0:50:drum.wav
192,192,104215,128,0,104366:0:0:0:0:
320,192,104366,1,0,0:0:0:0:
448,192,104366,128,0,104518:0:0:0:0:
320,192,104518,128,0,104594:0:0:0:0:
192,192,104594,128,0,104669:0:0:0:0:
448,192,104669,1,0,0:0:0:0:
320,192,104707,1,0,0:0:0:0:
192,192,104745,1,0,0:0:0:0:
64,192,104783,1,0,0:0:0:0:
320,192,104821,128,0,104897:0:0:0:40:snare.wav
448,192,104821,1,0,0:0:0:0:
192,192,104897,128,0,104972:0:0:0:0:
320,192,104972,128,0,105048:0:0:0:0:
192,192,105048,128,0,105124:0:0:0:0:
448,192,105124,128,0,105200:0:0:0:0:
192,192,105200,128,0,105275:0:0:0:0:
448,192,105275,128,0,105351:0:0:0:0:
192,192,105351,128,0,105427:0:0:0:0:
64,192,105427,1,0,0:0:0:50:drum.wav
320,192,105427,128,0,105730:0:0:0:0:
448,192,105427,128,0,105730:0:0:0:0:
192,192,105730,128,0,105831:0:0:0:0:
320,192,105831,128,0,105932:0:0:0:0:
192,192,105932,128,0,106033:0:0:0:0:
64,192,106033,1,0,0:0:0:40:snare.wav
320,192,106033,1,0,0:0:0:0:
448,192,106033,1,0,0:0:0:0:
192,192,106134,128,0,106235:0:0:0:0:
320,192,106235,128,0,106336:0:0:0:0:
192,192,106336,128,0,106437:0:0:0:0:
320,192,106437,128,0,106538:0:0:0:0:
192,192,106538,128,0,106639:0:0:0:0:
64,192,106639,1,0,0:0:0:50:drum.wav
320,192,106639,1,0,0:0:0:0:
448,192,106639,1,0,0:0:0:0:
64,192,106791,128,0,107245:0:0:0:0:
448,192,106791,128,0,107245:0:0:0:0:
320,192,107245,128,0,107775:0:0:0:0:
64,192,107397,128,0,107775:0:0:0:0:
448,192,107397,128,0,107775:0:0:0:0:
64,192,107851,128,0,108003:0:0:0:40:snare.wav
320,192,107851,1,0,0:0:0:40:cymbal.wav
448,192,107851,1,0,0:0:0:0:
192,192,108003,1,0,0:0:0:0:
320,192,108078,1,0,0:0:0:0:
64,192,108154,1,0,0:0:0:40:snare.wav
192,192,108154,1,0,0:0:0:0:
448,192,108154,128,0,108306:0:0:0:0:
320,192,108306,1,0,0:0:0:0:
192,192,108381,1,0,0:0:0:0:
64,192,108457,128,0,108609:0:0:0:40:snare.wav
320,192,108457,1,0,0:0:0:0:
448,192,108457,1,0,0:0:0:0:
448,192,108609,1,0,0:0:0:0:
192,192,108684,128,0,108836:0:0:0:0:
64,192,108760,1,0,0:0:0:40:snare.wav
320,192,108760,1,0,0:0:0:0:
448,192,108760,1,0,0:0:0:0:
320,192,108912,128,0,109063:0:0:0:0:
192,192,108988,1,0,0:0:0:0:
64,192,109063,1,0,0:0:0:40:snare.wav
448,192,109063,128,0,109215:0:0:0:0:
192,192,109215,1,0,0:0:0:0:
320,192,109291,1,0,0:0:0:0:
64,192,109366,128,0,109518:0:0:0:40:snare.wav
192,192,109366,1,0,0:0:0:0:
448,192,109366,1,0,0:0:0:0:
320,192,109518,1,0,0:0:0:0:
192,192,109594,1,0,0:0:0:0:
320,192,109669,1,0,0:0:0:0:
448,192,109720,1,0,0:0:0:0:
192,192,109770,1,0,0:0:0:0:
64,192,109821,1,0,0:0:0:0:
320,192,109871,1,0,0:0:0:0:
448,192,109922,1,0,0:0:0:0:
192,192,109972,1,0,0:0:0:0:
320,192,110048,1,0,0:0:0:0:
192,192,110124,1,0,0:0:0:0:
320,192,110200,1,0,0:0:0:0:
64,192,110275,1,0,0:0:0:40:snare.wav
192,192,110275,1,0,0:0:0:40:cymbal.wav
448,192,110275,128,0,110427:0:0:0:0:
320,192,110427,1,0,0:0:0:0:
192,192,110503,1,0,0:0:0:0:
64,192,110578,128,0,110730:0:0:0:40:snare.wav
320,192,110578,1,0,0:0:0:0:
448,192,110578,1,0,0:0:0:0:
192,192,110730,1,0,0:0:0:0:
320,192,110806,1,0,0:0:0:0:
64,192,110881,1,0,0:0:0:40:snare.wav
192,192,110881,1,0,0:0:0:0:
448,192,110881,128,0,111033:0:0:0:0:
64,192,111033,1,0,0:0:0:0:
320,192,111109,128,0,111260:0:0:0:0:
64,192,111184,1,0,0:0:0:40:snare.wav
192,192,111184,1,0,0:0:0:0:
448,192,111184,1,0,0:0:0:0:
192,192,111336,128,0,111488:0:0:0:0:
320,192,111412,1,0,0:0:0:0:
64,192,111488,128,0,111639:0:0:0:40:snare.wav
448,192,111488,1,0,0:0:0:0:
320,192,111639,1,0,0:0:0:0:
192,192,111715,1,0,0:0:0:0:
64,192,111791,1,0,0:0:0:40:snare.wav
320,192,111791,1,0,0:0:0:0:
448,192,111791,128,0,111942:0:0:0:0:
192,192,111942,1,0,0:0:0:0:
320,192,112018,1,0,0:0:0:0:
64,192,112094,1,0,0:0:0:0:
448,192,112169,1,0,0:0:0:0:
320,192,112207,1,0,0:0:0:0:
192,192,112245,1,0,0:0:0:0:
448,192,112321,1,0,0:0:0:0:
64,192,112397,1,0,0:0:0:0:
320,192,112472,1,0,0:0:0:0:
448,192,112548,1,0,0:0:0:0:
192,192,112624,1,0,0:0:0:0:
64,192,112700,1,0,0:0:0:40:snare.wav
320,192,112700,128,0,112851:0:0:0:0:
448,192,112700,128,0,112851:0:0:0:0:
64,192,112851,1,0,0:0:0:50:drum.wav
192,192,112851,1,0,0:0:0:0:
320,192,112927,1,0,0:0:0:0:
64,192,113003,1,0,0:0:0:40:snare.wav
448,192,113003,1,0,0:0:0:0:
192,192,113078,1,0,0:0:0:40:snare.wav
320,192,113078,1,0,0:0:0:0:
64,192,113154,1,0,0:0:0:50:drum.wav
448,192,113154,1,0,0:0:0:0:
64,192,113306,128,0,113457:0:0:0:40:snare.wav
192,192,113306,128,0,113457:0:0:0:0:
320,192,113306,1,0,0:0:0:0:
320,192,113457,1,0,0:0:0:50:drum.wav
448,192,113457,1,0,0:0:0:0:
192,192,113533,1,0,0:0:0:0:
64,192,113609,1,0,0:0:0:40:snare.wav
448,192,113609,1,0,0:0:0:0:
192,192,113684,1,0,0:0:0:40:snare.wav
320,192,113684,1,0,0:0:0:0:
64,192,113760,1,0,0:0:0:50:drum.wav
448,192,113760,1,0,0:0:0:0:
192,192,113912,128,0,114063:0:0:0:40:snare.wav
320,192,113912,1,0,0:0:0:40:cymbal.wav
448,192,113912,128,0,114063:0:0:0:0:
64,192,114063,1,0,0:0:0:50:drum.wav
320,192,114063,1,0,0:0:0:0:
192,192,114139,1,0,0:0:0:0:
64,192,114215,1,0,0:0:0:40:snare.wav
448,192,114215,1,0,0:0:0:0:
192,192,114291,1,0,0:0:0:40:snare.wav
320,192,114291,1,0,0:0:0:0:
64,192,114366,1,0,0:0:0:50:drum.wav
448,192,114366,1,0,0:0:0:0:
64,192,114518,128,0,114669:0:0:0:40:snare.wav
192,192,114518,1,0,0:0:0:0:
320,192,114518,128,0,114669:0:0:0:0:
192,192,114669,1,0,0:0:0:50:drum.wav
448,192,114669,1,0,0:0:0:0:
320,192,114745,1,0,0:0:0:0:
64,192,114821,1,0,0:0:0:40:snare.wav
448,192,114821,1,0,0:0:0:0:
192,192,114897,1,0,0:0:0:40:snare.wav
320,192,114897,1,0,0:0:0:0:
64,192,114972,1,0,0:0:0:50:drum.wav
448,192,114972,1,0,0:0:0:0:
64,192,115124,1,0,0:0:0:40:snare.wav
192,192,115124,1,0,0:0:0:40:cymbal.wav
448,192,115124,1,0,0:0:0:0:
320,192,115200,1,0,0:0:0:50:drum.wav
64,192,115275,1,0,0:0:0:40:snare.wav
192,192,115275,1,0,0:0:0:0:
448,192,115351,1,0,0:0:0:50:drum.wav
192,192,115427,1,0,0:0:0:40:snare.wav
320,192,115427,1,0,0:0:0:0:
64,192,115503,1,0,0:0:0:50:drum.wav
320,192,115578,1,0,0:0:0:40:snare.wav
448,192,115578,1,0,0:0:0:0:
192,192,115654,1,0,0:0:0:50:drum.wav
320,192,115730,1,0,0:0:0:40:snare.wav
448,192,115730,1,0,0:0:0:0:
64,192,115806,1,0,0:0:0:50:drum.wav
192,192,115881,1,0,0:0:0:40:snare.wav
320,192,115881,1,0,0:0:0:0:
448,192,115957,1,0,0:0:0:50:drum.wav
64,192,116033,1,0,0:0:0:40:snare.wav
192,192,116033,1,0,0:0:0:0:
320,192,116109,1,0,0:0:0:50:drum.wav
64,192,116184,1,0,0:0:0:40:snare.wav
448,192,116184,1,0,0:0:0:0:
192,192,116260,1,0,0:0:0:50:drum.wav
320,192,116336,1,0,0:0:0:40:snare.wav
448,192,116336,1,0,0:0:0:0:
64,192,116412,1,0,0:0:0:40:snare.wav
192,192,116412,1,0,0:0:0:0:
320,192,116488,1,0,0:0:0:40:snare.wav
448,192,116488,1,0,0:0:0:0:
64,192,116563,1,0,0:0:0:40:snare.wav
192,192,116563,1,0,0:0:0:0:
320,192,116639,1,0,0:0:0:40:snare.wav
448,192,116639,1,0,0:0:0:0:
64,192,116715,1,0,0:0:0:40:snare.wav
192,192,116715,1,0,0:0:0:0:
320,192,116791,1,0,0:0:0:40:snare.wav
448,192,116791,1,0,0:0:0:0:
64,192,116866,1,0,0:0:0:40:snare.wav
192,192,116866,1,0,0:0:0:0:
448,192,116942,1,0,0:0:0:40:snare.wav
320,192,116980,1,0,0:0:0:40:snare.wav
192,192,117018,1,0,0:0:0:40:snare.wav
64,192,117056,1,0,0:0:0:40:snare.wav
448,192,117094,1,0,0:0:0:40:snare.wav
320,192,117131,1,0,0:0:0:40:snare.wav
192,192,117169,1,0,0:0:0:40:snare.wav
64,192,117207,1,0,0:0:0:40:snare.wav
448,192,117245,1,0,0:0:0:40:snare.wav
320,192,117283,1,0,0:0:0:40:snare.wav
192,192,117321,1,0,0:0:0:40:snare.wav
64,192,117359,1,0,0:0:0:40:snare.wav
448,192,117397,1,0,0:0:0:40:snare.wav
320,192,117434,1,0,0:0:0:40:snare.wav
192,192,117472,1,0,0:0:0:40:snare.wav
64,192,117510,1,0,0:0:0:40:snare.wav
320,192,117548,1,0,0:0:0:50:drum.wav
448,192,117548,1,0,0:0:0:40:cymbal.wav
64,192,118760,128,0,118912:0:0:0:0:
192,192,118836,128,0,118988:0:0:0:0:
320,192,118912,128,0,119063:0:0:0:0:
448,192,118988,128,0,119139:0:0:0:0:
192,192,119063,128,0,119215:0:0:0:0:
64,192,119139,128,0,119291:0:0:0:0:
320,192,119215,128,0,119366:0:0:0:0:
192,192,119291,128,0,119442:0:0:0:0:
448,192,119366,128,0,119518:0:0:0:0:
320,192,119442,128,0,119594:0:0:0:0:
192,192,119518,128,0,119669:0:0:0:0:
64,192,119594,128,0,119745:0:0:0:0:
320,192,119669,128,0,119821:0:0:0:0:
448,192,119669,1,0,0:0:0:0:
192,192,119745,128,0,119897:0:0:0:0:
448,192,119821,128,0,119972:0:0:0:0:
320,192,119897,128,0,119972:0:0:0:0:
64,192,119972,128,0,120124:0:0:0:50:drum.wav
192,192,119972,1,0,0:0:0:40:cymbal.wav
320,192,120124,1,0,0:0:0:0:
192,192,120200,1,0,0:0:0:0:
64,192,120275,1,0,0:0:0:40:snare.wav
320,192,120275,1,0,0:0:0:0:
448,192,120275,128,0,120427:0:0:0:0:
192,192,120427,1,0,0:0:0:0:
320,192,120503,1,0,0:0:0:0:
64,192,120578,128,0,120730:0:0:0:50:drum.wav
192,192,120578,1,0,0:0:0:0:
448,192,120578,1,0,0:0:0:0:
320,192,120730,1,0,0:0:0:0:
64,192,120806,1,0,0:0:0:50:drum.wav
192,192,120806,128,0,120957:0:0:0:0:
448,192,120806,1,0,0:0:0:0:
448,192,120957,1,0,0:0:0:0:
64,192,121033,1,0,0:0:0:50:drum.wav
192,192,121033,1,0,0:0:0:0:
320,192,121033,128,0,121184:0:0:0:0:
64,192,121184,1,0,0:0:0:50:drum.wav
448,192,121184,128,0,121336:0:0:0:0:
192,192,121336,1,0,0:0:0:0:
320,192,121412,1,0,0:0:0:0:
64,192,121488,128,0,121639:0:0:0:40:snare.wav
192,192,121488,1,0,0:0:0:0:
448,192,121488,1,0,0:0:0:0:
320,192,121639,1,0,0:0:0:0:
192,192,121715,1,0,0:0:0:0:
64,192,121791,1,0,0:0:0:50:drum.wav
320,192,121791,1,0,0:0:0:0:
448,192,121791,128,0,121942:0:0:0:0:
192,192,121942,1,0,0:0:0:0:
64,192,122018,1,0,0:0:0:50:drum.wav
320,192,122018,128,0,122169:0:0:0:0:
448,192,122018,1,0,0:0:0:0:
64,192,122169,1,0,0:0:0:0:
192,192,122245,128,0,122397:0:0:0:50:drum.wav
320,192,122245,1,0,0:0:0:0:
448,192,122245,1,0,0:0:0:0:
64,192,122397,1,0,0:0:0:50:drum.wav
320,192,122397,1,0,0:0:0:0:
448,192,122397,128,0,122548:0:0:0:0:
192,192,122548,1,0,0:0:0:0:
64,192,122624,1,0,0:0:0:50:drum.wav
320,192,122624,128,0,122775:0:0:0:0:
448,192,122624,1,0,0:0:0:0:
64,192,122775,1,0,0:0:0:0:
192,192,122851,128,0,123003:0:0:0:50:drum.wav
448,192,122851,1,0,0:0:0:0:
320,192,122927,1,0,0:0:0:0:
64,192,123003,128,0,123154:0:0:0:50:drum.wav
448,192,123003,1,0,0:0:0:0:
320,192,123154,1,0,0:0:0:0:
64,192,123230,1,0,0:0:0:50:drum.wav
192,192,123230,128,0,123381:0:0:0:0:
448,192,123230,1,0,0:0:0:0:
448,192,123381,1,0,0:0:0:0:
64,192,123457,1,0,0:0:0:50:drum.wav
192,192,123457,1,0,0:0:0:0:
320,192,123457,128,0,123609:0:0:0:0:
192,192,123609,1,0,0:0:0:50:drum.wav
448,192,123609,128,0,123760:0:0:0:0:
64,192,123760,1,0,0:0:0:50:drum.wav
320,192,123760,128,0,123912:0:0:0:0:
192,192,123836,1,0,0:0:0:0:
64,192,123912,1,0,0:0:0:50:drum.wav
448,192,123912,128,0,124215:0:0:0:0:
192,192,124063,1,0,0:0:0:50:drum.wav
320,192,124063,128,0,124215:0:0:0:0:
64,192,124215,128,0,124366:0:0:0:50:drum.wav
192,192,124291,128,0,124442:0:0:0:0:
320,192,124366,128,0,124518:0:0:0:0:
448,192,124442,128,0,124594:0:0:0:0:
192,192,124518,128,0,124669:0:0:0:0:
64,192,124594,128,0,124745:0:0:0:0:
320,192,124669,128,0,124821:0:0:0:0:
192,192,124745,128,0,124821:0:0:0:0:
64,192,124821,1,0,0:0:0:50:drum.wav
448,192,124821,128,0,124972:0:0:0:0:
192,192,124972,1,0,0:0:0:0:
320,192,125048,1,0,0:0:0:0:
64,192,125124,128,0,125275:0:0:0:40:snare.wav
192,192,125124,1,0,0:0:0:0:
448,192,125124,1,0,0:0:0:0:
320,192,125200,1,0,0:0:0:0:
192,192,125275,128,0,125427:0:0:0:0:
448,192,125351,1,0,0:0:0:0:
64,192,125427,1,0,0:0:0:50:drum.wav
320,192,125427,128,0,125730:0:0:0:0:
192,192,125578,128,0,125730:0:0:0:0:
64,192,125730,1,0,0:0:0:40:snare.wav
448,192,125730,128,0,126033:0:0:0:0:
192,192,125806,1,0,0:0:0:0:
64,192,125881,1,0,0:0:0:0:
320,192,125881,128,0,126033:0:0:0:0:
64,192,126033,1,0,0:0:0:50:drum.wav
192,192,126033,128,0,126184:0:0:0:0:
448,192,126109,1,0,0:0:0:0:
320,192,126184,128,0,126336:0:0:0:0:
192,192,126260,1,0,0:0:0:0:
64,192,126336,1,0,0:0:0:40:snare.wav
448,192,126336,1,0,0:0:0:0:
320,192,126412,1,0,0:0:0:0:
192,192,126488,128,0,126639:0:0:0:0:
64,192,126639,1,0,0:0:0:50:drum.wav
320,192,126639,1,0,0:0:0:0:
448,192,126639,1,0,0:0:0:0:
192,192,126715,1,0,0:0:0:0:
320,192,126791,128,0,126942:0:0:0:0:
64,192,126942,1,0,0:0:0:40:snare.wav
192,192,126942,1,0,0:0:0:0:
448,192,126942,128,0,127018:0:0:0:0:
320,192,127018,128,0,127094:0:0:0:0:
192,192,127094,128,0,127169:0:0:0:0:
64,192,127169,128,0,127245:0:0:0:0:
192,192,127245,1,0,0:0:0:50:drum.wav
448,192,127245,128,0,127397:0:0:0:0:
320,192,127321,128,0,127472:0:0:0:0:
192,192,127397,128,0,127548:0:0:0:0:
64,192,127472,128,0,127624:0:0:0:0:
320,192,127548,128,0,127700:0:0:0:40:snare.wav
448,192,127548,1,0,0:0:0:0:
192,192,127624,128,0,127775:0:0:0:0:
448,192,127700,128,0,127851:0:0:0:0:
320,192,127775,128,0,127927:0:0:0:0:
64,192,127851,1,0,0:0:0:50:drum.wav
192,192,127851,128,0,128003:0:0:0:0:
448,192,127927,128,0,128078:0:0:0:0:
64,192,128003,128,0,128154:0:0:0:0:
192,192,128078,128,0,128230:0:0:0:0:
320,192,128154,128,0,128306:0:0:0:40:snare.wav
448,192,128154,1,0,0:0:0:0:
64,192,128230,128,0,128381:0:0:0:0:
192,192,128306,128,0,128457:0:0:0:0:
320,192,128381,128,0,128457:0:0:0:0:
64,192,128457,1,0,0:0:0:50:drum.wav
448,192,128457,128,0,128912:0:0:0:0:
192,192,128609,1,0,0:0:0:0:
320,192,128684,1,0,0:0:0:0:
64,192,128760,1,0,0:0:0:40:snare.wav
192,192,128760,1,0,0:0:0:0:
64,192,128912,1,0,0:0:0:50:drum.wav
320,192,128912,1,0,0:0:0:0:
192,192,128988,1,0,0:0:0:0:
64,192,129063,128,0,129594:0:0:0:50:drum.wav
320,192,129063,1,0,0:0:0:0:
448,192,129063,1,0,0:0:0:0:
192,192,129215,1,0,0:0:0:50:drum.wav
448,192,129215,1,0,0:0:0:0:
192,192,129366,128,0,129594:0:0:0:50:drum.wav
320,192,129366,1,0,0:0:0:0:
448,192,129518,1,0,0:0:0:50:drum.wav
320,192,129594,1,0,0:0:0:0:
64,192,129669,1,0,0:0:0:50:drum.wav
192,192,129669,1,0,0:0:0:40:cymbal.wav
448,192,129669,1,0,0:0:0:0:
320,192,129821,1,0,0:0:0:50:drum.wav
64,192,129897,1,0,0:0:0:50:drum.wav
192,192,129897,1,0,0:0:0:0:
320,192,129972,1,0,0:0:0:40:snare.wav
448,192,129972,1,0,0:0:0:0:
192,192,130124,1,0,0:0:0:50:drum.wav
320,192,130200,1,0,0:0:0:50:drum.wav
448,192,130200,1,0,0:0:0:0:
64,192,130275,1,0,0:0:0:40:snare.wav
192,192,130275,1,0,0:0:0:0:
64,192,130427,1,0,0:0:0:50:drum.wav
320,192,130427,1,0,0:0:0:0:
192,192,130503,1,0,0:0:0:40:snare.wav
448,192,130503,1,0,0:0:0:0:
320,192,130578,1,0,0:0:0:0:
64,192,130654,1,0,0:0:0:50:drum.wav
192,192,130654,1,0,0:0:0:0:
320,192,130730,1,0,0:0:0:40:snare.wav
448,192,130730,1,0,0:0:0:0:
64,192,130806,1,0,0:0:0:0:
192,192,130881,128,0,131033:0:0:0:50:drum.wav
320,192,130881,1,0,0:0:0:40:cymbal.wav
448,192,130881,1,0,0:0:0:0:
64,192,131033,1,0,0:0:0:0:
192,192,131109,1,0,0:0:0:50:drum.wav
320,192,131109,128,0,131260:0:0:0:40:cymbal.wav
448,192,131109,1,0,0:0:0:0:
192,192,131260,1,0,0:0:0:0:
64,192,131336,1,0,0:0:0:50:drum.wav
320,192,131336,1,0,0:0:0:40:cymbal.wav
448,192,131336,128,0,131488:0:0:0:0:
64,192,131488,128,0,131639:0:0:0:50:drum.wav
192,192,131488,1,0,0:0:0:40:cymbal.wav
320,192,131488,1,0,0:0:0:0:
448,192,131639,1,0,0:0:0:0:
64,192,131715,1,0,0:0:0:50:drum.wav
192,192,131715,128,0,131866:0:0:0:40:cymbal.wav
320,192,131715,1,0,0:0:0:0:
64,192,131866,1,0,0:0:0:0:
192,192,131942,1,0,0:0:0:50:drum.wav
320,192,131942,128,0,132094:0:0:0:40:cymbal.wav
448,192,131942,1,0,0:0:0:0:
64,192,132094,128,0,132397:0:0:0:50:drum.wav
192,192,132094,128,0,132397:0:0:0:40:cymbal.wav
448,192,132094,128,0,132397:0:0:0:0:
320,192,132548,1,0,0:0:0:40:snare.wav
448,192,132548,1,0,0:0:0:0:
192,192,132624,1,0,0:0:0:40:snare.wav
64,192,132700,1,0,0:0:0:50:drum.wav
320,192,132700,1,0,0:0:0:0:
448,192,132700,128,0,132851:0:0:0:0:
64,192,132851,1,0,0:0:0:0:
192,192,132927,1,0,0:0:0:50:drum.wav
320,192,132927,128,0,133078:0:0:0:0:
448,192,132927,1,0,0:0:0:0:
448,192,133078,1,0,0:0:0:0:
64,192,133154,1,0,0:0:0:50:drum.wav
192,192,133154,128,0,133306:0:0:0:0:
320,192,133154,1,0,0:0:0:0:
64,192,133306,128,0,133457:0:0:0:40:snare.wav
320,192,133306,1,0,0:0:0:40:cymbal.wav
448,192,133306,1,0,0:0:0:0:
192,192,133457,1,0,0:0:0:0:
64,192,133533,1,0,0:0:0:50:drum.wav
320,192,133533,128,0,133684:0:0:0:0:
448,192,133533,1,0,0:0:0:0:
64,192,133684,1,0,0:0:0:0:
192,192,133760,1,0,0:0:0:50:drum.wav
320,192,133760,1,0,0:0:0:0:
448,192,133760,128,0,133912:0:0:0:0:
64,192,133912,128,0,134063:0:0:0:50:drum.wav
320,192,133912,1,0,0:0:0:0:
192,192,134063,128,0,134215:0:0:0:50:drum.wav
448,192,134063,1,0,0:0:0:0:
64,192,134139,128,0,134291:0:0:0:0:
320,192,134215,128,0,134366:0:0:0:50:drum.wav
448,192,134215,1,0,0:0:0:0:
192,192,134291,128,0,134442:0:0:0:0:
64,192,134366,1,0,0:0:0:50:drum.wav
448,192,134366,128,0,134518:0:0:0:0:
320,192,134442,128,0,134518:0:0:0:0:
64,192,134518,128,0,134669:0:0:0:50:drum.wav
192,192,134518,1,0,0:0:0:40:cymbal.wav
320,192,134669,1,0,0:0:0:0:
192,192,134745,1,0,0:0:0:0:
64,192,134821,1,0,0:0:0:40:snare.wav
320,192,134821,1,0,0:0:0:0:
448,192,134821,128,0,134972:0:0:0:0:
192,192,134897,1,0,0:0:0:0:
320,192,134972,128,0,135124:0:0:0:0:
64,192,135048,1,0,0:0:0:0:
192,192,135124,128,0,135427:0:0:0:50:drum.wav
448,192,135124,1,0,0:0:0:0:
320,192,135275,128,0,135427:0:0:0:0:
64,192,135427,128,0,135730:0:0:0:40:snare.wav
448,192,135427,1,0,0:0:0:0:
320,192,135503,1,0,0:0:0:0:
192,192,135578,128,0,135730:0:0:0:50:drum.wav
448,192,135578,1,0,0:0:0:0:
320,192,135730,128,0,135881:0:0:0:0:
64,192,135881,1,0,0:0:0:50:drum.wav
192,192,135881,128,0,136033:0:0:0:0:
448,192,135881,1,0,0:0:0:0:
320,192,136033,1,0,0:0:0:0:
192,192,136109,1,0,0:0:0:0:
64,192,136184,1,0,0:0:0:40:snare.wav
320,192,136184,128,0,136336:0:0:0:0:
448,192,136184,1,0,0:0:0:0:
192,192,136336,1,0,0:0:0:0:
320,192,136412,1,0,0:0:0:0:
64,192,136488,1,0,0:0:0:50:drum.wav
192,192,136488,128,0,136639:0:0:0:0:
448,192,136488,1,0,0:0:0:0:
64,192,136639,128,0,136715:0:0:0:40:snare.wav
320,192,136639,1,0,0:0:0:0:
192,192,136715,128,0,136791:0:0:0:0:
448,192,136791,128,0,136866:0:0:0:0:
320,192,136866,128,0,136942:0:0:0:0:
64,192,136942,128,0,137018:0:0:0:40:snare.wav
192,192,136942,128,0,137018:0:0:0:40:cymbal.wav
448,192,136942,128,0,137018:0:0:0:0:
320,192,137094,1,0,0:0:0:0:
192,192,137169,1,0,0:0:0:0:
64,192,137245,1,0,0:0:0:50:drum.wav
448,192,137245,1,0,0:0:0:0:
192,192,137321,1,0,0:0:0:0:
64,192,137397,128,0,137472:0:0:0:40:snare.wav
320,192,137397,128,0,137472:0:0:0:0:
448,192,137397,128,0,137472:0:0:0:0:
192,192,137548,1,0,0:0:0:0:
320,192,137624,1,0,0:0:0:0:
64,192,137700,1,0,0:0:0:50:drum.wav
192,192,137700,1,0,0:0:0:0:
448,192,137775,1,0,0:0:0:0:
64,192,137851,128,0,137927:0:0:0:40:snare.wav
192,192,137851,128,0,137927:0:0:0:0:
320,192,137851,128,0,137927:0:0:0:0:
448,192,138003,1,0,0:0:0:0:
320,192,138078,1,0,0:0:0:0:
192,192,138154,1,0,0:0:0:50:drum.wav
448,192,138154,1,0,0:0:0:0:
64,192,138230,1,0,0:0:0:0:
192,192,138306,128,0,138381:0:0:0:40:snare.wav
320,192,138306,128,0,138381:0:0:0:0:
448,192,138306,128,0,138381:0:0:0:0:
64,192,138457,1,0,0:0:0:0:
320,192,138457,1,0,0:0:0:0:
192,192,138533,1,0,0:0:0:0:
320,192,138609,1,0,0:0:0:50:drum.wav
448,192,138609,1,0,0:0:0:0:
320,192,138684,1,0,0:0:0:50:drum.wav
64,192,138760,1,0,0:0:0:40:snare.wav
192,192,138760,1,0,0:0:0:0:
448,192,138760,128,0,138912:0:0:0:0:
192,192,138912,1,0,0:0:0:0:
64,192,138988,1,0,0:0:0:50:drum.wav
320,192,138988,128,0,139139:0:0:0:0:
448,192,138988,1,0,0:0:0:0:
64,192,139139,1,0,0:0:0:0:
192,192,139215,128,0,139366:0:0:0:50:drum.wav
320,192,139215,1,0,0:0:0:0:
448,192,139215,1,0,0:0:0:0:
64,192,139366,1,0,0:0:0:50:drum.wav
320,192,139366,1,0,0:0:0:0:
448,192,139366,1,0,0:0:0:0:
192,192,139442,1,0,0:0:0:0:
320,192,139518,1,0,0:0:0:50:drum.wav
448,192,139518,1,0,0:0:0:0:
64,192,139594,1,0,0:0:0:0:
192,192,139669,1,0,0:0:0:50:drum.wav
320,192,139669,1,0,0:0:0:0:
448,192,139745,1,0,0:0:0:0:
64,192,139821,1,0,0:0:0:50:drum.wav
192,192,139821,1,0,0:0:0:0:
320,192,139897,1,0,0:0:0:0:
64,192,139972,1,0,0:0:0:50:drum.wav
448,192,139972,1,0,0:0:0:0:
320,192,140048,1,0,0:0:0:0:
64,192,140124,1,0,0:0:0:50:drum.wav
192,192,140124,1,0,0:0:0:0:
448,192,140200,1,0,0:0:0:0:
192,192,140275,1,0,0:0:0:50:drum.wav
320,192,140275,1,0,0:0:0:0:
64,192,140351,1,0,0:0:0:0:
320,192,140427,1,0,0:0:0:50:drum.wav
448,192,140427,1,0,0:0:0:0:
192,192,140503,1,0,0:0:0:0:
64,192,140578,1,0,0:0:0:50:drum.wav
448,192,140578,128,0,141184:0:0:0:40:cymbal.wav
320,192,140654,1,0,0:0:0:0:
64,192,140730,1,0,0:0:0:0:
192,192,140806,1,0,0:0:0:0:
320,192,140881,1,0,0:0:0:0:
64,192,140957,1,0,0:0:0:0:
192,192,141033,1,0,0:0:0:0:
320,192,141109,1,0,0:0:0:0:
64,192,141184,1,0,0:0:0:40:snare.wav
192,192,141184,1,0,0:0:0:0:
320,192,141260,1,0,0:0:0:50:drum.wav
448,192,141260,1,0,0:0:0:0:
64,192,141336,1,0,0:0:0:50:drum.wav
192,192,141336,1,0,0:0:0:0:
320,192,141412,1,0,0:0:0:50:drum.wav
448,192,141412,1,0,0:0:0:0:
64,192,141488,1,0,0:0:0:40:snare.wav
192,192,141488,1,0,0:0:0:0:
320,192,141563,1,0,0:0:0:50:drum.wav
448,192,141563,1,0,0:0:0:0:
64,192,141639,1,0,0:0:0:50:drum.wav
192,192,141639,1,0,0:0:0:0:
320,192,141715,1,0,0:0:0:50:drum.wav
64,192,141791,128,0,141942:0:0:0:40:snare.wav
192,192,141791,128,0,141942:0:0:0:40:cymbal.wav
448,192,141791,128,0,141942:0:0:0:0:
320,192,141942,1,0,0:0:0:0:
64,192,142094,128,0,142169:0:0:0:50:drum.wav
320,192,142094,128,0,142169:0:0:0:0:
448,192,142094,128,0,142169:0:0:0:0:
192,192,142245,128,0,142397:0:0:0:40:snare.wav
320,192,142245,128,0,142397:0:0:0:0:
448,192,142245,128,0,142397:0:0:0:0:
64,192,142397,1,0,0:0:0:0:
64,192,142548,128,0,142700:0:0:0:50:drum.wav
192,192,142548,128,0,142700:0:0:0:0:
448,192,142548,128,0,142700:0:0:0:0:
320,192,142700,1,0,0:0:0:0:
64,192,142851,128,0,142927:0:0:0:40:snare.wav
192,192,142851,128,0,142927:0:0:0:0:
320,192,142851,128,0,142927:0:0:0:0:
64,192,143003,128,0,143078:0:0:0:50:drum.wav
448,192,143003,128,0,143078:0:0:0:0:
192,192,143154,128,0,143230:0:0:0:40:snare.wav
320,192,143154,128,0,143230:0:0:0:0:
448,192,143154,128,0,143230:0:0:0:0:
64,192,143306,128,0,143381:0:0:0:50:drum.wav
320,192,143306,128,0,143381:0:0:0:0:
64,192,143457,128,0,143533:0:0:0:40:snare.wav
192,192,143457,128,0,143533:0:0:0:0:
448,192,143457,128,0,143533:0:0:0:0:
64,192,143609,128,0,143684:0:0:0:50:drum.wav
320,192,143609,128,0,143684:0:0:0:0:
448,192,143609,128,0,143684:0:0:0:0:
192,192,143760,128,0,143836:0:0:0:40:snare.wav
320,192,143760,128,0,143836:0:0:0:0:
448,192,143760,128,0,143836:0:0:0:0:
64,192,143912,128,0,143988:0:0:0:50:drum.wav
192,192,143912,128,0,143988:0:0:0:0:
320,192,143912,128,0,143988:0:0:0:0:
64,192,144063,128,0,144139:0:0:0:40:snare.wav
192,192,144063,128,0,144139:0:0:0:0:
448,192,144063,128,0,144139:0:0:0:0:
320,192,144215,128,0,144366:0:0:0:50:drum.wav
448,192,144215,128,0,144366:0:0:0:0:
64,192,144366,128,0,144442:0:0:0:40:snare.wav
192,192,144366,128,0,144442:0:0:0:0:
320,192,144442,128,0,144518:0:0:0:0:
64,192,144518,128,0,144669:0:0:0:50:drum.wav
192,192,144518,128,0,144669:0:0:0:40:cymbal.wav
448,192,144518,128,0,144669:0:0:0:0:
320,192,144669,1,0,0:0:0:0:
64,192,144821,128,0,144897:0:0:0:50:drum.wav
320,192,144821,128,0,144897:0:0:0:0:
448,192,144821,128,0,144897:0:0:0:0:
64,192,144972,128,0,145124:0:0:0:40:snare.wav
192,192,144972,128,0,145124:0:0:0:0:
448,192,144972,128,0,145124:0:0:0:0:
320,192,145124,1,0,0:0:0:0:
64,192,145275,128,0,145427:0:0:0:50:drum.wav
320,192,145275,128,0,145427:0:0:0:0:
448,192,145275,128,0,145427:0:0:0:0:
192,192,145427,1,0,0:0:0:40:cymbal.wav
320,192,145503,1,0,0:0:0:0:
64,192,145578,128,0,145654:0:0:0:50:drum.wav
192,192,145578,128,0,145654:0:0:0:0:
448,192,145578,128,0,145654:0:0:0:0:
320,192,145654,1,0,0:0:0:0:
192,192,145730,1,0,0:0:0:40:snare.wav
64,192,145806,1,0,0:0:0:0:
320,192,145881,128,0,145957:0:0:0:50:drum.wav
448,192,145881,128,0,145957:0:0:0:0:
192,192,145957,1,0,0:0:0:0:
64,192,146033,128,0,146109:0:0:0:40:snare.wav
320,192,146033,128,0,146109:0:0:0:0:
448,192,146033,128,0,146109:0:0:0:0:
64,192,146184,128,0,146260:0:0:0:50:drum.wav
192,192,146184,128,0,146260:0:0:0:0:
448,192,146184,128,0,146260:0:0:0:0:
64,192,146336,128,0,146412:0:0:0:40:snare.wav
320,192,146336,128,0,146412:0:0:0:0:
192,192,146488,128,0,146563:0:0:0:50:drum.wav
320,192,146488,128,0,146563:0:0:0:0:
448,192,146488,128,0,146563:0:0:0:0:
64,192,146639,128,0,146791:0:0:0:40:snare.wav
320,192,146639,128,0,146791:0:0:0:40:cymbal.wav
448,192,146639,128,0,146791:0:0:0:0:
192,192,146791,1,0,0:0:0:0:
64,192,146942,128,0,147018:0:0:0:50:drum.wav
192,192,146942,128,0,147018:0:0:0:0:
448,192,146942,128,0,147018:0:0:0:0:
64,192,147094,128,0,147245:0:0:0:40:snare.wav
192,192,147094,128,0,147245:0:0:0:0:
320,192,147094,128,0,147245:0:0:0:0:
448,192,147245,1,0,0:0:0:0:
64,192,147397,128,0,147548:0:0:0:50:drum.wav
320,192,147397,128,0,147548:0:0:0:0:
448,192,147397,128,0,147548:0:0:0:0:
192,192,147548,1,0,0:0:0:0:
192,192,147700,128,0,147775:0:0:0:40:snare.wav
320,192,147700,128,0,147775:0:0:0:0:
448,192,147700,128,0,147775:0:0:0:0:
64,192,147851,128,0,147927:0:0:0:50:drum.wav
448,192,147851,128,0,147927:0:0:0:0:
64,192,148003,128,0,148078:0:0:0:40:snare.wav
192,192,148003,128,0,148078:0:0:0:0:
320,192,148003,128,0,148078:0:0:0:0:
192,192,148154,128,0,148230:0:0:0:50:drum.wav
448,192,148154,128,0,148230:0:0:0:0:
64,192,148306,128,0,148381:0:0:0:40:snare.wav
320,192,148306,128,0,148381:0:0:0:0:
448,192,148306,128,0,148381:0:0:0:0:
64,192,148457,128,0,148533:0:0:0:40:snare.wav
192,192,148457,128,0,148533:0:0:0:0:
448,192,148457,128,0,148533:0:0:0:0:
64,192,148609,128,0,148684:0:0:0:40:snare.wav
192,192,148609,128,0,148684:0:0:0:0:
320,192,148609,128,0,148684:0:0:0:0:
192,192,148760,128,0,148836:0:0:0:40:snare.wav
320,192,148760,128,0,148836:0:0:0:0:
448,192,148760,128,0,148836:0:0:0:0:
64,192,148912,128,0,148988:0:0:0:40:snare.wav
320,192,148912,128,0,148988:0:0:0:0:
448,192,148912,128,0,148988:0:0:0:0:
64,192,149063,128,0,149215:0:0:0:40:snare.wav
192,192,149063,128,0,149215:0:0:0:0:
320,192,149215,128,0,149291:0:0:0:0:
448,192,149215,128,0,149291:0:0:0:0:
192,192,149291,128,0,149366:0:0:0:0:
64,192,149366,128,0,149442:0:0:0:40:snare.wav
320,192,149366,128,0,149442:0:0:0:40:cymbal.wav
448,192,149366,128,0,149442:0:0:0:0:
192,192,149442,1,0,0:0:0:0:
320,192,149518,1,0,0:0:0:0:
448,192,149594,1,0,0:0:0:0:
64,192,149669,128,0,149745:0:0:0:50:drum.wav
192,192,149669,128,0,149745:0:0:0:0:
320,192,149745,1,0,0:0:0:0:
64,192,149821,128,0,149897:0:0:0:40:snare.wav
192,192,149821,128,0,149897:0:0:0:40:cymbal.wav
448,192,149821,128,0,149897:0:0:0:0:
320,192,149897,1,0,0:0:0:0:
192,192,149972,1,0,0:0:0:0:
448,192,150048,1,0,0:0:0:0:
64,192,150124,128,0,150200:0:0:0:40:snare.wav
192,192,150124,128,0,150200:0:0:0:0:
320,192,150124,128,0,150200:0:0:0:0:
448,192,150200,1,0,0:0:0:0:
320,192,150275,1,0,0:0:0:50:drum.wav
192,192,150351,1,0,0:0:0:50:drum.wav
64,192,150427,128,0,150503:0:0:0:40:snare.wav
320,192,150427,128,0,150503:0:0:0:0:
448,192,150427,128,0,150503:0:0:0:0:
192,192,150503,1,0,0:0:0:0:
320,192,150578,1,0,0:0:0:50:drum.wav
448,192,150654,1,0,0:0:0:50:drum.wav
64,192,150730,128,0,150806:0:0:0:40:snare.wav
192,192,150730,128,0,150806:0:0:0:0:
320,192,150806,1,0,0:0:0:0:
64,192,150881,1,0,0:0:0:40:snare.wav
192,192,150881,1,0,0:0:0:0:
320,192,150919,1,0,0:0:0:0:
448,192,150957,1,0,0:0:0:50:drum.wav
64,192,150995,1,0,0:0:0:0:
192,192,151033,1,0,0:0:0:50:drum.wav
448,192,151071,1,0,0:0:0:0:
320,192,151109,1,0,0:0:0:50:drum.wav
64,192,151147,1,0,0:0:0:0:
192,192,151184,1,0,0:0:0:40:snare.wav
320,192,151222,1,0,0:0:0:0:
448,192,151260,1,0,0:0:0:50:drum.wav
64,192,151298,1,0,0:0:0:0:
192,192,151336,1,0,0:0:0:50:drum.wav
448,192,151374,1,0,0:0:0:0:
320,192,151412,1,0,0:0:0:50:drum.wav
192,192,151450,1,0,0:0:0:0:
64,192,151488,128,0,151639:0:0:0:40:snare.wav
448,192,151488,128,0,151639:0:0:0:40:cymbal.wav
192,192,151639,128,0,151791:0:0:0:0:
320,192,151715,128,0,151866:0:0:0:0:
64,192,151791,128,0,151942:0:0:0:40:snare.wav
448,192,151791,1,0,0:0:0:0:
192,192,151866,128,0,152018:0:0:0:0:
448,192,151942,128,0,152094:0:0:0:0:
320,192,152018,128,0,152094:0:0:0:0:
64,192,152094,128,0,152245:0:0:0:50:drum.wav
192,192,152094,1,0,0:0:0:40:cymbal.wav
448,192,152245,1,0,0:0:0:0:
64,192,152321,1,0,0:0:0:50:drum.wav
192,192,152321,128,0,152472:0:0:0:0:
320,192,152321,1,0,0:0:0:0:
64,192,152472,1,0,0:0:0:0:
192,192,152548,1,0,0:0:0:50:drum.wav
320,192,152548,128,0,152700:0:0:0:0:
448,192,152548,1,0,0:0:0:0:
64,192,152700,1,0,0:0:0:40:snare.wav
192,192,152700,1,0,0:0:0:0:
448,192,152700,128,0,152851:0:0:0:0:
320,192,152775,128,0,152927:0:0:0:0:
192,192,152851,128,0,153003:0:0:0:0:
448,192,152927,128,0,153078:0:0:0:0:
64,192,153003,128,0,153154:0:0:0:40:snare.wav
320,192,153003,1,0,0:0:0:0:
192,192,153078,128,0,153230:0:0:0:0:
320,192,153154,128,0,153306:0:0:0:0:
448,192,153230,128,0,153306:0:0:0:0:
64,192,153306,128,0,153457:0:0:0:50:drum.wav
192,192,153306,1,0,0:0:0:40:cymbal.wav
448,192,153457,1,0,0:0:0:0:
64,192,153533,1,0,0:0:0:50:drum.wav
192,192,153533,128,0,153684:0:0:0:0:
320,192,153533,1,0,0:0:0:0:
64,192,153684,1,0,0:0:0:0:
192,192,153760,1,0,0:0:0:50:drum.wav
320,192,153760,128,0,153912:0:0:0:0:
448,192,153760,1,0,0:0:0:0:
64,192,153912,128,0,154063:0:0:0:40:snare.wav
192,192,153912,128,0,154063:0:0:0:40:cymbal.wav
448,192,153912,128,0,154063:0:0:0:0:
320,192,154063,1,0,0:0:0:0:
64,192,154215,128,0,154291:0:0:0:40:snare.wav
320,192,154215,128,0,154291:0:0:0:0:
448,192,154215,128,0,154291:0:0:0:0:
192,192,154366,128,0,154442:0:0:0:50:drum.wav
320,192,154366,128,0,154442:0:0:0:0:
448,192,154366,128,0,154442:0:0:0:0:
64,192,154518,128,0,154594:0:0:0:40:cymbal.wav
192,192,154518,128,0,154594:0:0:0:0:
64,192,154669,128,0,154745:0:0:0:50:drum.wav
320,192,154669,128,0,154745:0:0:0:0:
448,192,154669,128,0,154745:0:0:0:0:
192,192,154821,128,0,154897:0:0:0:50:drum.wav
448,192,154821,128,0,154897:0:0:0:0:
64,192,154972,128,0,155048:0:0:0:40:snare.wav
192,192,154972,128,0,155048:0:0:0:0:
320,192,154972,128,0,155048:0:0:0:0:
64,192,155124,128,0,155200:0:0:0:50:drum.wav
448,192,155124,128,0,155200:0:0:0:40:cymbal.wav
192,192,155275,128,0,155351:0:0:0:40:snare.wav
320,192,155275,128,0,155351:0:0:0:0:
448,192,155275,128,0,155351:0:0:0:0:
64,192,155427,128,0,155503:0:0:0:50:drum.wav
320,192,155427,128,0,155503:0:0:0:0:
64,192,155578,128,0,155654:0:0:0:40:snare.wav
192,192,155578,128,0,155654:0:0:0:0:
448,192,155578,128,0,155654:0:0:0:0:
64,192,155730,128,0,155881:0:0:0:40:snare.wav
320,192,155730,1,0,0:0:0:40:cymbal.wav
448,192,155730,1,0,0:0:0:0:
192,192,155806,128,0,155957:0:0:0:50:drum.wav
320,192,155881,128,0,156033:0:0:0:50:drum.wav
448,192,155957,128,0,156109:0:0:0:50:drum.wav
64,192,156033,1,0,0:0:0:40:snare.wav
192,192,156033,128,0,156184:0:0:0:0:
320,192,156109,128,0,156260:0:0:0:50:drum.wav
64,192,156184,128,0,156260:0:0:0:50:drum.wav
192,192,156260,128,0,156336:0:0:0:50:drum.wav
64,192,156336,1,0,0:0:0:40:snare.wav
320,192,156336,128,0,156488:0:0:0:40:cymbal.wav
448,192,156336,128,0,156563:0:0:0:0:
192,192,156488,128,0,156639:0:0:0:0:
320,192,156563,128,0,156715:0:0:0:0:
64,192,156639,1,0,0:0:0:50:drum.wav
448,192,156639,128,0,156791:0:0:0:0:
64,192,156791,128,0,157018:0:0:0:40:snare.wav
192,192,156791,128,0,156942:0:0:0:0:
320,192,156791,1,0,0:0:0:0:
320,192,156942,128,0,157094:0:0:0:0:
192,192,157018,128,0,157169:0:0:0:0:
64,192,157094,128,0,157245:0:0:0:50:drum.wav
448,192,157094,1,0,0:0:0:0:
192,192,157245,128,0,157472:0:0:0:40:snare.wav
320,192,157245,128,0,157397:0:0:0:0:
448,192,157245,1,0,0:0:0:0:
64,192,157397,128,0,157548:0:0:0:0:
320,192,157472,128,0,157624:0:0:0:0:
192,192,157548,128,0,157700:0:0:0:50:drum.wav
448,192,157548,1,0,0:0:0:0:
64,192,157700,1,0,0:0:0:40:snare.wav
320,192,157700,128,0,157927:0:0:0:0:
448,192,157700,128,0,157851:0:0:0:0:
192,192,157851,128,0,158003:0:0:0:0:
448,192,157927,128,0,158078:0:0:0:0:
64,192,158003,1,0,0:0:0:50:drum.wav
320,192,158003,128,0,158154:0:0:0:0:
192,192,158078,128,0,158154:0:0:0:50:drum.wav
64,192,158154,128,0,158306:0:0:0:40:snare.wav
448,192,158154,1,0,0:0:0:0:
320,192,158306,1,0,0:0:0:0:
64,192,158381,1,0,0:0:0:50:drum.wav
192,192,158381,128,0,158533:0:0:0:0:
448,192,158381,1,0,0:0:0:0:
448,192,158533,1,0,0:0:0:0:
64,192,158609,1,0,0:0:0:50:drum.wav
192,192,158609,1,0,0:0:0:0:
320,192,158609,128,0,158760:0:0:0:0:
64,192,158760,1,0,0:0:0:40:snare.wav
192,192,158760,1,0,0:0:0:40:cymbal.wav
448,192,158760,128,0,158912:0:0:0:0:
64,192,158912,1,0,0:0:0:50:drum.wav
192,192,158988,1,0,0:0:0:0:
64,192,159063,128,0,159215:0:0:0:40:snare.wav
320,192,159063,1,0,0:0:0:0:
448,192,159063,1,0,0:0:0:0:
192,192,159215,128,0,159366:0:0:0:50:drum.wav
320,192,159215,1,0,0:0:0:0:
448,192,159215,1,0,0:0:0:0:
320,192,159366,1,0,0:0:0:40:snare.wav
192,192,159442,1,0,0:0:0:0:
64,192,159518,1,0,0:0:0:50:drum.wav
320,192,159518,1,0,0:0:0:0:
448,192,159518,1,0,0:0:0:0:
64,192,159669,1,0,0:0:0:40:snare.wav
192,192,159669,1,0,0:0:0:0:
320,192,159669,1,0,0:0:0:0:
192,192,159821,1,0,0:0:0:50:drum.wav
448,192,159821,1,0,0:0:0:0:
64,192,159972,128,0,160124:0:0:0:40:snare.wav
320,192,159972,1,0,0:0:0:40:cymbal.wav
448,192,159972,1,0,0:0:0:0:
192,192,160124,1,0,0:0:0:50:drum.wav
320,192,160200,1,0,0:0:0:0:
64,192,160275,1,0,0:0:0:40:snare.wav
192,192,160275,1,0,0:0:0:0:
448,192,160275,128,0,160427:0:0:0:0:
64,192,160427,1,0,0:0:0:50:drum.wav
192,192,160427,1,0,0:0:0:0:
320,192,160427,128,0,160578:0:0:0:0:
448,192,160578,1,0,0:0:0:40:snare.wav
320,192,160654,1,0,0:0:0:0:
64,192,160730,1,0,0:0:0:50:drum.wav
192,192,160730,1,0,0:0:0:0:
448,192,160730,1,0,0:0:0:0:
64,192,160881,1,0,0:0:0:40:snare.wav
320,192,160881,1,0,0:0:0:0:
192,192,160957,1,0,0:0:0:0:
448,192,161033,1,0,0:0:0:50:drum.wav
320,192,161109,1,0,0:0:0:0:
64,192,161184,1,0,0:0:0:40:snare.wav
192,192,161184,1,0,0:0:0:40:cymbal.wav
448,192,161184,1,0,0:0:0:0:
320,192,161286,1,0,0:0:0:0:
64,192,161336,1,0,0:0:0:40:snare.wav
448,192,161336,1,0,0:0:0:0:
192,192,161387,1,0,0:0:0:0:
64,192,161488,1,0,0:0:0:40:snare.wav
320,192,161488,1,0,0:0:0:40:cymbal.wav
448,192,161488,1,0,0:0:0:0:
192,192,161589,1,0,0:0:0:0:
320,192,161639,1,0,0:0:0:40:snare.wav
448,192,161639,1,0,0:0:0:0:
64,192,161690,1,0,0:0:0:0:
192,192,161791,1,0,0:0:0:40:snare.wav
320,192,161791,1,0,0:0:0:40:cymbal.wav
448,192,161791,1,0,0:0:0:0:
64,192,161892,1,0,0:0:0:0:
192,192,161942,1,0,0:0:0:40:snare.wav
448,192,161942,1,0,0:0:0:0:
320,192,161993,1,0,0:0:0:0:
64,192,162094,1,0,0:0:0:40:snare.wav
192,192,162094,1,0,0:0:0:40:cymbal.wav
448,192,162094,1,0,0:0:0:0:
320,192,162195,1,0,0:0:0:0:
64,192,162245,1,0,0:0:0:40:snare.wav
192,192,162245,1,0,0:0:0:0:
448,192,162296,1,0,0:0:0:0:
64,192,162397,1,0,0:0:0:40:snare.wav
192,192,162397,1,0,0:0:0:40:cymbal.wav
320,192,162472,1,0,0:0:0:50:drum.wav
448,192,162472,1,0,0:0:0:0:
64,192,162548,1,0,0:0:0:50:drum.wav
192,192,162548,1,0,0:0:0:0:
320,192,162624,1,0,0:0:0:50:drum.wav
448,192,162624,1,0,0:0:0:0:
64,192,162700,1,0,0:0:0:40:snare.wav
192,192,162700,1,0,0:0:0:40:cymbal.wav
320,192,162775,1,0,0:0:0:50:drum.wav
448,192,162775,1,0,0:0:0:0:
64,192,162851,1,0,0:0:0:50:drum.wav
192,192,162851,1,0,0:0:0:0:
320,192,162927,1,0,0:0:0:50:drum.wav
64,192,163003,1,0,0:0:0:40:snare.wav
448,192,163003,1,0,0:0:0:0:
192,192,163078,1,0,0:0:0:50:drum.wav
320,192,163078,1,0,0:0:0:0:
64,192,163154,1,0,0:0:0:50:drum.wav
448,192,163154,1,0,0:0:0:0:
192,192,163230,1,0,0:0:0:50:drum.wav
320,192,163230,1,0,0:0:0:0:
64,192,163306,1,0,0:0:0:40:snare.wav
448,192,163306,1,0,0:0:0:0:
192,192,163381,1,0,0:0:0:50:drum.wav
320,192,163381,1,0,0:0:0:0:
64,192,163457,1,0,0:0:0:50:drum.wav
448,192,163457,1,0,0:0:0:0:
192,192,163533,1,0,0:0:0:50:drum.wav
64,192,163609,1,0,0:0:0:40:snare.wav
320,192,163609,1,0,0:0:0:40:cymbal.wav
448,192,163609,1,0,0:0:0:0:
