osu file format v14

[General]
AudioFilename: audio.mp3
AudioLeadIn: 0
PreviewTime: 117871
Countdown: 0
SampleSet: Soft
StackLeniency: 0.2
Mode: 0
LetterboxInBreaks: 0
WidescreenStoryboard: 0

[Editor]
Bookmarks: 10901,15371,20598,25447,30295,39992,49689,59386,78780,98174,107871,119992,141811
DistanceSpacing: 2.7
BeatDivisor: 6
GridSize: 32
TimelineZoom: 3.099999

[Metadata]
Title:Infinite Strife,
TitleUnicode:Infinite Strife,
Artist:BlackYooh vs. siromaru
ArtistUnicode:BlackYooh vs. siromaru
Creator:Cubby
Version:Conflict
Source:Arcaea
Tags:gokugohan12468 Risa Yuzuki -ascended- -_ascended_- BlackY Yooh kittyadventure [_Drop_] [drop] drop paradogi kyouren ascended cubbby lowiro final verdict tairitsu hikari 光 対立 instrumental electronic
BeatmapID:3693870
BeatmapSetID:1801589

[Difficulty]
HPDrainRate:5
CircleSize:4.2
OverallDifficulty:9
ApproachRate:9.4
SliderMultiplier:2.1
SliderTickRate:1

[Events]
//Background and Video events
0,0,"FXEs0SaaAAIINsm_waifu2x_art_noise1_scale_tta_1.jpg",0,0
//Break Periods
2,20798,22483
2,117843,119149
//Storyboard Layer 0 (Background)
//Storyboard Layer 1 (Fail)
//Storyboard Layer 2 (Pass)
//Storyboard Layer 3 (Foreground)
//Storyboard Layer 4 (Overlay)
//Storyboard Sound Samples

[TimingPoints]
1205,303.030303030303,4,2,1,40,1,0
1205,-100,4,2,1,40,0,0
10901,-83.3333333333333,4,2,1,40,0,0
16962,-71.4285714285714,4,2,1,40,0,0
19386,-133.333333333333,4,2,1,40,0,0
26659,-250,4,2,1,40,0,0
30295,-100,4,2,1,60,0,0
34477,-133.333333333333,4,2,1,60,0,0
35144,-100,4,2,1,60,0,0
37871,-133.333333333333,4,2,1,60,0,0
39386,-76.9230769230769,4,2,1,60,0,0
39992,-50,4,2,1,60,0,0
41205,-50,4,2,1,40,0,0
41811,-200,4,2,1,40,0,0
44841,-83.3333333333333,4,2,1,40,0,0
45144,-133.333333333333,4,2,1,40,0,0
47265,-100,4,2,1,40,0,0
47871,-133.333333333333,4,2,1,40,0,0
49689,-83.3333333333333,4,2,1,60,0,0
52114,-71.4285714285714,4,2,1,60,0,0
54538,-62.5,4,2,1,60,0,0
55144,-71.4285714285714,4,2,1,60,0,0
55901,-83.3333333333333,4,2,1,60,0,0
56053,-100,4,2,1,60,0,0
56205,-125,4,2,1,60,0,0
58326,-125,4,2,2,100,0,0
59386,-58.8235294117647,4,2,1,80,0,0
63629,-83.3333333333333,4,2,1,80,0,0
63932,-58.8235294117647,4,2,1,80,0,0
77568,-50,4,2,1,80,0,0
77871,-133.333333333333,4,2,1,80,0,0
78780,-100,4,2,1,80,0,0
86053,-76.9230769230769,4,2,1,80,0,0
86659,-133.333333333333,4,2,1,80,0,0
88477,-66.6666666666667,4,2,1,80,0,0
89689,-76.9230769230769,4,2,1,80,0,0
94841,-66.6666666666667,4,2,1,80,0,0
95144,-58.8235294117647,4,2,1,80,0,0
95447,-52.6315789473684,4,2,1,80,0,0
98174,-38.4615384615385,4,2,1,60,0,0
98780,-50,4,2,1,60,0,0
99386,-38.4615384615385,4,2,1,60,0,0
100295,-66.6666666666667,4,2,1,60,0,0
100598,-200,4,2,1,60,0,0
100901,-50,4,2,1,60,0,0
101204,-55.5555555555556,4,2,1,60,0,0
101811,-83.3333333333333,4,2,1,60,0,0
103023,-38.4615384615385,4,2,1,60,0,0
103326,-50,4,2,1,60,0,0
106659,-133.333333333333,4,2,1,60,0,0
107265,-200,4,2,1,60,0,0
109689,-55.5555555555556,4,2,1,60,0,0
110295,-83.3333333333333,4,2,1,60,0,0
112114,-55.5555555555556,4,2,1,60,0,0
113023,-83.3333333333333,4,2,1,60,0,0
117568,-50,4,2,1,80,0,0
119689,-333.333333333333,4,2,1,90,0,0
119992,-55.5555555555556,4,2,1,90,0,0
127265,-83.3333333333333,4,2,1,90,0,0
128477,-55.5555555555556,4,2,1,90,0,0
129386,-133.333333333333,4,2,1,90,0,0
129689,-62.5,4,2,1,90,0,0
131508,-55.5555555555556,4,2,1,90,0,0
140598,-200,4,2,1,90,0,0
141811,-45.4545454545455,4,2,1,90,0,0
142265,-40,4,2,1,90,0,0
142871,-28.5714285714286,4,2,1,90,0,0
143023,-40,4,2,1,90,0,0
143477,-33.3333333333333,4,2,1,90,0,0
144538,-50,4,2,1,90,0,0
144992,-45.4545454545455,4,2,1,90,0,0
147114,-40,4,2,1,90,0,0
147720,-28.5714285714286,4,2,1,90,0,0
147871,-40,4,2,1,90,0,0
148326,-33.3333333333333,4,2,1,90,0,0
149386,-133.333333333333,4,2,1,90,0,0
149689,-50,4,2,1,90,0,0
150144,-45.4545454545455,4,2,1,90,0,0
156659,-50,4,2,1,90,0,0
161811,-83.3333333333333,4,2,1,90,0,0
162114,-133.333333333333,4,2,1,90,0,0
162720,-50,4,2,1,90,0,0

[Colours]
Combo1 : 164,72,255
Combo2 : 0,96,191
Combo3 : 255,128,192
Combo4 : 128,128,255

[HitObjects]
66,40,1205,6,0,P|137:64|158:137,1,157.5,4|0,0:0|0:0,0:0:0:0:
114,207,1508,1,0,0:0:0:0:
114,207,1659,1,0,0:0:0:0:
196,226,1811,2,0,P|119:242|53:284,1,157.5,2|0,0:0|0:0,0:0:0:0:
31,360,2114,5,0,0:0:0:0:
31,360,2265,1,0,0:0:0:0:
114,207,2417,2,0,P|121:132|190:103,1,157.5,2|0,0:0|0:0,0:0:0:0:
255,61,2720,5,0,0:0:0:0:
255,61,2871,1,0,0:0:0:0:
321,103,3023,2,0,P|390:132|398:207,1,157.5,2|0,0:0|0:0,0:0:0:0:
395,281,3326,5,0,0:0:0:0:
395,281,3477,1,0,0:0:0:0:
445,355,3629,2,0,P|380:310|306:283,1,157.5,2|0,0:0|0:0,0:0:0:0:
259,218,3932,5,0,0:0:0:0:
259,218,4083,1,0,0:0:0:0:
147,227,4235,2,0,P|227:205|199:130,1,157.5,2|0,0:0|0:0,0:0:0:0:
170,86,4538,5,0,0:0:0:0:
170,86,4689,1,0,0:0:0:0:
170,86,4841,2,0,P|120:98|72:121,1,105,2|0,0:0|0:0,0:0:0:0:
88,219,5144,5,0,0:0:0:0:
88,219,5295,1,0,0:0:0:0:
15,219,5447,2,0,P|58:251|53:316,2,105,2|0|0,0:0|0:0|0:0,0:0:0:0:
147,371,6053,2,0,P|159:295|223:254,1,157.5,2|0,0:0|0:0,0:0:0:0:
304,200,6356,5,0,0:0:0:0:
304,200,6508,1,0,0:0:0:0:
282,97,6659,2,0,P|298:182|386:132,1,210,2|0,0:0|0:0,0:0:0:0:
512,285,7265,6,0,P|427:302|404:378,1,157.5,2|0,0:0|0:0,0:0:0:0:
420,282,7568,1,0,0:0:0:0:
420,281,7720,1,0,0:0:0:0:
420,281,7871,2,0,P|360:236|381:165,1,157.5,2|0,0:0|0:0,0:0:0:0:
395,150,8174,5,0,0:0:0:0:
395,150,8326,1,0,0:0:0:0:
490,152,8477,2,0,P|414:133|356:81,1,157.5,2|0,0:0|0:0,0:0:0:0:
303,210,8780,5,0,0:0:0:0:
303,210,8932,1,0,0:0:0:0:
398,224,9083,2,0,P|322:242|264:294,1,157.5,2|0,0:0|0:0,0:0:0:0:
135,188,9386,5,0,0:0:0:0:
135,188,9538,1,0,0:0:0:0:
230,174,9689,2,0,P|154:155|96:103,1,157.5,2|0,0:0|0:0,0:0:0:0:
75,301,9992,5,0,0:0:0:0:
75,301,10144,1,0,0:0:0:0:
66,230,10295,2,0,P|42:282|-22:290,2,105,2|0|0,0:0|0:0|0:0,0:0:0:0:
136,18,10901,6,0,B|148:36|148:36|131:138,1,125.999996154785,6|0,0:0|0:0,0:0:0:0:
244,48,11129,1,0,0:0:0:0:
249,39,11205,2,0,B|230:51|230:51|212:153,1,125.999996154785,0|0,1:0|0:0,0:0:0:0:
210,243,11508,5,0,1:0:0:0:
234,237,11583,1,0,0:0:0:0:
259,231,11659,1,0,0:0:0:0:
212,153,11811,5,0,1:0:0:0:
248,323,11962,5,0,0:0:0:0:
272,329,12038,1,0,0:0:0:0:
297,335,12114,1,0,1:0:0:0:
212,153,12265,5,0,0:0:0:0:
364,274,12417,1,0,1:0:0:0:
358,249,12493,1,0,0:0:0:0:
352,225,12568,1,0,0:0:0:0:
248,323,12720,5,0,1:0:0:0:
441,355,12871,1,0,0:0:0:0:
447,330,12947,1,0,0:0:0:0:
453,306,13022,1,0,1:0:0:0:
497,224,13174,5,0,0:0:0:0:
472,218,13250,1,0,0:0:0:0:
445,209,13326,2,0,L|427:76,1,125.999996154785,4|0,0:0|0:0,0:0:0:0:
428,62,13553,1,0,0:0:0:0:
443,51,13629,2,0,L|299:19,1,125.999996154785,0|0,1:0|0:0,0:0:0:0:
215,31,13932,5,0,1:0:0:0:
211,72,14007,1,0,0:0:0:0:
246,95,14083,1,0,0:0:0:0:
320,23,14235,5,0,1:0:0:0:
201,175,14386,5,0,0:0:0:0:
234,198,14461,1,0,0:0:0:0:
271,180,14538,1,0,1:0:0:0:
320,23,14689,5,0,0:0:0:0:
121,126,14841,5,0,1:0:0:0:
84,143,14916,1,0,0:0:0:0:
81,184,14992,1,0,0:0:0:0:
271,180,15144,5,0,1:0:0:0:
211,72,15295,5,0,0:0:0:0:
214,31,15370,1,0,0:0:0:0:
180,8,15447,2,0,P|113:53|71:30,1,125.999996154785,0|0,1:0|0:0,0:0:0:0:
407,17,15750,6,0,P|423:41|416:83,1,62.9999980773926,4|0,1:2|0:0,0:0:0:0:
479,256,15901,2,0,P|466:282|425:297,1,62.9999980773926,0|0,1:0|0:0,0:0:0:0:
424,100,16053,6,0,P|421:129|387:157,1,62.9999980773926,0|0,1:0|0:0,0:0:0:0:
416,313,16204,2,0,P|389:325|348:310,1,62.9999980773926,0|0,1:0|0:0,0:0:0:0:
382,171,16356,6,0,P|359:193|329:196,1,62.9999980773926,0|0,1:0|0:0,0:0:0:0:
331,311,16508,2,0,P|301:303|283:278,1,62.9999980773926,0|0,1:0|0:0,0:0:0:0:
327,98,16659,5,0,1:0:0:0:
183,312,16811,1,0,1:0:0:0:
183,312,16886,1,0,1:0:0:0:
183,312,16962,2,0,L|87:336,1,73.4999977569581,4|0,1:2|0:0,0:0:0:0:
0,127,17114,2,0,L|71:144,1,73.4999977569581,0|0,1:0|0:0,0:0:0:0:
102,215,17265,6,0,L|84:286,1,73.4999977569581,0|0,1:0|0:0,0:0:0:0:
79,313,17417,2,0,L|61:384,1,73.4999977569581,0|0,1:0|0:0,0:0:0:0:
202,169,17568,6,0,L|273:151,1,73.4999977569581,0|0,1:0|0:0,0:0:0:0:
329,379,17720,2,0,L|257:361,1,73.4999977569581,0|0,1:0|0:0,0:0:0:0:
368,123,17871,6,0,L|350:194,1,73.4999977569581,0|0,1:0|0:0,0:0:0:0:
345,221,18023,2,0,L|327:292,1,73.4999977569581,0|0,1:0|0:0,1:0:0:0:
105,120,18174,5,0,1:0:0:0:
77,114,18250,1,0,1:0:0:0:
61,93,18326,1,0,1:0:0:0:
64,66,18401,1,0,1:0:0:0:
85,50,18477,1,0,1:0:0:0:
112,54,18553,1,0,1:0:0:0:
127,75,18629,1,0,1:0:0:0:
124,101,18705,1,0,1:0:0:0:
111,142,18780,5,0,1:0:0:0:
65,133,18856,1,0,1:0:0:0:
38,98,18932,1,0,1:0:0:0:
43,53,19007,1,0,1:0:0:0:
79,27,19083,1,0,1:0:0:0:
123,33,19159,1,0,1:0:0:0:
149,68,19235,1,0,1:0:0:0:
144,111,19311,1,0,1:0:0:0:
111,142,19386,6,0,L|98:199,1,39.3750015020371,8|0,3:0|0:0,0:0:0:0:
249,183,19538,1,0,3:0:0:0:
249,183,19614,1,0,3:0:0:0:
249,183,19689,2,0,L|236:240,1,39.3750015020371,8|0,3:0|0:0,0:0:0:0:
377,219,19841,1,0,3:0:0:0:
377,219,19917,1,0,3:0:0:0:
377,219,19992,1,8,3:0:0:0:
192,358,20144,5,0,3:0:0:0:
160,351,20220,1,0,3:0:0:0:
128,344,20295,1,0,3:0:0:0:
96,336,20371,1,0,3:0:0:0:
64,329,20447,1,0,3:0:0:0:
32,322,20523,1,0,3:0:0:0:
1,314,20598,5,6,3:2:0:0:
256,192,23023,5,2,0:0:0:0:
256,192,24235,1,2,0:0:0:0:
256,192,25447,5,2,0:0:0:0:
129,152,26659,6,0,P|140:91|104:42,2,126,2|2|2,0:0|0:0|0:0,0:0:0:0:
21,145,27871,2,0,P|112:167|134:277,1,210,2|0,0:0|0:0,0:0:0:0:
93,325,28780,6,0,P|63:332|54:341,1,42,2|0,0:0|0:0,0:0:0:0:
2,384,29083,2,0,L|166:334,1,168,2|2,0:0|0:0,0:0:0:0:
47,72,30295,6,0,P|43:128|129:151,1,157.5,6|0,0:0|0:0,0:0:0:0:
179,87,30598,2,0,P|172:37|124:24,1,105,0|0,1:0|0:0,0:0:0:0:
27,165,30800,5,2,0:0:0:0:
48,248,30901,2,0,P|54:333|-2:368,1,157.5,2|0,1:2|0:0,0:0:0:0:
91,332,31204,2,0,P|145:320|194:308,1,105,0|0,1:0|0:0,0:0:0:0:
383,366,31508,6,0,P|292:323|303:258,1,157.5,2|0,1:2|0:0,0:0:0:0:
338,205,31811,2,0,P|385:227|375:285,1,105,0|0,1:2|0:0,0:0:0:0:
215,235,32013,5,2,0:0:0:0:
230,157,32114,2,0,L|257:0,1,157.5,2|0,1:2|0:0,0:0:0:0:
239,5,32417,2,0,L|129:34,1,105,2|0,0:0|0:0,0:0:0:0:
0,101,32720,6,0,P|74:111|110:179,1,157.5,2|0,1:2|0:0,0:0:0:0:
148,241,33023,2,0,P|98:223|46:217,1,105,2|0,1:2|0:0,0:0:0:0:
215,327,33225,5,2,0:0:0:0:
123,320,33326,2,0,P|197:310|226:240,1,157.5,2|0,1:2|0:0,0:0:0:0:
227,214,33629,2,0,P|230:188|252:167,1,52.5,0|0,1:0|0:0,0:0:0:0:
311,245,33780,6,0,P|323:233|331:217,2,35,2|2|2,0:0|0:0|0:0,0:0:0:0:
388,279,33932,6,0,L|372:126,2,126,2|2|2,0:0|0:0|0:0,0:0:0:0:
476,286,34538,6,0,L|463:173,2,94.5000036048891,2|2|2,0:0|0:0|0:0,0:0:0:0:
218,366,35144,5,0,1:0:0:0:
109,221,35295,1,0,1:0:0:0:
195,269,35447,1,0,1:0:0:0:
15,247,35598,1,0,1:0:0:0:
81,7,35750,6,0,P|90:56|137:75,1,105,0|0,1:0|1:0,0:0:0:0:
195,269,36053,2,0,P|143:277|94:296,1,105,2|2,1:2|1:2,0:0:0:0:
347,15,36356,5,0,1:0:0:0:
329,159,36508,1,0,1:0:0:0:
462,102,36659,2,0,P|475:60|543:35,1,105,0|0,1:0|0:0,0:0:0:0:
420,180,36861,5,2,0:0:0:0:
504,174,36962,2,0,P|443:198|388:287,1,157.5,2|0,1:2|0:0,0:0:0:0:
375,347,37265,5,0,1:0:0:0:
329,159,37417,1,0,1:0:0:0:
257,207,37568,5,2,3:2:0:0:
244,205,37643,1,0,3:2:0:0:
231,203,37719,1,0,3:2:0:0:
218,200,37795,1,0,3:2:0:0:
205,198,37871,6,0,L|198:159,3,39.3750015020371,0|0|0|0,3:0|3:0|3:0|3:0,3:0:0:0:
134,97,38174,2,2,P|69:113|59:180,2,118.125004506111
280,7,38780,5,0,3:0:0:0:
292,38,38855,1,0,3:0:0:0:
310,68,38931,1,0,3:0:0:0:
332,95,39007,1,0,3:0:0:0:
357,118,39083,1,0,3:0:0:0:
386,137,39158,1,0,3:0:0:0:
417,152,39234,1,0,3:0:0:0:
450,161,39310,1,0,3:0:0:0:
484,166,39386,6,0,L|-32:224,1,477.749978130342,2|0,3:2|0:0,0:0:0:0:
9,219,39992,6,0,P|23:170|-5:128,1,105,6|0,0:0|0:0,0:0:0:0:
60,121,41205,5,2,0:0:0:0:
60,31,41356,1,2,0:0:0:0:
136,75,41508,1,2,0:0:0:0:
83,80,41659,5,2,0:0:0:0:
39,201,41811,2,0,L|0:209,3,26.25,2|2|2|2,0:0|0:0|0:0|0:0,0:0:0:0:
12,218,42114,2,0,L|37:223,3,26.25,2|2|2|2,0:0|0:0|0:0|0:0,0:0:0:0:
34,298,42417,6,0,L|53:371,1,52.5,2|2,1:2|0:0,0:0:0:0:
132,356,42720,6,0,L|158:351,3,26.25,2|2|2|2,0:0|0:0|0:0|0:0,0:0:0:0:
176,338,43023,2,0,L|201:343,3,26.25,2|2|2|2,0:0|0:0|0:0|0:0,0:0:0:0:
229,360,43326,2,0,L|254:354,3,26.25,2|2|2|2,0:0|0:0|0:0|0:0,0:0:0:0:
344,313,43629,5,2,0:0:0:0:
468,346,43780,1,2,0:0:0:0:
344,313,43932,1,2,0:0:0:0:
468,346,44083,1,2,0:0:0:0:
415,270,44235,6,0,L|410:219,3,26.25,2|2|2|2,0:0|0:0|0:0|0:0,0:0:0:0:
405,166,44538,2,0,L|400:115,3,26.25,2|2|2|2,0:0|0:0|0:0|0:0,0:0:0:0:
486,114,44841,6,0,B|433:123|408:66|408:66|383:13|324:29,1,188.999994232178,6|0,0:0|0:0,0:0:0:0:
257,30,45144,6,0,P|258:50|267:67,3,39.3750015020371,2|2|2|2,0:0|0:0|0:0|0:0,0:0:0:0:
223,151,45447,2,0,P|240:159|259:160,3,39.3750015020371,2|2|2|2,0:0|0:0|0:0|0:0,0:0:0:0:
241,246,45750,5,2,0:0:0:0:
225,258,45825,1,2,0:0:0:0:
218,276,45901,1,2,0:0:0:0:
219,295,45977,1,2,0:0:0:0:
231,313,46053,6,0,P|246:339|246:361,3,39.3750015020371,2|2|2|2,0:0|0:0|0:0|0:0,0:0:0:0:
358,343,46356,2,0,P|342:368|323:379,3,39.3750015020371,2|2|2|2,0:0|0:0|0:0|0:0,0:0:0:0:
424,276,46659,5,2,0:0:0:0:
462,268,46734,1,2,0:0:0:0:
489,240,46810,1,2,0:0:0:0:
496,202,46886,1,2,0:0:0:0:
480,167,46962,6,0,L|470:118,3,39.3750015020371,2|2|2|2,0:0|0:0|0:0|0:0,0:0:0:0:
431,57,47265,6,0,P|358:59|359:150,1,157.5,2|0,3:2|0:0,0:0:0:0:
326,197,47568,5,2,0:0:0:0:
322,209,47643,1,2,0:0:0:0:
314,219,47719,1,2,0:0:0:0:
302,225,47795,1,2,0:0:0:0:
286,225,47871,6,0,P|266:248|262:272,3,39.3750015020371,2|2|2|2,0:0|0:0|0:0|0:0,0:0:0:0:
174,259,48174,2,0,P|183:287|202:303,3,39.3750015020371,2|2|2|2,0:0|0:0|0:0|0:0,0:0:0:0:
80,347,48477,6,0,P|87:308|73:272,2,78.7500030040742,2|2|2,0:0|0:0|0:0,0:0:0:0:
113,202,48932,1,2,0:0:0:0:
35,32,49083,5,2,0:0:0:0:
40,47,49159,1,2,0:0:0:0:
74,66,49235,5,2,0:0:0:0:
79,51,49311,1,2,0:0:0:0:
111,42,49386,5,2,0:0:0:0:
116,57,49462,1,2,0:0:0:0:
145,68,49538,5,2,0:0:0:0:
150,53,49614,1,2,0:0:0:0:
189,33,49689,6,0,L|-35:81,1,188.999994232178,6|0,1:2|0:0,0:0:0:0:
37,217,49992,2,0,P|70:267|131:271,1,125.999996154785,10|0,0:0|0:0,0:0:0:0:
297,14,50295,2,0,P|269:71|258:133,1,125.999996154785,10|0,0:0|0:0,0:0:0:0:
447,283,50598,2,0,P|413:334|352:338,1,125.999996154785,10|0,0:0|0:0,0:0:0:0:
159,170,50901,6,0,P|252:168|331:217,1,188.999994232178,10|0,0:0|0:0,0:0:0:0:
344,242,51205,1,10,0:0:0:0:
307,0,51356,2,0,P|289:73|385:71,1,188.999994232178,2|0,0:0|0:0,0:0:0:0:
476,19,51659,2,0,L|444:206,1,188.999994232178,2|0,0:0|0:0,0:0:0:0:
455,219,51962,1,2,0:0:0:0:
205,108,52114,6,0,B|167:111|151:69|151:69|97:0|14:37,1,220.499993270874,6|0,0:0|0:0,0:0:0:0:
1,51,52417,1,10,0:0:0:0:
42,262,52568,2,0,P|102:220|172:202,1,146.999995513916,2|8,0:0|0:0,0:0:0:0:
141,20,52871,2,0,P|81:61|94:134,1,146.999995513916,2|8,0:0|0:0,0:0:0:0:
139,293,53174,1,2,0:0:0:0:
372,132,53326,6,0,B|412:170|402:234|402:234|412:170|465:151,1,220.499993270874,10|0,0:0|0:0,0:0:0:0:
431,81,53629,1,10,0:0:0:0:
305,254,53780,6,0,L|430:333,1,146.999995513916,2|8,0:0|0:0,0:0:0:0:
403,234,54083,2,0,L|334:364,1,146.999995513916,2|8,0:0|0:0,0:0:0:0:
340,185,54386,1,2,0:0:0:0:
34,84,54538,6,0,L|82:16,1,84,2|0,1:2|0:0,0:0:0:0:
102,69,54689,2,0,L|33:21,1,84,2|0,1:2|0:0,0:0:0:0:
76,281,54841,6,0,L|124:349,1,84,2|0,1:2|0:0,0:0:0:0:
141,291,54992,2,0,L|72:339,1,84,2|0,1:2|0:0,0:0:0:0:
180,171,55144,6,0,L|228:103,1,73.4999977569581,2|0,1:2|0:0,0:0:0:0:
234,161,55295,2,0,L|165:113,1,73.4999977569581,2|0,1:2|0:0,0:0:0:0:
250,248,55447,6,0,L|298:316,1,73.4999977569581,2|0,1:2|0:0,0:0:0:0:
304,258,55598,2,0,L|235:305,1,73.4999977569581,2|0,1:2|0:0,0:0:0:0:
483,72,55750,6,0,L|504:1,1,73.4999977569581,2|0,1:2|0:0,0:0:0:0:
474,81,55901,6,0,L|495:10,1,62.9999980773926,2|0,1:2|0:0,0:0:0:0:
465,91,56053,6,0,L|486:20,1,52.5,2|0,1:2|0:0,0:0:0:0:
457,100,56205,6,0,L|473:43,1,42,2|0,1:2|0:0,0:0:0:0:
440,169,56356,5,2,1:2:0:0:
470,230,56431,1,2,1:2:0:0:
447,293,56507,1,2,1:2:0:0:
386,321,56583,1,2,1:2:0:0:
324,293,56659,5,2,1:2:0:0:
278,272,56735,1,2,1:2:0:0:
232,293,56811,1,2,1:2:0:0:
215,340,56887,1,2,1:2:0:0:
240,384,56962,5,2,1:2:0:0:
256,192,56981,12,2,57568,0:2:0:0:
256,192,57587,12,2,58174,0:0:0:0:
256,192,58193,12,2,58780,0:0:0:0:
64,29,59386,6,0,L|85:211,1,178.500003404617,6|0,0:0|0:0,0:0:0:0:
161,153,59614,1,0,0:0:0:0:
167,163,59689,2,0,L|185:60,1,89.2500017023087,2|0,1:2|0:0,0:0:0:0:
104,321,59841,2,0,P|84:238|2:220,1,178.500003404617,2|0,0:0|1:0,0:0:0:0:
217,344,60144,5,2,0:0:0:0:
217,344,60220,1,0,0:0:0:0:
217,344,60295,2,0,P|254:315|240:261,1,89.2500017023087,0|0,1:0|0:0,0:0:0:0:
282,133,60447,5,2,0:0:0:0:
282,133,60523,1,0,0:0:0:0:
282,133,60598,2,0,P|288:179|342:195,1,89.2500017023087,0|0,1:0|0:0,0:0:0:0:
433,301,60750,5,2,0:0:0:0:
433,301,60826,1,0,0:0:0:0:
433,301,60901,2,0,P|389:282|349:321,1,89.2500017023087,0|0,1:0|0:0,0:0:0:0:
119,238,61053,6,0,P|161:223|204:214,1,89.2500017023087,2|0,0:0|0:0,0:0:0:0:
344,31,61205,6,0,P|326:43|320:64,1,44.6250008511543,2|0,1:2|0:0,0:0:0:0:
493,132,61356,6,0,P|499:111|493:91,1,44.6250008511543,2|0,1:2|0:0,0:0:0:0:
460,13,61508,6,0,P|443:0|422:0,1,44.6250008511543,2|0,1:2|0:0,0:0:0:0:
375,177,61659,6,0,P|397:178|415:166,1,44.6250008511543,0|0,1:2|0:0,0:0:0:0:
251,6,61811,6,0,P|301:78|386:99,1,178.500003404617,6|0,0:0|0:0,0:0:0:0:
263,159,62038,1,0,0:0:0:0:
263,159,62114,2,0,P|220:156|194:190,1,89.2500017023087,2|0,1:2|0:0,0:0:0:0:
274,280,62265,2,0,P|273:192|312:113,1,178.500003404617,2|0,0:0|1:0,0:0:0:0:
205,81,62568,5,2,0:0:0:0:
205,81,62644,1,0,0:0:0:0:
205,81,62720,2,0,P|171:48|120:61,1,89.2500017023087,0|0,1:0|0:0,0:0:0:0:
55,196,62871,5,2,0:0:0:0:
55,196,62947,1,0,0:0:0:0:
55,196,63023,2,0,P|100:182|114:132,1,89.2500017023087,0|0,1:0|0:0,0:0:0:0:
29,10,63174,5,2,0:0:0:0:
29,10,63250,1,0,0:0:0:0:
29,10,63326,2,0,P|17:55|54:92,1,89.2500017023087,0|0,1:0|0:0,0:0:0:0:
69,292,63477,6,0,P|28:323|34:371,1,89.2500017023087,2|0,0:0|0:0,0:0:0:0:
112,358,63629,6,0,B|176:365|210:317|174:312|216:253|289:287,1,188.999994232178,2|0,1:2|0:0,0:0:0:0:
350,285,63932,6,0,P|344:327|308:350,1,89.2500017023087,2|0,1:2|0:0,0:0:0:0:
442,294,64083,2,0,P|441:250|407:224,1,89.2500017023087,2|0,1:2|0:0,0:0:0:0:
308,203,64235,6,0,P|394:179|481:162,1,178.500003404617,6|0,0:0|0:0,0:0:0:0:
386,100,64462,1,0,0:0:0:0:
386,91,64538,2,0,P|420:66|411:24,1,89.2500017023087,0|0,1:0|0:0,0:0:0:0:
337,281,64689,6,0,P|254:264|235:182,1,178.500003404617,2|0,0:0|1:0,0:0:0:0:
224,26,64992,5,2,0:0:0:0:
224,26,65068,1,0,0:0:0:0:
224,26,65144,2,0,P|269:59|259:108,1,89.2500017023087,0|0,1:0|0:0,0:0:0:0:
353,140,65295,5,2,0:0:0:0:
353,140,65371,1,0,0:0:0:0:
353,140,65447,2,0,P|335:192|285:198,1,89.2500017023087,0|0,1:0|0:0,0:0:0:0:
357,355,65598,5,2,0:0:0:0:
357,355,65674,1,0,0:0:0:0:
357,355,65750,2,0,P|301:354|280:309,1,89.2500017023087,0|0,1:0|0:0,0:0:0:0:
191,163,65901,6,0,P|230:142|273:129,1,89.2500017023087,2|0,0:0|0:0,0:0:0:0:
127,213,66053,6,0,P|112:196|110:174,1,44.6250008511543,2|0,1:2|0:0,0:0:0:0:
353,140,66204,6,0,P|351:161|336:178,1,44.6250008511543,2|0,1:2|0:0,0:0:0:0:
33,133,66356,6,0,P|39:111|57:99,1,44.6250008511543,2|0,1:2|0:0,0:0:0:0:
368,257,66508,6,0,P|348:265|327:262,1,44.6250008511543,2|0,1:2|0:0,0:0:0:0:
435,75,66659,6,0,P|439:161|512:206,1,178.500003404617,6|0,0:0|0:0,0:0:0:0:
506,27,66886,5,0,0:0:0:0:
505,39,66962,2,0,P|477:6|434:0,1,89.2500017023087,2|0,1:2|0:0,0:0:0:0:
366,107,67114,2,0,P|394:140|438:147,1,89.2500017023087,2|0,0:0|0:0,0:0:0:0:
342,18,67265,6,0,P|300:33|257:41,1,89.2500017023087,0|0,1:0|0:0,0:0:0:0:
194,96,67417,5,2,0:0:0:0:
194,96,67492,1,0,0:0:0:0:
194,96,67568,2,0,P|194:140|190:185,1,89.2500017023087,0|0,1:0|0:0,0:0:0:0:
204,270,67720,5,2,0:0:0:0:
204,270,67795,1,0,0:0:0:0:
204,270,67871,2,0,P|246:282|287:302,1,89.2500017023087,0|0,1:0|0:0,0:0:0:0:
372,296,68023,5,2,0:0:0:0:
372,296,68098,1,0,0:0:0:0:
372,296,68174,2,0,P|397:259|429:228,1,89.2500017023087,0|0,1:0|0:0,0:0:0:0:
437,146,68326,6,2,P|410:111|389:72,1,89.2500017023087,2|0,0:0|0:0,0:0:0:0:
282,90,68477,6,0,P|263:77|241:76,1,44.6250008511543,2|0,1:2|0:0,0:0:0:0:
278,275,68629,6,0,P|298:265|311:247,1,44.6250008511543,2|0,1:2|0:0,0:0:0:0:
196,0,68780,6,0,P|176:9|164:28,1,44.6250008511543,2|0,1:2|0:0,0:0:0:0:
223,158,68932,6,0,P|241:170|264:172,1,44.6250008511543,2|0,1:2|0:0,0:0:0:0:
387,98,69083,6,0,L|100:153,1,267.750005106926,6|0,0:0|0:0,0:0:0:0:
39,131,69386,2,0,B|26:146|26:146|52:217,1,89.2500017023087,2|0,1:2|0:0,0:0:0:0:
156,382,69538,2,0,B|143:366|143:366|169:295,1,89.2500017023087,2|0,0:0|0:0,0:0:0:0:
86,287,69689,6,0,L|0:308,1,89.2500017023087,0|0,1:0|0:0,0:0:0:0:
223,158,69841,5,2,0:0:0:0:
223,158,69917,1,0,0:0:0:0:
223,158,69992,2,0,L|136:180,1,89.2500017023087,0|0,1:0|0:0,0:0:0:0:
358,230,70144,5,2,0:0:0:0:
358,230,70220,1,0,0:0:0:0:
358,230,70295,2,0,L|271:251,1,89.2500017023087,0|0,1:0|0:0,0:0:0:0:
512,147,70447,5,2,0:0:0:0:
512,147,70523,1,0,0:0:0:0:
512,147,70598,2,0,L|425:168,1,89.2500017023087,0|0,1:0|0:0,0:0:0:0:
472,259,70750,2,0,L|451:346,1,89.2500017023087,2|0,0:0|0:0,0:0:0:0:
336,140,70901,6,0,L|357:53,1,89.2500017023087,2|0,1:2|0:0,0:0:0:0:
168,340,71053,2,0,L|189:253,1,89.2500017023087,2|0,1:2|0:0,0:0:0:0:
124,43,71204,5,2,1:2:0:0:
88,47,71279,1,2,0:0:0:0:
63,72,71355,1,2,0:0:0:0:
57,106,71431,1,2,0:0:0:0:
0,153,71508,6,0,L|286:81,1,267.750005106926,6|0,1:2|0:0,0:0:0:0:
254,111,71811,6,0,L|218:215,1,89.2500017023087,2|0,1:2|0:0,0:0:0:0:
34,357,71962,2,0,L|62:272,1,89.2500017023087,2|0,0:0|0:0,0:0:0:0:
111,208,72114,6,0,P|151:222|164:263,1,89.2500017023087,0|0,1:2|0:0,0:0:0:0:
187,342,72265,5,2,0:0:0:0:
194,350,72341,1,0,0:0:0:0:
194,350,72417,2,0,P|234:335|247:294,1,89.2500017023087,0|0,1:0|0:0,0:0:0:0:
306,241,72568,5,2,0:0:0:0:
306,241,72644,1,0,0:0:0:0:
306,241,72720,2,0,P|349:216|400:234,1,89.2500017023087,0|0,1:0|0:0,0:0:0:0:
443,291,72871,5,2,0:0:0:0:
443,291,72947,1,0,0:0:0:0:
443,291,73023,2,0,P|457:331|505:263,1,178.500003404617,0|2,1:0|0:0,0:0:0:0:
452,59,73326,5,2,1:2:0:0:
375,45,73401,5,2,1:2:0:0:
298,31,73477,5,2,1:2:0:0:
221,18,73553,5,2,1:2:0:0:
144,4,73629,5,2,1:2:0:0:
150,25,73704,1,2,1:2:0:0:
156,46,73780,1,2,1:2:0:0:
163,68,73856,1,2,1:2:0:0:
231,116,73932,6,0,B|73:88|73:88|68:23|6:13,1,267.750005106926,6|0,0:0|0:0,0:0:0:0:
0,88,74235,6,0,P|-8:131|33:161,1,89.2500017023087,2|0,1:2|0:0,0:0:0:0:
154,32,74386,6,0,B|191:8|191:8|150:25,1,89.2500017023087,2|0,0:0|0:0,0:0:0:0:
114,135,74538,6,0,L|136:254,1,89.2500017023087,0|0,1:0|0:0,0:0:0:0:
31,355,74689,5,2,0:0:0:0:
31,355,74765,1,0,0:0:0:0:
31,355,74841,2,0,L|118:335,1,89.2500017023087,0|0,1:0|0:0,0:0:0:0:
200,280,74992,5,2,0:0:0:0:
200,280,75068,1,0,0:0:0:0:
200,280,75144,2,0,L|219:367,1,89.2500017023087,0|0,1:0|0:0,0:0:0:0:
309,303,75295,5,2,0:0:0:0:
309,303,75371,1,0,0:0:0:0:
309,303,75447,2,0,L|396:283,1,89.2500017023087,0|0,1:0|0:0,0:0:0:0:
478,239,75598,6,0,L|497:326,1,89.2500017023087,2|0,0:0|0:0,0:0:0:0:
379,122,75750,6,0,P|377:165|409:193,1,89.2500017023087,2|0,1:2|0:0,0:0:0:0:
459,64,75901,2,0,P|497:44|506:2,1,89.2500017023087,2|0,1:2|0:0,0:0:0:0:
377,14,76053,5,2,0:0:0:0:
334,12,76128,1,2,0:0:0:0:
303,42,76204,1,2,0:0:0:0:
304,85,76280,1,2,0:0:0:0:
312,90,76356,6,0,P|279:59|230:71,1,89.2500017023087,0|0,1:0|0:0,0:0:0:0:
227,207,76508,2,0,L|243:319,1,89.2500017023087,0|0,1:0|0:0,0:0:0:0:
401,116,76659,6,0,P|412:71|377:35,1,89.2500017023087,0|0,1:0|0:0,0:0:0:0:
232,215,76811,2,0,L|248:327,1,89.2500017023087,0|0,1:0|0:0,0:0:0:0:
448,188,76962,6,0,P|492:174|506:126,1,89.2500017023087,0|0,1:0|0:0,0:0:0:0:
237,223,77114,2,0,L|253:335,1,89.2500017023087,0|0,1:0|0:0,0:0:0:0:
439,275,77265,6,8,P|472:306|521:294,1,89.2500017023087,0|0,1:0|0:0,0:0:0:0:
242,231,77417,2,0,L|258:343,1,89.2500017023087,0|0,1:0|0:0,0:0:0:0:
379,145,77568,6,0,P|310:231|301:95,1,315,2|0,1:0|0:0,0:0:0:0:
302,82,77871,6,0,P|305:46|234:17,1,118.125004506111,2|0,0:1|0:0,0:0:0:0:
131,63,78174,5,2,1:2:0:0:
129,48,78249,1,2,1:2:0:0:
127,33,78325,1,2,1:2:0:0:
125,19,78401,1,2,1:2:0:0:
124,5,78477,5,2,1:2:0:0:
115,83,78552,1,2,1:2:0:0:
105,161,78628,1,2,1:2:0:0:
95,239,78704,1,2,1:2:0:0:
85,316,78780,6,0,P|85:342|100:363,3,52.5,4|0|0|0,3:2|3:0|3:0|3:0,0:0:0:0:
209,292,79083,2,0,P|186:305|176:328,3,52.5,0|0|0|0,3:0|3:0|3:0|3:0,0:0:0:0:
250,356,79386,5,0,1:0:0:0:
284,372,79461,1,0,3:0:0:0:
321,362,79537,1,0,3:0:0:0:
341,329,79613,1,0,3:0:0:0:
334,291,79689,1,0,1:0:0:0:
327,253,79765,1,0,3:0:0:0:
347,220,79841,1,0,3:0:0:0:
384,210,79917,1,0,3:0:0:0:
418,226,79992,6,0,P|416:256|522:290,1,157.5,2|0,3:2|3:0,3:0:0:0:
440,97,80295,1,0,1:0:0:0:
428,98,80371,2,0,L|491:86,2,52.5,0|0|0,3:0|3:0|3:0,3:0:0:0:
398,16,80598,5,0,1:0:0:0:
348,56,80673,1,0,3:0:0:0:
339,120,80749,1,0,3:0:0:0:
375,172,80825,1,0,3:0:0:0:
437,186,80901,5,0,1:0:0:0:
483,197,80977,1,0,3:0:0:0:
512,237,81053,1,0,3:0:0:0:
505,284,81129,1,0,3:0:0:0:
467,314,81204,6,0,P|414:339|364:268,1,157.5,2|0,0:0|0:0,0:0:0:0:
365,80,81508,6,0,P|341:97|342:132,1,52.5,0|0,1:2|0:0,0:0:0:0:
269,207,81659,1,0,3:0:0:0:
269,207,81735,1,0,3:0:0:0:
269,207,81811,1,0,1:0:0:0:
235,223,81886,1,0,3:0:0:0:
198,213,81962,1,0,3:0:0:0:
178,180,82038,1,0,3:0:0:0:
185,142,82114,1,0,1:0:0:0:
192,104,82190,1,0,3:0:0:0:
172,71,82266,1,0,3:0:0:0:
135,61,82342,1,0,3:0:0:0:
101,77,82417,6,0,P|103:104|75:134,3,52.5,2|0|0|0,3:2|3:0|3:0|3:0,0:0:0:0:
295,64,82720,2,0,P|270:52|258:12,3,52.5,0|0|0|0,1:0|3:0|1:0|3:0,3:0:0:0:
209,238,83023,2,0,P|231:222|271:232,3,52.5,2|0|0|0,3:2|3:0|3:0|3:0,0:0:0:0:
44,174,83326,5,0,3:0:0:0:
108,165,83401,1,0,3:0:0:0:
165,194,83477,1,0,3:0:0:0:
196,251,83553,1,0,3:0:0:0:
189,315,83629,2,0,P|199:344|225:358,3,52.5,2|0|0|0,1:0|0:0|0:0|0:0,0:0:0:0:
300,333,83932,5,0,0:0:0:0:
338,338,84007,1,0,0:0:0:0:
372,321,84083,1,2,0:0:0:0:
391,286,84159,1,2,0:0:0:0:
387,247,84235,6,0,P|393:229|424:212,3,52.5,0|0|0|0,3:2|3:0|3:0|3:0,0:0:0:0:
431,132,84538,2,0,P|449:128|479:146,1,52.5,0|0,1:0|0:0,0:0:0:0:
311,161,84689,5,0,3:2:0:0:
311,161,84765,1,0,3:2:0:0:
311,161,84841,1,2,3:2:0:0:
349,126,84916,1,0,3:2:0:0:
359,75,84992,1,0,3:2:0:0:
335,29,85068,1,0,3:2:0:0:
288,8,85144,6,0,P|296:38|288:60,3,52.5,0|0|0|0,1:0|3:0|3:0|3:0,0:0:0:0:
182,59,85447,5,0,1:0:0:0:
137,66,85523,1,2,3:0:0:0:
95,70,85598,1,2,3:0:0:0:
73,110,85674,1,2,3:0:0:0:
50,149,85750,1,0,1:0:0:0:
95,141,85826,1,2,3:0:0:0:
137,137,85901,1,2,3:0:0:0:
158,98,85977,1,2,3:0:0:0:
182,59,86053,6,0,P|204:0|268:0,1,136.499993751526,2|0,0:0|0:0,0:0:0:0:
367,191,86280,1,0,0:0:0:0:
367,191,86356,2,0,P|367:111|255:127,1,204.749990627289,0|0,1:0|0:0,0:0:0:0:
258,214,86659,5,0,3:0:0:0:
257,226,86734,1,0,3:0:0:0:
256,238,86810,1,0,3:0:0:0:
255,250,86886,1,0,3:0:0:0:
254,267,86962,5,2,3:0:0:0:
202,281,87038,1,2,3:0:0:0:
157,254,87114,1,2,3:0:0:0:
143,202,87190,1,2,3:0:0:0:
170,156,87265,6,0,P|155:115|118:106,1,78.7500030040742,2|0,0:0|0:0,0:0:0:0:
40,192,87568,5,2,3:0:0:0:
37,177,87643,1,2,3:0:0:0:
34,162,87719,1,2,3:0:0:0:
31,148,87795,1,2,3:0:0:0:
29,133,87871,2,2,L|19:81,3,39.3750015020371,2|2|2|2,3:3|3:3|3:3|3:3,3:2:0:0:
49,13,88174,5,2,0:0:0:0:
83,0,88249,1,2,0:0:0:0:
121,6,88325,1,2,0:0:0:0:
142,38,88401,1,2,0:0:0:0:
171,115,88477,6,0,P|243:127|250:-12,1,236.250009012223,6|0,0:0|0:0,0:0:0:0:
254,158,88780,5,0,1:0:0:0:
248,196,88855,1,0,3:0:0:0:
268,228,88931,1,0,3:0:0:0:
305,240,89007,1,0,3:0:0:0:
340,225,89083,1,0,1:0:0:0:
375,210,89159,1,0,3:0:0:0:
412,222,89235,1,0,3:0:0:0:
432,254,89311,1,0,3:0:0:0:
426,292,89387,1,0,1:0:0:0:
420,330,89462,1,0,3:0:0:0:
440,362,89538,1,0,3:0:0:0:
477,374,89614,1,0,3:0:0:0:
512,359,89689,6,0,P|525:317|497:290,3,68.2499968757631,2|0|0|0,1:2|3:0|3:0|3:0,0:0:0:0:
294,255,89992,2,0,P|323:287|361:276,1,68.2499968757631,0|0,1:0|0:0,0:0:0:0:
412,222,90144,5,0,3:0:0:0:
412,222,90220,1,0,3:0:0:0:
412,222,90295,1,2,3:2:0:0:
460,219,90371,1,0,3:0:0:0:
493,184,90447,1,0,3:0:0:0:
490,136,90523,1,0,3:0:0:0:
455,104,90598,5,0,1:2:0:0:
429,80,90674,1,0,3:0:0:0:
427,43,90750,1,0,3:0:0:0:
452,17,90826,1,0,3:0:0:0:
488,15,90901,6,0,P|496:110|393:142,1,204.749990627289,2|0,1:2|0:0,0:0:0:0:
340,109,91204,5,2,1:2:0:0:
299,113,91280,1,2,3:0:0:0:
258,119,91356,1,2,3:0:0:0:
217,125,91432,1,2,3:0:0:0:
177,130,91508,2,0,L|161:210,1,68.2499968757631,0|0,1:2|0:0,0:0:0:0:
149,303,91659,5,2,0:0:0:0:
161,293,91735,1,2,0:0:0:0:
173,283,91811,2,0,L|189:363,1,68.2499968757631,0|0,1:0|0:0,0:0:0:0:
326,340,91962,5,2,0:0:0:0:
338,350,92038,1,2,0:0:0:0:
350,360,92114,2,0,L|366:280,1,68.2499968757631,2|0,1:2|0:0,0:0:0:0:
384,211,92265,2,0,L|400:131,1,68.2499968757631,2|0,0:0|0:0,0:0:0:0:
313,9,92417,5,2,1:2:0:0:
297,15,92492,1,2,3:0:0:0:
281,21,92568,1,2,3:0:0:0:
265,28,92644,1,2,3:0:0:0:
246,37,92720,5,2,1:2:0:0:
312,51,92795,1,2,0:2:0:0:
379,66,92871,1,2,0:2:0:0:
445,81,92947,1,2,0:2:0:0:
512,96,93023,6,2,L|540:25,1,68.2499968757631,2|2,1:2|0:2,0:2:0:0:
384,211,93174,2,0,L|398:277,1,68.2499968757631,0|0,1:0|0:0,0:0:0:0:
501,339,93326,6,0,L|300:298,1,204.749990627289,6|0,0:0|0:0,0:0:0:0:
250,222,93629,5,2,1:2:0:0:
216,221,93705,1,2,3:0:0:0:
188,240,93781,1,2,3:0:0:0:
175,271,93857,1,2,3:0:0:0:
182,304,93932,2,0,P|150:355|69:335,1,136.499993751526,2|0,0:0|0:0,0:0:0:0:
17,299,94159,5,0,0:0:0:0:
13,312,94235,2,0,P|17:256|69:245,1,68.2499968757631,0|0,1:0|0:0,0:0:0:0:
254,61,94386,1,2,0:0:0:0:
254,61,94462,1,2,0:0:0:0:
254,61,94538,6,0,P|247:3|213:-11,1,68.2499968757631,0|0,1:0|0:0,0:0:0:0:
199,140,94689,2,0,P|173:117|140:118,1,68.2499968757631,0|0,1:0|0:0,0:0:0:0:
299,297,94841,6,0,P|297:258|272:230,1,78.7500030040742,0|0,1:0|0:0,0:0:0:0:
352,384,94992,2,0,P|384:363|398:327,1,78.7500030040742,0|0,1:0|0:0,0:0:0:0:
376,173,95144,6,0,P|405:140|409:96,1,89.2500017023087,0|0,1:0|0:0,0:0:0:0:
510,70,95295,2,0,P|493:24|451:1,1,89.2500017023087,0|0,1:0|0:0,0:0:0:0:
291,140,95447,6,0,P|284:91|251:56,1,99.7499973363877,0|0,1:0|0:0,0:0:0:0:
428,251,95598,2,0,P|477:243|512:210,1,99.7499973363877,0|0,1:0|0:0,0:0:0:0:
230,234,95750,5,2,3:0:0:0:
224,233,95825,1,2,3:0:0:0:
218,232,95901,1,2,3:0:0:0:
212,231,95977,1,2,3:0:0:0:
206,230,96053,1,2,3:0:0:0:
200,229,96128,1,2,3:0:0:0:
194,228,96204,1,2,3:0:0:0:
188,227,96280,1,2,3:0:0:0:
182,226,96356,1,2,3:0:0:0:
176,225,96431,1,2,3:0:0:0:
170,224,96507,1,2,3:0:0:0:
164,222,96583,1,2,3:0:0:0:
158,221,96659,1,2,3:0:0:0:
152,220,96734,1,2,3:0:0:0:
146,219,96810,1,2,3:0:0:0:
140,218,96886,1,2,3:0:0:0:
134,217,96962,1,2,3:0:0:0:
128,216,97037,1,2,3:0:0:0:
122,215,97113,1,2,3:0:0:0:
116,214,97189,1,2,3:0:0:0:
110,213,97265,1,2,3:0:0:0:
104,212,97340,1,2,3:0:0:0:
98,210,97416,1,2,3:0:0:0:
92,209,97492,1,2,3:0:0:0:
86,208,97568,1,2,3:0:0:0:
80,207,97643,1,2,3:0:0:0:
74,206,97719,1,2,3:0:0:0:
68,205,97795,1,2,3:0:0:0:
62,204,97871,1,2,3:0:0:0:
56,203,97946,1,2,3:0:0:0:
50,202,98022,1,2,3:0:0:0:
44,201,98098,1,2,3:0:0:0:
7,140,98174,6,2,B|199:-2|199:-2|-19:372|-19:372|282:162,1,955.499956260683,2|0,1:0|0:0,2:0:0:0:
262,104,98780,6,0,B|251:120|251:120|333:192|281:301,1,210,10|0,0:0|0:0,0:0:0:0:
432,172,99008,2,0,B|428:191|428:191|319:185|281:300,1,210,2|0,0:0|0:0,0:0:0:0:
354,107,99235,6,0,P|370:79|358:111,1,105,2|0,0:0|0:0,0:0:0:0:
388,323,99386,6,0,B|397:355|397:355|481:387|481:387|525:353|525:353|521:288|521:288|392:235|392:235|367:241,1,409.499981254579,2|0,1:2|0:0,0:0:0:0:
297,319,99689,6,0,B|297:332|297:332|256:367,1,68.2499968757631,2|0,3:0|0:0,0:0:0:0:
302,307,99765,2,0,B|313:299|313:299|364:318,1,68.2499968757631,2|0,3:0|0:0,0:0:0:0:
290,308,99841,2,0,B|277:302|277:302|268:248,1,68.2499968757631,2|0,3:0|0:0,0:0:0:0:
512,56,99992,6,0,B|368:-8|368:-8|352:56|352:56|432:136|432:136|496:72,1,409.499981254579,10|0,0:0|0:0,0:0:0:0:
436,173,100295,6,0,P|431:153|418:139,1,39.3750015020371,2|0,0:0|0:0,0:0:0:0:
435,191,100371,6,0,P|453:196|472:192,1,39.3750015020371,2|0,2:0|2:0,2:0:0:0:
419,181,100447,6,0,P|404:194|398:212,2,39.3750015020371,2|2|2,2:0|2:0|2:0,2:0:0:0:
463,301,100598,6,0,L|387:323,1,78.75,0|0,1:0|0:0,0:0:0:0:
162,365,100901,6,0,B|190:343|190:343|168:217,1,157.5,2|0,0:0|0:0,0:0:0:0:
177,82,101053,2,0,B|148:103|148:103|170:229,1,157.5,2|0,0:0|0:0,0:0:0:0:
311,235,101204,6,0,L|-9:203,1,283.499991348267,10|0,0:0|0:0,0:0:0:0:
32,293,101508,6,0,P|31:317|41:340,1,47.2499985580445,2|0,0:0|0:0,0:0:0:0:
45,298,101583,6,0,P|56:319|76:334,1,47.2499985580445,2|0,0:0|0:0,0:0:0:0:
57,293,101659,6,0,P|77:305|102:308,1,47.2499985580445,2|0,0:0|0:0,0:0:0:0:
187,164,101811,6,0,P|206:3|113:135,1,440.999986541748,2|0,1:2|0:0,0:0:0:0:
71,215,102417,2,0,P|93:374|1:242,1,440.999986541748,2|0,1:2|0:0,0:0:0:0:
5,140,103023,6,0,B|111:121|111:121|113:117|113:117|267:90|267:90|276:92|276:92|410:69,1,409.499981254579,2|0,1:0|0:0,0:0:0:0:
436,66,103326,6,0,L|375:14,1,52.5,2|0,3:0|3:0,3:0:0:0:
442,50,103401,2,0,L|517:22,1,52.5,2|0,3:0|3:0,3:0:0:0:
451,64,103477,2,0,L|434:179,1,105,2|0,3:0|3:0,3:0:0:0:
265,309,103629,6,0,B|236:335|236:335|300:301,1,105,8|0,0:0|0:0,0:0:0:0:
415,307,103780,2,0,L|405:255,1,52.5,2|0,3:0|0:0,0:0:0:0:
418,320,103856,2,0,L|427:371,1,52.5,2|0,3:0|0:0,0:0:0:0:
512,354,103932,6,0,B|503:307|503:307|283:268|283:268|265:309,1,315,2|0,0:0|0:0,0:0:0:0:
156,380,104235,6,0,B|138:329|81:328|81:328|59:202,1,210,2|0,1:2|0:0,0:0:0:0:
47,87,104538,6,0,L|110:99,2,52.5,2|2|2,3:0|3:0|3:0,3:0:0:0:
43,65,104689,2,0,L|32:2,1,52.5,2|0,0:0|0:0,0:0:0:0:
0,220,104841,5,10,0:0:0:0:
30,253,104917,1,2,3:0:0:0:
70,233,104992,1,2,3:0:0:0:
96,265,105068,1,2,3:0:0:0:
136,245,105144,1,2,3:0:0:0:
166,278,105220,1,2,3:0:0:0:
206,257,105295,1,2,3:0:0:0:
237,290,105371,1,2,3:0:0:0:
275,271,105447,6,0,B|256:320|256:320|355:278|355:278|384:224|384:224|334:189|334:189|279:202,1,315,2|0,1:0|0:0,0:0:0:0:
246,85,105750,5,2,0:0:0:0:
235,44,105851,1,2,0:0:0:0:
275,56,105952,1,2,0:0:0:0:
210,73,106053,5,10,0:0:0:0:
265,21,106154,1,2,0:0:0:0:
281,93,106255,1,2,0:0:0:0:
223,28,106356,5,2,0:0:0:0:
295,49,106457,1,2,0:0:0:0:
241,99,106558,1,2,0:0:0:0:
384,35,106659,6,0,L|114:94,1,275.62501051426,0|0,1:0|0:0,0:0:0:0:
0,156,107265,6,0,P|80:182|88:276,1,183.75,2|0,0:0|0:0,0:0:0:0:
78,346,107871,5,0,1:0:0:0:
65,349,108174,1,0,1:0:0:0:
53,353,108477,1,0,1:0:0:0:
41,357,108780,1,0,1:0:0:0:
229,106,109083,5,0,1:0:0:0:
241,110,109386,1,0,1:0:0:0:
0,42,109689,6,0,B|1:68|1:68|130:116|130:116|166:42|166:42|211:15,1,283.499991348267,2|0,0:0|0:0,0:0:0:0:
72,135,109992,5,2,0:0:0:0:
74,146,110067,1,2,0:0:0:0:
76,158,110143,1,2,0:0:0:0:
79,169,110219,1,2,0:0:0:0:
83,184,110295,6,0,P|147:208|196:254,1,125.999996154785,0|0,1:0|0:0,0:0:0:0:
287,61,110598,2,0,P|234:104|169:123,1,125.999996154785,0|0,1:0|0:0,0:0:0:0:
285,316,110901,2,0,P|273:248|289:183,1,125.999996154785,0|0,1:0|0:0,0:0:0:0:
180,0,111204,6,0,P|191:67|175:132,1,125.999996154785,0|0,1:0|0:0,0:0:0:0:
391,254,111507,2,0,P|327:230|278:184,1,125.999996154785,0|0,1:0|0:0,0:0:0:0:
82,307,111810,2,0,P|134:263|199:244,1,125.999996154785,0|0,1:0|0:0,0:0:0:0:
450,106,112114,6,0,B|444:137|444:137|451:128|451:128|442:153|442:153|398:405,1,283.499991348267,2|0,0:0|0:0,0:0:0:0:
275,324,112417,5,2,0:0:0:0:
284,284,112492,1,2,0:0:0:0:
312,255,112568,1,2,0:0:0:0:
352,244,112644,1,2,0:0:0:0:
391,254,112720,5,2,1:2:0:0:
210,382,112871,1,0,1:0:0:0:
197,166,113023,2,0,L|179:95,2,62.9999980773926,0|0|0,1:0|1:0|1:0,1:0:0:0:
345,318,113326,5,0,1:0:0:0:
124,338,113477,1,0,1:0:0:0:
220,144,113629,2,0,L|239:73,2,62.9999980773926,0|0|0,1:0|1:0|1:0,1:0:0:0:
270,345,113932,5,0,1:0:0:0:
68,252,114083,1,0,1:0:0:0:
249,133,114235,2,0,L|301:82,2,62.9999980773926,0|0|0,1:0|1:0|1:0,1:0:0:0:
191,332,114538,5,0,1:0:0:0:
63,150,114689,1,0,1:0:0:0:
279,138,114841,2,8,L|350:120,2,62.9999980773926,0|0|0,1:0|1:0|1:0,1:0:0:0:
0,214,115144,6,0,L|71:232,1,62.9999980773926,0|0,1:0|0:0,0:0:0:0:
58,254,115295,2,0,L|129:236,1,62.9999980773926,0|0,1:0|0:0,0:0:0:0:
142,173,115447,6,0,L|213:155,1,62.9999980773926,0|0,1:0|0:0,0:0:0:0:
208,237,115598,2,0,L|279:255,1,62.9999980773926,0|0,1:0|0:0,0:0:0:0:
247,86,115750,6,0,L|318:104,1,62.9999980773926,0|0,1:0|0:0,0:0:0:0:
295,333,115901,2,0,L|366:315,1,62.9999980773926
373,50,116053,6,0,L|444:32,1,62.9999980773926,0|0,1:0|0:0,0:0:0:0:
425,371,116204,2,0,L|496:353,1,62.9999980773926
444,195,116356,5,0,1:0:0:0:
388,185,116431,1,0,1:0:0:0:
334,175,116507,1,0,1:0:0:0:
280,166,116583,1,0,1:0:0:0:
226,156,116659,1,0,1:0:0:0:
172,147,116734,1,0,1:0:0:0:
118,137,116810,1,0,1:0:0:0:
63,127,116886,1,0,1:0:0:0:
9,118,116962,6,0,L|-5:70,14,31.4999990386963,0|0|0|0|0|0|0|0|0|0|0|0|0|0|0,1:0|3:0|3:0|3:0|3:0|3:0|3:0|3:0|3:0|3:0|3:0|3:0|3:0|3:0|3:0,3:0:0:0:
83,350,117568,6,0,P|55:307|4:302,1,105,12|0,1:2|0:0,0:0:0:0:
487,7,119689,6,0,L|478:52,1,47.2499985580445,12|0,0:0|0:0,0:0:0:0:
488,184,119992,6,0,P|461:96|375:64,1,188.999994232178,6|0,0:0|0:0,0:0:0:0:
193,104,120220,5,0,1:0:0:0:
199,120,120295,2,0,B|173:44|261:-19|326:8|326:8|286:39|305:92,1,283.499991348267,0|0,1:0|0:0,0:0:0:0:
250,212,120598,6,0,P|190:139|101:113,1,188.999994232178,2|0,1:2|0:0,0:0:0:0:
47,31,120826,6,0,P|75:109|98:239,1,188.999994232178,2|0,1:2|0:0,0:0:0:0:
33,296,121053,2,0,P|56:253|119:252,1,94.499997116089,2|0,1:2|0:0,0:0:0:0:
187,340,121204,6,0,L|-37:308,1,188.999994232178,2|0,1:2|0:0,0:0:0:0:
321,215,121432,5,2,0:0:0:0:
332,203,121508,2,0,B|237:186|237:186|204:375,1,283.499991348267,2|0,1:2|0:0,0:0:0:0:
472,232,121811,6,0,B|414:244|414:244|382:308|382:308|326:323,1,188.999994232178,2|0,1:2|0:0,0:0:0:0:
203,196,122038,6,0,B|123:153|123:153|207:99,1,188.999994232178,2|0,1:2|0:0,0:0:0:0:
356,100,122265,2,0,L|374:7,1,94.499997116089,2|0,1:2|0:0,0:0:0:0:
457,106,122417,6,0,L|263:149,1,188.999994232178,6|0,1:2|0:0,0:0:0:0:
203,196,122644,6,0,L|181:292,1,94.499997116089,2|0,1:2|0:0,0:0:0:0:
386,254,122871,6,0,L|364:350,1,94.499997116089,2|0,1:2|1:0,1:0:0:0:
294,380,123023,2,0,L|478:339,1,188.999994232178,2|0,1:2|0:0,0:0:0:0:
488,318,123250,6,0,L|509:221,1,94.499997116089,2|0,1:2|0:0,0:0:0:0:
356,100,123477,6,0,L|377:3,1,94.499997116089,2|0,1:2|0:0,0:0:0:0:
310,236,123629,6,0,P|360:219|368:169,1,94.499997116089,2|0,1:2|0:0,0:0:0:0:
470,167,123780,2,0,P|481:115|441:83,1,94.499997116089,2|0,1:2|0:0,0:0:0:0:
249,72,123932,6,0,P|274:113|286:158,1,94.499997116089,2|0,1:2|0:0,0:0:0:0:
375,379,124083,6,0,P|302:261|164:232,1,283.499991348267,6|0,0:0|0:0,0:0:0:0:
103,279,124386,5,2,0:0:0:0:
91,253,124461,1,2,0:0:0:0:
89,225,124537,1,2,0:0:0:0:
98,198,124613,1,2,0:0:0:0:
116,176,124689,1,2,0:0:0:0:
140,162,124764,1,2,0:0:0:0:
225,147,124841,6,0,P|133:122|44:90,1,188.999994232178,6|0,0:0|0:0,0:0:0:0:
31,15,125068,5,0,1:0:0:0:
39,7,125144,2,0,P|88:30|81:75,1,94.499997116089,2|0,1:2|0:0,0:0:0:0:
190,22,125295,2,0,P|194:75|152:92,1,94.499997116089,2|0,1:2|0:0,0:0:0:0:
1,185,125447,6,0,P|56:206|92:237,1,94.499997116089,2|0,1:2|0:0,0:0:0:0:
191,216,125598,2,0,P|200:274|191:320,1,94.499997116089,2|0,0:0|0:0,0:0:0:0:
297,351,125750,6,0,P|296:304|321:264,1,94.499997116089,2|0,1:2|0:0,0:0:0:0:
413,294,125901,2,0,P|413:340|388:380,1,94.499997116089,2|0,0:0|0:0,0:0:0:0:
210,322,126053,6,0,L|-6:354,1,188.999994232178,6|0,0:0|0:0,0:0:0:0:
30,326,126280,1,0,1:0:0:0:
30,326,126356,2,0,P|70:258|-6:192,1,188.999994232178,0|0,1:0|0:0,0:0:0:0:
167,21,126583,1,0,1:0:0:0:
167,21,126659,2,0,P|88:20|68:119,1,188.999994232178,0|0,1:0|0:0,0:0:0:0:
70,215,126886,5,2,0:2:0:0:
75,207,126962,1,2,1:2:0:0:
114,180,127037,1,2,0:2:0:0:
156,160,127113,1,2,0:2:0:0:
202,146,127189,1,2,0:2:0:0:
247,139,127265,6,0,P|255:108|273:82,3,62.9999980773926,2|2|2|2,1:2|0:0|0:0|0:0,0:0:0:0:
331,136,127568,5,2,1:2:0:0:
356,149,127643,1,2,0:0:0:0:
369,174,127719,1,2,0:0:0:0:
368,202,127795,1,2,0:0:0:0:
319,260,127871,6,0,P|340:281|379:283,3,62.9999980773926,2|2|2|2,1:2|0:0|0:0|0:0,0:0:0:0:
198,313,128174,5,2,1:2:0:0:
215,236,128249,1,2,0:0:0:0:
263,174,128325,1,2,0:0:0:0:
331,137,128401,1,2,0:0:0:0:
409,131,128477,6,0,P|489:124|394:39,1,283.499991348267,6|0,0:0|0:0,0:0:0:0:
179,200,128780,6,0,P|177:244|136:263,1,94.499997116089,0|0,1:0|0:0,0:0:0:0:
195,119,128932,1,0,1:0:0:0:
195,119,129008,1,0,1:0:0:0:
195,119,129083,2,0,P|156:95|160:50,1,94.499997116089
263,174,129235,2,0,P|302:152|339:178,1,94.499997116089,0|0,1:0|0:0,0:0:0:0:
277,370,129386,6,0,P|269:311|255:254,1,118.125004506111,0|0,1:0|0:0,0:0:0:0:
269,36,129689,6,0,B|348:4|405:92|344:94|404:162|493:135,1,252,6|0,0:0|0:0,0:0:0:0:
456,61,129992,6,0,P|491:38|498:-1,1,84,0|0,1:0|0:0,0:0:0:0:
302,110,130144,1,2,0:0:0:0:
302,110,130220,1,2,0:0:0:0:
302,110,130295,6,0,P|274:128|269:153,1,42,2|0,1:2|0:0,0:0:0:0:
143,224,130523,6,0,P|172:239|196:231,1,42,2|0,1:2|0:2,0:0:0:0:
323,293,130750,6,0,P|321:259|302:242,1,42,2|0,1:2|0:0,0:0:0:0:
196,69,130901,6,0,P|194:159|261:181,1,168,2|0,1:2|0:0,0:0:0:0:
384,185,131129,2,0,P|307:138|254:185,1,168,2|0,1:2|0:0,0:0:0:0:
223,237,131356,2,0,P|259:221|256:182,1,84,2|0,1:2|0:0,0:0:0:0:
70,5,131508,6,0,P|153:48|245:64,1,188.999994232178,2|0,1:2|0:0,0:0:0:0:
36,244,131735,2,0,P|32:149|0:61,1,188.999994232178,2|0,1:2|0:0,0:0:0:0:
190,141,131962,2,0,P|148:160|118:196,1,94.499997116089,2|0,1:2|0:0,0:0:0:0:
63,352,132114,6,0,L|459:300,1,377.999988464356,6|0,0:0|0:0,0:0:0:0:
335,340,132568,5,4,3:0:0:0:
335,340,132644,1,4,3:0:0:0:
335,340,132720,2,0,P|308:278|397:190,1,188.999994232178,6|0,0:0|0:0,0:0:0:0:
110,86,132947,2,0,P|176:94|208:215,1,188.999994232178,2|0,1:2|0:0,0:0:0:0:
395,51,133174,2,0,P|365:85|319:84,1,94.499997116089,2|0,1:2|0:0,0:0:0:0:
126,286,133326,6,0,P|211:246|303:224,1,188.999994232178,2|0,1:2|0:0,0:0:0:0:
512,61,133553,2,0,P|420:39|334:0,1,188.999994232178,2|0,1:2|0:0,0:0:0:0:
215,47,133780,6,0,P|239:91|237:146,1,94.499997116089,2|0,1:2|0:0,0:0:0:0:
110,86,133932,2,0,P|108:136|79:182,1,94.499997116089,2|0,0:0|0:0,0:0:0:0:
61,248,134083,5,2,1:2:0:0:
58,320,134158,1,2,0:0:0:0:
126,286,134235,1,2,1:2:0:0:
129,275,134310,1,2,0:0:0:0:
132,263,134386,1,2,1:2:0:0:
134,252,134462,1,2,0:0:0:0:
203,202,134538,6,0,L|7:256,1,188.999994232178,6|0,0:0|0:0,0:0:0:0:
14,110,134765,1,0,1:0:0:0:
19,98,134841,2,0,P|62:109|76:155,1,94.499997116089,0|0,1:0|0:0,0:0:0:0:
224,284,134992,2,0,P|267:272|281:227,1,94.499997116089,2|0,1:2|0:0,0:0:0:0:
196,43,135144,6,0,P|212:115|244:123,1,94.499997116089,2|0,1:2|0:0,0:0:0:0:
307,98,135295,2,0,P|291:26|259:18,1,94.499997116089,2|0,0:0|0:0,0:0:0:0:
391,287,135447,6,0,B|365:311|365:311|419:282,1,94.499997116089,2|0,1:2|0:0,0:0:0:0:
512,222,135598,1,2,0:0:0:0:
443,199,135673,1,2,0:0:0:0:
373,178,135749,1,2,1:2:0:0:
512,94,135901,6,0,P|447:4|434:114,1,283.499991348267,6|0,0:0|0:0,0:0:0:0:
484,367,136204,6,0,B|397:402|334:305|401:303|335:228|237:258,1,283.499991348267,6|0,0:0|0:0,0:0:0:0:
212,0,136508,6,0,P|251:54|254:97,1,94.499997116089,2|0,1:2|0:0,0:0:0:0:
178,293,136659,5,2,0:0:0:0:
169,247,136734,1,2,0:0:0:0:
185,203,136810,1,2,0:0:0:0:
221,173,136886,1,2,0:0:0:0:
267,165,136962,6,0,P|370:134|354:62,1,188.999994232178,6|0,0:0|0:0,0:0:0:0:
347,58,137189,1,0,1:0:0:0:
347,58,137265,1,0,1:0:0:0:
30,285,137417,6,0,P|169:311|303:355,1,283.499991348267,6|0,0:0|0:0,0:0:0:0:
494,102,137720,1,0,1:0:0:0:
494,102,137795,1,0,1:0:0:0:
494,102,137871,2,0,P|359:146|220:172,1,283.499991348267,2|0,1:2|0:0,0:0:0:0:
368,292,138174,6,0,P|420:247|412:206,1,94.499997116089,0|0,1:0|0:0,0:0:0:0:
127,79,138326,2,0,P|115:183|291:271,1,283.499991348267,2|0,0:0|0:0,0:0:0:0:
312,200,138629,5,2,1:2:0:0:
312,200,138704,1,2,1:2:0:0:
312,200,138780,2,0,P|355:141|282:47,1,188.999994232178,2|0,1:2|0:0,0:0:0:0:
188,0,139008,2,0,P|213:90|228:184,1,188.999994232178,2|0,1:2|0:0,0:0:0:0:
172,241,139235,6,0,P|182:284|226:295,1,94.499997116089,0|0,1:0|0:0,0:0:0:0:
361,281,139386,6,0,P|351:324|307:335,1,94.499997116089,0|0,1:0|0:0,0:0:0:0:
437,217,139538,2,0,P|469:247|456:290,1,94.499997116089,0|0,1:0|0:0,0:0:0:0:
256,142,139689,6,0,P|266:185|310:196,1,94.499997116089
180,77,139841,2,0,P|147:107|160:150,1,94.499997116089,0|0,1:0|0:0,0:0:0:0:
425,56,139992,6,0,P|415:99|371:110,1,94.499997116089,0|0,1:0|0:0,0:0:0:0:
491,9,140144,2,0,P|523:39|510:82,1,94.499997116089,0|0,1:0|0:0,0:0:0:0:
361,282,140295,6,0,P|351:239|307:228,1,94.499997116089,0|0,1:0|0:0,0:0:0:0:
436,365,140447,2,0,P|468:334|455:291,1,94.499997116089,0|0,1:0|0:0,0:0:0:0:
256,142,140598,5,2,0:0:0:0:
256,142,140750,2,2,L|262:106,5,26.25
107,174,141204,5,0,1:0:0:0:
146,170,141280,1,0,1:0:0:0:
185,166,141356,1,0,1:0:0:0:
225,162,141432,1,0,1:0:0:0:
264,158,141507,1,0,1:0:0:0:
303,154,141583,1,0,1:0:0:0:
342,150,141659,1,0,1:0:0:0:
381,146,141735,1,0,1:0:0:0:
422,142,141811,6,0,B|441:151|441:151|482:356,1,231.000007049561,6|0,0:0|0:0,0:0:0:0:
183,331,142114,6,0,B|239:356|239:356|168:342,1,115.50000352478,0|0,0:0|0:0,0:0:0:0:
12,306,142265,6,0,B|52:314|52:314|71:362|71:362|41:231|41:231|84:194,1,262.5,10|0,0:2|0:0,0:0:0:0:
82,198,142568,2,0,B|122:206|122:206|141:254|141:254|111:123|111:123|154:86,1,262.5,10|0,0:0|0:0,0:0:0:0:
161,90,142871,6,0,B|189:95|189:95|201:129|201:129|181:38|181:38|210:13,1,183.750001752377,10|0,0:2|0:0,0:0:0:0:
34,13,143023,6,0,B|94:34|94:34|87:100|87:100|231:156,1,262.5,0|0,1:2|1:0,0:0:0:0:
380,128,143477,6,0,B|399:55|399:55|367:87|367:87|377:140,1,157.500006008148,10|0,0:0|0:0,0:0:0:0:
471,232,143629,6,0,B|520:146|520:146|497:161|497:161|460:225|460:225|416:245,1,236.250009012223,10|0,0:2|0:0,0:0:0:0:
396,270,143780,2,0,B|445:184|445:184|422:199|422:199|385:263|385:263|341:283,1,236.250009012223,8|0,0:0|0:0,0:0:0:0:
320,307,143932,2,0,B|369:221|369:221|346:236|346:236|309:300|309:300|265:320,1,236.250009012223,10|0,0:2|0:0,0:0:0:0:
243,346,144083,2,0,B|292:260|292:260|269:275|269:275|232:339|232:339|188:359,1,236.250009012223,10|0,0:0|0:0,0:0:0:0:
56,276,144235,5,0,1:2:0:0:
103,370,144386,1,2,0:0:0:0:
103,370,144462,1,2,0:0:0:0:
103,370,144538,2,0,L|49:39,1,315,0|0,1:0|0:0,0:0:0:0:
263,53,144841,6,0,B|271:28|271:28|251:7|251:7|261:55,1,105,0|0,1:0|0:0,0:0:0:0:
147,116,144992,6,0,B|167:82|167:82|387:121|387:121|367:173|414:214,1,346.500010574341,2|0,0:0|0:0,0:0:0:0:
399,352,145295,6,0,L|460:11,1,346.500010574341,10|0,0:0|0:0,0:0:0:0:
457,147,145598,2,0,B|540:181|540:181|291:256,1,346.500010574341,10|0,0:0|0:0,0:0:0:0:
276,263,145901,1,2,0:0:0:0:
118,369,146053,6,0,P|110:261|6:233,1,231.000007049561,10|2,0:0|0:0,0:0:0:0:
26,62,146356,6,0,P|42:126|106:126,1,115.50000352478,10|0,1:2|0:0,0:0:0:0:
163,87,146508,2,0,P|172:32|127:0,1,115.50000352478,10|0,1:2|0:0,0:0:0:0:
131,225,146659,6,0,B|149:212|149:212|381:253,1,231.000007049561,6|0,0:0|0:0,0:0:0:0:
354,248,146962,6,0,B|437:263|437:263|471:228,1,115.50000352478,10|0,0:0|0:0,0:0:0:0:
133,361,147114,6,0,B|114:342|114:342|120:237|120:237|86:337|86:337|63:348,1,262.5,10|0,0:0|0:0,0:0:0:0:
101,264,147417,2,0,B|82:245|82:245|88:140|88:140|54:240|54:240|31:251,1,262.5,10|0,0:0|0:0,0:0:0:0:
71,136,147720,6,0,B|57:122|57:122|62:48|62:48|38:119|38:119|21:127,1,183.750001752377,10|0,0:0|0:0,0:0:0:0:
133,361,147871,6,0,B|193:339|193:339|201:268|201:268|351:213,1,262.5,2|2,1:2|0:0,0:0:0:0:
498,140,148326,6,0,B|484:218|484:218|502:205|502:205|510:158|510:158|497:140,1,157.500006008148,10|0,0:0|0:0,0:0:0:0:
486,3,148477,6,0,B|386:20|386:20|410:161,1,236.250009012223,10|0,0:0|0:0,0:0:0:0:
408,153,148629,2,0,B|303:170|303:170|278:24,1,236.250009012223,10|0,0:0|0:0,0:0:0:0:
281,42,148780,2,0,B|176:61|176:61|203:207,1,236.250009012223,10|0,0:0|0:0,0:0:0:0:
199,189,148932,2,0,B|94:206|94:206|69:60,1,236.250009012223,10|0,0:0|0:0,0:0:0:0:
69,54,149083,5,0,1:0:0:0:
40,196,149235,1,2,0:0:0:0:
40,196,149311,1,2,0:0:0:0:
40,196,149386,1,2,1:2:0:0:
46,234,149461,1,2,0:0:0:0:
52,273,149537,1,2,0:0:0:0:
58,312,149613,1,2,0:0:0:0:
127,332,149689,6,0,P|174:317|192:268,1,105,10|0,1:2|0:0,0:0:0:0:
420,317,149841,2,0,P|284:253|277:103,1,315,2|0,0:0|0:0,0:0:0:0:
47,96,150144,6,0,P|75:13|134:149,1,346.500010574341,10|0,0:0|0:0,0:0:0:0:
76,267,150447,2,0,P|238:204|409:181,1,346.500010574341,10|0,0:0|0:0,0:0:0:0:
444,248,150750,2,0,P|484:209|481:154,1,115.50000352478,10|0,0:0|0:0,0:0:0:0:
333,34,150901,5,6,0:0:0:0:
314,45,150976,1,2,0:0:0:0:
302,62,151052,1,2,0:0:0:0:
297,83,151128,1,2,0:0:0:0:
223,93,151204,5,2,0:0:0:0:
223,114,151279,1,2,0:0:0:0:
231,133,151355,1,2,0:0:0:0:
247,148,151431,1,2,0:0:0:0:
377,159,151508,6,0,P|265:177|180:253,1,231.000007049561,6|0,0:0|0:0,0:0:0:0:
65,316,151811,5,2,0:0:0:0:
47,311,151887,1,2,0:0:0:0:
36,298,151963,1,2,0:0:0:0:
35,281,152038,1,2,0:0:0:0:
77,210,152114,6,0,P|98:333|-5:384,1,231.000007049561,10|0,0:0|0:0,0:0:0:0:
177,174,152341,2,0,P|198:50|94:0,1,231.000007049561,10|0,0:0|0:0,0:0:0:0:
23,133,152568,2,0,P|79:125|125:90,1,115.50000352478,2|0,1:2|0:0,0:0:0:0:
241,40,152720,6,0,L|469:70,1,231.000007049561,6|0,0:0|0:0,0:0:0:0:
476,85,152947,1,2,0:0:0:0:
476,85,153023,1,2,0:0:0:0:
472,113,153098,1,2,0:0:0:0:
468,142,153174,1,2,0:0:0:0:
464,170,153250,1,2,0:0:0:0:
461,199,153326,6,0,P|405:259|380:157,1,231.000007049561,10|0,0:0|0:0,0:0:0:0:
164,302,153553,2,0,P|241:356|247:261,1,231.000007049561,10|0,0:0|0:0,0:0:0:0:
264,160,153780,2,0,P|246:124|256:162,1,115.50000352478,2|0,1:2|0:0,0:0:0:0:
451,118,153932,6,0,P|280:88|116:32,1,346.500010574341,12|0,0:0|0:0,0:0:0:0:
9,25,154235,6,0,P|28:45|30:74,1,57.7500017623902,10|0,0:0|0:0,0:0:0:0:
145,133,154386,2,0,P|136:160|113:176,1,57.7500017623902,10|0,0:0|0:0,0:0:0:0:
163,283,154689,6,0,P|135:289|109:277,1,57.7500017623902,10|0,0:0|0:0,0:0:0:0:
43,379,154992,6,0,P|23:358|21:329,1,57.7500017623902,10|0,0:0|0:0,0:0:0:0:
163,283,155295,6,0,P|171:255|194:239,1,57.7500017623902,10|0,0:0|0:0,0:0:0:0:
324,268,155598,6,0,P|351:261|377:273,1,57.7500017623902,10|0,0:0|0:0,0:0:0:0:
469,370,155749,1,2,3:0:0:0:
422,369,155825,1,2,3:0:0:0:
387,340,155901,1,2,3:0:0:0:
379,294,155976,1,2,3:0:0:0:
402,254,156052,1,2,3:0:0:0:
445,238,156128,1,2,3:0:0:0:
489,254,156204,1,2,3:0:0:0:
512,294,156280,1,2,3:0:0:0:
504,340,156355,5,10,1:2:0:0:
402,254,156508,1,2,0:0:0:0:
382,105,156659,2,0,P|400:65|473:61,1,105,2|0,0:0|0:0,0:0:0:0:
266,311,156811,5,10,0:0:0:0:
220,182,156962,1,2,0:0:0:0:
282,41,157115,2,0,P|317:15|382:48,1,105,2|0,0:0|0:0,0:0:0:0:
491,277,157265,6,0,P|347:309|379:181,1,315,10|0,0:0|0:0,0:0:0:0:
385,181,157568,1,8,0:0:0:0:
178,361,157720,6,0,P|182:226|307:275,1,315,10|0,0:0|0:0,0:0:0:0:
171,199,158023,5,2,0:0:0:0:
171,199,158098,1,2,0:0:0:0:
171,198,158174,6,0,P|170:146|141:103,1,105,10|0,0:0|0:0,0:0:0:0:
307,224,158401,6,0,P|262:250|239:296,1,105,10|0,0:0|0:0,0:0:0:0:
261,93,158629,6,0,P|306:118|357:115,1,105,10|0,0:0|0:0,0:0:0:0:
387,357,158780,6,0,L|77:300,1,315,6|0,0:0|0:0,0:0:0:0:
36,234,159083,6,0,P|26:209|5:194,1,52.5,10|0,0:0|0:0,0:0:0:0:
134,118,159235,2,0,P|137:92|127:68,1,52.5,10|0,0:0|0:0,0:0:0:0:
261,93,159538,6,0,P|285:83|300:62,1,52.5,10|0,0:0|0:0,0:0:0:0:
308,180,159689,2,0,P|311:230|351:263,1,105,2|0,1:2|0:0,0:0:0:0:
218,181,159841,2,0,P|172:158|124:176,1,105,2|0,1:2|0:0,0:0:0:0:
170,332,159992,6,0,L|479:275,1,315,6|0,0:0|0:0,0:0:0:0:
476,200,160295,6,0,P|485:175|506:160,1,52.5,10|0,0:0|0:0,0:0:0:0:
336,329,160447,2,0,P|345:353|366:368,1,52.5,10|10,0:0|0:0,0:0:0:0:
88,310,160750,6,0,P|97:285|118:270,1,52.5,10|0,0:0|0:0,0:0:0:0:
162,159,160901,1,2,0:0:0:0:
162,159,160977,1,2,0:0:0:0:
162,159,161053,1,2,0:0:0:0:
162,159,161129,1,2,0:0:0:0:
162,159,161204,5,2,1:2:0:0:
204,44,161305,5,2,0:0:0:0:
256,176,161407,5,2,0:0:0:0:
288,80,161508,5,2,1:2:0:0:
350,155,161609,5,2,0:0:0:0:
385,79,161710,5,2,0:0:0:0:
442,134,161811,6,0,P|457:172|488:200,2,83.9999974365235,2|2|2,1:2|0:0|0:0,0:0:0:0:
403,235,162114,6,2,L|365:247,3,39.3750015020371,2|2|2|2,1:2|0:0|0:0|0:0,0:0:0:0:
443,317,162417,5,2,3:2:0:0:
404,307,162492,1,2,3:2:0:0:
366,298,162568,1,2,3:2:0:0:
328,289,162644,1,2,3:2:0:0:
289,279,162720,6,0,L|272:151,1,105,2|0,3:2|0:0,0:0:0:0:
100,41,162871,1,2,3:2:0:0:
100,41,162947,1,2,3:2:0:0:
100,41,163023,2,0,L|86:145,1,105,2|0,3:2|3:2,3:2:0:0:
36,320,163174,5,2,3:2:0:0:
101,294,163249,1,2,3:2:0:0:
159,256,163325,1,2,3:2:0:0:
210,208,163401,1,2,3:2:0:0:
249,150,163477,1,2,3:2:0:0:
276,86,163552,1,2,3:2:0:0:
290,17,163628,5,6,3:2:0:0:
