osu file format v14

[General]
AudioFilename: BLACK or WHITE.mp3
AudioLeadIn: 0
PreviewTime: 52440
Countdown: 0
SampleSet: Normal
StackLeniency: 0.7
Mode: 1
LetterboxInBreaks: 0
WidescreenStoryboard: 0

[Editor]
DistanceSpacing: 1
BeatDivisor: 4
GridSize: 32
TimelineZoom: 2.5

[Metadata]
Title:BLACK or WHITE?
TitleUnicode:BLACK or WHITE?
Artist:BlackYooh vs. siromaru
ArtistUnicode:BlackYooh vs. siromaru
Creator:komasy
Version:Oni
Source:SOUND VOLTEX II -infinite infection-
Tags:SDVX KAC 2013 Yooh BlackY schranz nyanmi-1828 jubeat Qubell hardcore symphonic
BeatmapID:1073782
BeatmapSetID:504720

[Difficulty]
HPDrainRate:5
CircleSize:5
OverallDifficulty:5.5
ApproachRate:5
SliderMultiplier:1.4
SliderTickRate:1

[Events]
//Background and Video events
0,0,"black_white_patterns_lines_light_11374_1366x768.jpg",0,0
//Break Periods
2,31965,35154
2,73478,76667
//Storyboard Layer 0 (Background)
//Storyboard Layer 1 (Fail)
//Storyboard Layer 2 (Pass)
//Storyboard Layer 3 (Foreground)
//Storyboard Sound Samples

[TimingPoints]
630,324.324324324324,4,1,0,80,1,0
31846,-100,4,1,0,50,0,0
41981,-100,4,1,0,80,0,0
51143,-100,4,1,0,70,0,0
52440,-100,4,1,0,90,0,0
52521,-100,4,1,0,95,0,1
65494,-100,4,1,0,95,0,0
65819,-100,4,1,0,95,0,1
73278,-100,4,1,0,90,0,0
73359,-100,4,1,0,50,0,0
80981,-100,4,1,0,60,0,0
82278,-100,4,1,0,70,0,0
83575,-100,4,1,0,85,0,0
93994,-100,4,1,0,95,0,0
94035,-100,4,1,0,95,0,1
115116,-100,4,1,0,95,0,0
115440,-100,4,1,0,80,0,0
115765,-100,4,1,0,70,0,0
116089,-100,4,1,0,60,0,0
116413,-100,4,1,0,50,0,0
116738,-100,4,1,0,40,0,0
117062,-100,4,1,0,30,0,0
117386,-100,4,1,0,20,0,0
117711,-100,4,1,0,10,0,0

[HitObjects]
320,288,630,5,0,0:0:0:0:
320,288,792,1,0,0:0:0:0:
384,224,954,1,2,0:0:0:0:
320,192,1035,1,2,0:0:0:0:
384,192,1116,1,8,0:0:0:0:
320,192,1278,1,0,0:0:0:0:
352,224,1440,1,0,0:0:0:0:
384,288,1521,1,0,0:0:0:0:
384,224,1602,1,0,0:0:0:0:
384,224,1765,1,8,0:0:0:0:
384,224,1927,5,0,0:0:0:0:
320,224,2089,1,0,0:0:0:0:
288,256,2251,1,2,0:0:0:0:
320,192,2332,1,2,0:0:0:0:
320,256,2413,1,8,0:0:0:0:
352,256,2575,1,0,0:0:0:0:
320,256,2738,1,0,0:0:0:0:
384,224,2900,1,8,0:0:0:0:
352,256,3224,5,0,0:0:0:0:
320,192,3386,1,0,0:0:0:0:
352,256,3548,1,2,0:0:0:0:
352,224,3629,1,8,0:0:0:0:
320,192,3711,1,8,0:0:0:0:
352,256,3873,1,0,0:0:0:0:
352,256,4035,1,0,0:0:0:0:
320,256,4116,1,0,0:0:0:0:
352,224,4197,1,8,0:0:0:0:
320,160,4359,1,8,0:0:0:0:
352,256,4521,5,0,0:0:0:0:
288,224,4684,1,0,0:0:0:0:
256,224,4846,1,2,0:0:0:0:
256,192,4927,1,8,0:0:0:0:
256,160,5008,1,8,0:0:0:0:
320,192,5170,1,0,0:0:0:0:
288,160,5332,1,0,0:0:0:0:
256,160,5413,1,0,0:0:0:0:
320,192,5494,1,8,0:0:0:0:
352,256,5819,5,0,0:0:0:0:
384,288,5981,1,0,0:0:0:0:
384,288,6143,1,2,0:0:0:0:
288,160,6224,1,2,0:0:0:0:
416,288,6305,1,2,0:0:0:0:
384,256,6467,1,0,0:0:0:0:
352,224,6630,1,0,0:0:0:0:
352,224,6711,1,0,0:0:0:0:
352,224,6792,1,0,0:0:0:0:
320,192,6954,1,2,0:0:0:0:
320,192,7116,5,0,0:0:0:0:
352,224,7278,1,2,0:0:0:0:
480,160,7359,1,2,0:0:0:0:
320,192,7440,1,2,0:0:0:0:
352,192,7602,1,0,0:0:0:0:
352,192,7765,1,2,0:0:0:0:
320,256,7927,1,0,0:0:0:0:
384,256,8008,1,0,0:0:0:0:
384,256,8089,1,2,0:0:0:0:
384,256,8413,5,4,0:0:0:0:
352,192,8575,1,0,0:0:0:0:
384,256,8738,1,0,0:0:0:0:
352,192,8900,1,0,0:0:0:0:
352,224,9062,1,0,0:0:0:0:
352,224,9224,1,0,0:0:0:0:
352,224,9386,1,0,0:0:0:0:
352,224,9548,1,0,0:0:0:0:
128,224,10035,5,2,0:0:0:0:
160,192,10116,1,2,0:0:0:0:
192,160,10197,1,2,0:0:0:0:
224,128,10278,1,8,0:0:0:0:
256,128,10359,1,2,0:0:0:0:
288,96,10440,1,2,0:0:0:0:
320,96,10521,1,2,0:0:0:0:
352,64,10602,1,2,0:0:0:0:
384,64,10684,1,0,0:0:0:0:
320,160,11008,5,0,0:0:0:0:
416,224,11170,1,2,0:0:0:0:
384,224,11332,1,0,0:0:0:0:
384,224,11657,1,0,0:0:0:0:
416,224,11819,1,8,0:0:0:0:
320,224,11900,1,2,0:0:0:0:
320,224,11981,1,0,0:0:0:0:
320,160,12143,1,8,0:0:0:0:
320,224,12305,5,0,0:0:0:0:
416,224,12467,1,8,0:0:0:0:
320,224,12548,1,2,0:0:0:0:
320,224,12629,1,0,0:0:0:0:
320,224,12954,1,0,0:0:0:0:
384,192,13116,1,8,0:0:0:0:
320,256,13278,1,0,0:0:0:0:
288,256,13359,1,0,0:0:0:0:
320,256,13440,1,2,0:0:0:0:
416,224,13521,1,8,0:0:0:0:
320,256,13602,5,0,0:0:0:0:
416,320,13765,1,2,0:0:0:0:
448,352,13927,1,0,0:0:0:0:
352,288,14251,1,0,0:0:0:0:
384,224,14413,1,8,0:0:0:0:
416,320,14494,1,2,0:0:0:0:
416,320,14575,1,0,0:0:0:0:
352,288,14738,1,8,0:0:0:0:
416,320,14900,5,0,0:0:0:0:
416,256,15062,1,8,0:0:0:0:
448,320,15143,1,2,0:0:0:0:
448,320,15224,1,0,0:0:0:0:
480,352,15386,1,0,0:0:0:0:
480,352,15548,1,0,0:0:0:0:
480,320,15629,1,0,0:0:0:0:
448,320,15711,1,0,0:0:0:0:
448,256,15873,1,8,0:0:0:0:
416,288,15954,1,2,0:0:0:0:
448,320,16035,1,2,0:0:0:0:
448,192,16521,5,0,0:0:0:0:
480,256,16684,1,2,0:0:0:0:
352,288,16846,1,0,0:0:0:0:
352,224,17008,1,8,0:0:0:0:
320,192,17089,1,8,0:0:0:0:
352,288,17170,1,0,0:0:0:0:
352,288,17494,5,0,0:0:0:0:
352,288,17657,1,8,0:0:0:0:
224,128,17738,1,8,0:0:0:0:
352,288,17819,1,0,0:0:0:0:
352,288,17981,1,2,0:0:0:0:
352,288,18143,1,0,0:0:0:0:
288,224,18305,1,2,0:0:0:0:
352,288,18467,1,0,0:0:0:0:
352,256,18548,1,0,0:0:0:0:
320,224,18629,1,2,0:0:0:0:
256,192,18711,1,2,0:0:0:0:
320,192,18792,5,0,0:0:0:0:
384,256,18954,1,8,0:0:0:0:
416,288,19035,1,2,0:0:0:0:
448,320,19116,1,0,0:0:0:0:
480,352,19278,1,0,0:0:0:0:
384,256,19359,1,2,0:0:0:0:
480,352,19440,1,0,0:0:0:0:
384,256,19602,1,2,0:0:0:0:
320,192,19684,1,8,0:0:0:0:
384,256,19765,1,0,0:0:0:0:
384,256,20089,1,0,0:0:0:0:
352,224,20251,1,0,0:0:0:0:
320,160,20413,1,0,0:0:0:0:
352,224,20575,1,0,0:0:0:0:
352,224,20738,1,8,0:0:0:0:
352,192,20900,1,8,0:0:0:0:
352,224,20981,1,0,0:0:0:0:
352,224,21062,1,2,0:0:0:0:
352,160,21386,5,0,0:0:0:0:
288,128,21548,1,0,0:0:0:0:
448,192,21711,1,6,0:0:0:0:
416,256,22035,1,0,0:0:0:0:
448,320,22197,1,0,0:0:0:0:
352,224,22359,1,6,0:0:0:0:
448,320,22684,5,0,0:0:0:0:
96,160,22846,1,8,0:0:0:0:
128,160,22927,1,0,0:0:0:0:
448,320,23008,1,0,0:0:0:0:
416,288,23170,1,8,0:0:0:0:
384,256,23332,1,0,0:0:0:0:
512,192,23657,1,2,0:0:0:0:
384,256,23981,5,0,0:0:0:0:
352,192,24143,1,0,0:0:0:0:
352,256,24305,1,6,0:0:0:0:
320,128,24629,1,0,0:0:0:0:
320,224,24711,1,0,0:0:0:0:
320,192,24792,1,0,0:0:0:0:
352,192,24954,1,6,0:0:0:0:
416,96,25278,5,0,0:0:0:0:
352,128,25440,1,0,0:0:0:0:
352,128,25521,1,0,0:0:0:0:
352,192,25602,1,2,0:0:0:0:
352,192,25765,1,2,0:0:0:0:
352,192,25927,1,0,0:0:0:0:
384,160,26035,1,0,0:0:0:0:
352,192,26143,1,2,0:0:0:0:
384,128,26251,1,0,0:0:0:0:
352,160,26359,1,0,0:0:0:0:
320,192,26467,1,0,0:0:0:0:
352,128,26575,5,2,0:0:0:0:
256,128,26900,1,2,0:0:0:0:
256,160,27224,1,2,0:0:0:0:
224,160,27548,1,2,0:0:0:0:
224,160,27711,1,0,0:0:0:0:
256,192,27873,5,2,0:0:0:0:
320,192,28197,1,2,0:0:0:0:
448,256,28521,1,2,0:0:0:0:
448,256,28765,1,0,0:0:0:0:
224,160,28846,1,2,0:0:0:0:
320,192,29008,1,0,0:0:0:0:
448,256,29170,5,8,0:0:0:0:
416,256,29494,1,2,0:0:0:0:
448,288,29657,1,0,0:0:0:0:
416,192,29819,1,8,0:0:0:0:
384,192,29900,1,0,0:0:0:0:
448,192,29981,1,2,0:0:0:0:
416,224,30143,1,0,0:0:0:0:
480,192,30305,1,2,0:0:0:0:
416,224,30467,5,0,0:0:0:0:
352,160,30629,1,2,0:0:0:0:
352,160,30711,1,2,0:0:0:0:
320,128,30792,1,0,0:0:0:0:
384,256,30954,1,2,0:0:0:0:
384,192,31116,1,0,0:0:0:0:
352,192,31197,1,0,0:0:0:0:
352,160,31278,1,8,0:0:0:0:
320,224,31359,1,2,0:0:0:0:
288,256,31440,1,8,0:0:0:0:
384,256,31602,1,2,0:0:0:0:
320,224,31765,1,4,0:0:0:0:
448,288,36954,5,2,0:0:0:0:
448,288,37602,1,2,0:0:0:0:
448,288,37927,1,2,0:0:0:0:
448,288,38251,1,2,0:0:0:0:
448,288,38900,1,2,0:0:0:0:
448,288,39224,1,2,0:0:0:0:
448,288,39548,5,2,0:0:0:0:
448,288,40197,1,2,0:0:0:0:
480,288,40521,1,2,0:0:0:0:
480,288,40846,5,2,0:0:0:0:
480,288,41170,1,2,0:0:0:0:
480,288,41494,1,2,0:0:0:0:
480,288,41657,1,2,0:0:0:0:
480,288,41819,1,2,0:0:0:0:
352,224,42143,5,4,0:0:0:0:
320,160,42305,1,0,0:0:0:0:
320,160,42386,1,0,0:0:0:0:
320,160,42467,1,2,0:0:0:0:
320,160,42629,1,0,0:0:0:0:
384,224,42792,1,2,0:0:0:0:
384,256,42873,1,0,0:0:0:0:
384,288,42954,1,0,0:0:0:0:
384,224,43116,1,2,0:0:0:0:
384,128,43440,5,2,0:0:0:0:
416,160,43521,1,2,0:0:0:0:
416,160,43602,1,0,0:0:0:0:
416,160,43765,1,8,0:0:0:0:
416,160,43927,1,0,0:0:0:0:
416,128,44089,1,2,0:0:0:0:
416,160,44170,1,0,0:0:0:0:
416,160,44332,1,0,0:0:0:0:
416,160,44413,1,2,0:0:0:0:
352,224,44738,5,0,0:0:0:0:
384,288,44900,1,0,0:0:0:0:
448,320,44981,1,0,0:0:0:0:
448,320,45062,1,2,0:0:0:0:
448,320,45224,1,0,0:0:0:0:
448,256,45386,1,2,0:0:0:0:
416,256,45467,1,0,0:0:0:0:
448,256,45548,1,0,0:0:0:0:
448,256,45711,1,2,0:0:0:0:
480,192,45873,1,0,0:0:0:0:
384,192,46035,5,2,0:0:0:0:
416,224,46197,1,0,0:0:0:0:
416,224,46359,1,2,0:0:0:0:
416,224,46440,1,2,0:0:0:0:
416,224,46521,1,0,0:0:0:0:
416,256,46684,1,2,0:0:0:0:
448,288,46765,1,2,0:0:0:0:
480,352,46927,1,0,0:0:0:0:
480,320,47008,1,2,0:0:0:0:
448,320,47332,5,0,0:0:0:0:
416,224,47494,1,0,0:0:0:0:
416,192,47575,1,0,0:0:0:0:
416,192,47657,1,2,0:0:0:0:
416,192,47819,1,0,0:0:0:0:
448,320,47981,1,2,0:0:0:0:
448,320,48062,1,0,0:0:0:0:
448,320,48143,1,0,0:0:0:0:
448,320,48305,1,2,0:0:0:0:
448,320,48629,5,2,0:0:0:0:
416,288,48711,1,2,0:0:0:0:
416,288,48792,1,0,0:0:0:0:
416,288,48954,1,2,0:0:0:0:
416,288,49116,1,0,0:0:0:0:
416,288,49278,1,2,0:0:0:0:
384,256,49359,1,0,0:0:0:0:
352,224,49521,1,0,0:0:0:0:
320,192,49602,1,8,0:0:0:0:
384,224,49927,5,0,0:0:0:0:
384,224,50089,1,0,0:0:0:0:
352,192,50170,1,0,0:0:0:0:
416,224,50251,1,2,0:0:0:0:
384,192,50413,1,0,0:0:0:0:
416,192,50575,1,2,0:0:0:0:
352,256,50657,1,2,0:0:0:0:
320,256,50738,1,0,0:0:0:0:
352,256,50819,1,0,0:0:0:0:
320,224,50900,1,8,0:0:0:0:
352,160,51062,1,0,0:0:0:0:
352,256,51224,5,0,0:0:0:0:
320,256,51305,1,0,0:0:0:0:
352,256,51386,1,0,0:0:0:0:
352,256,51548,1,2,0:0:0:0:
352,256,51711,1,0,0:0:0:0:
352,256,51792,1,2,0:0:0:0:
352,256,51873,1,0,0:0:0:0:
352,256,52035,1,0,0:0:0:0:
288,224,52197,1,6,0:0:0:0:
352,192,52521,5,4,0:0:0:0:
384,192,52846,1,2,0:0:0:0:
448,192,53008,1,0,0:0:0:0:
416,192,53089,1,0,0:0:0:0:
384,192,53170,1,0,0:0:0:0:
480,192,53332,1,0,0:0:0:0:
480,192,53413,1,0,0:0:0:0:
480,192,53494,1,2,0:0:0:0:
480,224,53657,1,2,0:0:0:0:
416,192,53819,1,0,0:0:0:0:
416,96,54143,1,8,0:0:0:0:
352,128,54305,1,0,0:0:0:0:
288,128,54467,1,8,0:0:0:0:
320,128,54548,1,8,0:0:0:0:
288,128,54629,1,0,0:0:0:0:
288,128,54792,1,8,0:0:0:0:
448,256,55116,5,0,0:0:0:0:
416,192,55440,1,2,0:0:0:0:
448,288,55602,1,0,0:0:0:0:
448,288,55684,1,2,0:0:0:0:
448,288,55765,1,0,0:0:0:0:
448,288,55927,1,0,0:0:0:0:
416,288,56008,1,0,0:0:0:0:
448,288,56089,1,2,0:0:0:0:
448,288,56251,1,2,0:0:0:0:
416,224,56413,5,4,0:0:0:0:
352,352,56738,1,6,0:0:0:0:
416,224,57062,1,6,0:0:0:0:
416,320,57386,1,4,0:0:0:0:
416,320,57711,5,4,0:0:0:0:
416,256,58035,1,2,0:0:0:0:
416,288,58197,1,0,0:0:0:0:
416,256,58278,1,0,0:0:0:0:
384,256,58359,1,0,0:0:0:0:
320,224,58521,1,0,0:0:0:0:
288,192,58602,1,0,0:0:0:0:
320,224,58684,1,2,0:0:0:0:
320,224,58846,1,2,0:0:0:0:
352,160,59008,1,0,0:0:0:0:
352,160,59332,1,8,0:0:0:0:
352,160,59494,1,0,0:0:0:0:
352,160,59657,1,8,0:0:0:0:
352,160,59738,1,8,0:0:0:0:
352,160,59819,1,0,0:0:0:0:
352,160,59981,1,8,0:0:0:0:
448,192,60305,5,0,0:0:0:0:
416,256,60629,1,2,0:0:0:0:
448,192,60792,1,0,0:0:0:0:
448,192,60873,1,2,0:0:0:0:
448,192,60954,1,0,0:0:0:0:
448,192,61116,1,0,0:0:0:0:
416,192,61197,1,0,0:0:0:0:
384,192,61278,1,2,0:0:0:0:
448,192,61440,1,0,0:0:0:0:
448,128,61602,5,12,0:0:0:0:
352,224,61927,1,4,0:0:0:0:
384,224,62251,1,6,0:0:0:0:
256,224,62575,1,12,0:0:0:0:
448,256,62900,5,0,0:0:0:0:
384,224,63224,1,2,0:0:0:0:
416,192,63386,1,0,0:0:0:0:
352,192,63467,1,0,0:0:0:0:
416,192,63548,1,0,0:0:0:0:
416,192,63711,1,0,0:0:0:0:
416,192,63792,1,0,0:0:0:0:
416,192,63873,1,2,0:0:0:0:
416,192,64035,1,2,0:0:0:0:
384,128,64197,1,0,0:0:0:0:
384,64,64521,1,8,0:0:0:0:
352,128,64684,1,0,0:0:0:0:
352,128,64846,1,8,0:0:0:0:
352,128,64927,1,8,0:0:0:0:
352,128,65008,1,0,0:0:0:0:
288,160,65170,1,8,0:0:0:0:
320,128,65332,1,0,0:0:0:0:
416,224,65819,5,4,0:0:0:0:
416,224,65981,1,4,0:0:0:0:
416,224,66143,1,4,0:0:0:0:
416,224,66305,1,4,0:0:0:0:
480,192,66467,1,6,0:0:0:0:
352,192,66792,5,6,0:0:0:0:
256,128,67035,1,4,0:0:0:0:
256,128,67278,1,6,0:0:0:0:
288,224,67521,1,4,0:0:0:0:
384,192,67765,1,2,0:0:0:0:
352,192,67846,1,2,0:0:0:0:
352,192,67927,1,2,0:0:0:0:
352,160,68008,1,2,0:0:0:0:
320,224,68089,5,0,0:0:0:0:
416,320,68413,1,0,0:0:0:0:
448,320,68494,1,0,0:0:0:0:
448,320,68575,1,0,0:0:0:0:
448,320,68657,1,0,0:0:0:0:
416,320,68738,1,2,0:0:0:0:
288,256,69062,1,0,0:0:0:0:
256,224,69143,1,0,0:0:0:0:
224,192,69224,1,2,0:0:0:0:
192,192,69305,1,0,0:0:0:0:
160,160,69386,5,2,0:0:0:0:
288,192,69711,1,2,0:0:0:0:
320,192,69792,1,2,0:0:0:0:
320,192,69873,1,0,0:0:0:0:
320,192,69954,1,2,0:0:0:0:
320,192,70035,1,0,0:0:0:0:
416,288,70359,1,2,0:0:0:0:
448,320,70440,1,2,0:0:0:0:
480,352,70521,1,2,0:0:0:0:
480,352,70602,1,2,0:0:0:0:
448,320,70684,5,0,0:0:0:0:
384,224,70846,1,0,0:0:0:0:
384,224,70927,1,0,0:0:0:0:
416,224,71008,1,2,0:0:0:0:
352,192,71170,1,2,0:0:0:0:
288,160,71332,1,0,0:0:0:0:
352,192,71494,1,0,0:0:0:0:
288,128,71657,1,0,0:0:0:0:
416,256,71738,1,0,0:0:0:0:
352,160,71819,1,2,0:0:0:0:
288,160,71900,1,2,0:0:0:0:
320,160,71981,5,8,0:0:0:0:
448,256,72305,1,2,0:0:0:0:
416,192,72467,1,0,0:0:0:0:
448,256,72629,1,2,0:0:0:0:
416,256,72711,1,2,0:0:0:0:
384,224,72792,1,0,0:0:0:0:
352,224,72873,1,0,0:0:0:0:
320,192,72954,1,2,0:0:0:0:
288,192,73035,1,2,0:0:0:0:
256,160,73116,1,0,0:0:0:0:
320,160,73278,5,4,0:0:0:0:
384,256,78467,5,0,0:0:0:0:
384,288,79116,1,2,0:0:0:0:
384,256,79765,5,0,0:0:0:0:
384,224,80413,1,2,0:0:0:0:
384,224,81062,5,0,0:0:0:0:
384,352,81386,1,2,0:0:0:0:
384,224,81711,1,0,0:0:0:0:
352,128,81873,1,0,0:0:0:0:
384,352,82035,1,2,0:0:0:0:
480,320,82359,5,0,0:0:0:0:
352,224,82521,1,2,0:0:0:0:
224,160,82684,1,0,0:0:0:0:
288,192,82846,1,2,0:0:0:0:
192,160,83008,1,0,0:0:0:0:
160,128,83089,1,0,0:0:0:0:
160,128,83170,1,2,0:0:0:0:
224,160,83332,1,0,0:0:0:0:
160,128,83413,1,2,0:0:0:0:
160,128,83494,1,2,0:0:0:0:
224,160,83657,5,0,0:0:0:0:
288,160,83819,1,0,0:0:0:0:
192,192,83981,1,6,0:0:0:0:
320,192,84305,1,0,0:0:0:0:
384,160,84467,1,0,0:0:0:0:
192,160,84629,1,6,0:0:0:0:
224,288,84954,5,6,0:0:0:0:
192,160,85278,1,6,0:0:0:0:
224,288,85602,1,4,0:0:0:0:
192,160,85927,1,4,0:0:0:0:
320,224,86251,5,0,0:0:0:0:
256,192,86413,1,0,0:0:0:0:
416,160,86575,1,12,0:0:0:0:
192,160,86900,1,0,0:0:0:0:
256,192,87062,1,0,0:0:0:0:
256,192,87224,1,6,0:0:0:0:
352,192,87548,5,0,0:0:0:0:
288,160,87711,1,2,0:0:0:0:
256,128,87792,1,8,0:0:0:0:
352,192,87873,1,2,0:0:0:0:
352,224,88035,1,2,0:0:0:0:
416,160,88197,1,0,0:0:0:0:
384,160,88305,1,2,0:0:0:0:
384,128,88413,1,8,0:0:0:0:
320,160,88521,1,0,0:0:0:0:
288,160,88846,5,0,0:0:0:0:
320,224,89170,1,2,0:0:0:0:
320,160,89332,1,0,0:0:0:0:
320,160,89413,1,0,0:0:0:0:
320,256,89494,1,0,0:0:0:0:
416,224,89657,1,0,0:0:0:0:
416,288,89819,1,2,0:0:0:0:
384,256,90143,5,0,0:0:0:0:
256,128,90305,1,0,0:0:0:0:
384,256,90467,1,2,0:0:0:0:
320,256,90629,1,0,0:0:0:0:
288,256,90711,1,0,0:0:0:0:
320,224,90792,1,0,0:0:0:0:
384,128,90954,1,0,0:0:0:0:
160,192,91116,1,2,0:0:0:0:
128,96,91440,5,0,0:0:0:0:
416,64,91602,1,0,0:0:0:0:
128,96,91684,1,0,0:0:0:0:
128,96,91765,1,2,0:0:0:0:
128,96,91927,1,0,0:0:0:0:
256,128,92089,1,2,0:0:0:0:
160,128,92170,1,0,0:0:0:0:
224,96,92251,1,2,0:0:0:0:
192,64,92413,1,2,0:0:0:0:
352,224,92738,5,0,0:0:0:0:
416,224,92900,1,0,0:0:0:0:
416,224,93062,1,0,0:0:0:0:
416,224,93224,1,0,0:0:0:0:
416,224,93386,1,0,0:0:0:0:
416,224,93467,1,0,0:0:0:0:
416,224,93548,1,0,0:0:0:0:
416,224,93711,1,0,0:0:0:0:
448,192,93792,1,2,0:0:0:0:
480,160,93873,1,2,0:0:0:0:
480,160,93954,1,2,0:0:0:0:
480,160,94035,5,0,0:0:0:0:
352,192,94359,1,0,0:0:0:0:
480,320,94521,1,2,0:0:0:0:
480,352,94602,1,2,0:0:0:0:
448,384,94684,1,0,0:0:0:0:
448,384,94927,1,2,0:0:0:0:
480,384,95008,1,0,0:0:0:0:
480,384,95170,1,2,0:0:0:0:
448,320,95332,5,0,0:0:0:0:
448,320,95494,1,0,0:0:0:0:
416,288,95575,1,0,0:0:0:0:
448,320,95657,1,2,0:0:0:0:
416,288,95819,1,0,0:0:0:0:
352,224,95981,1,2,0:0:0:0:
320,224,96143,1,0,0:0:0:0:
320,160,96224,1,8,0:0:0:0:
384,192,96467,1,0,0:0:0:0:
352,224,96629,5,2,0:0:0:0:
352,224,96711,1,2,0:0:0:0:
384,256,96792,1,2,0:0:0:0:
288,160,96954,1,0,0:0:0:0:
160,160,97116,1,0,0:0:0:0:
320,224,97278,1,2,0:0:0:0:
320,224,97440,1,0,0:0:0:0:
352,224,97521,1,0,0:0:0:0:
320,224,97602,1,0,0:0:0:0:
256,128,97765,1,8,0:0:0:0:
384,288,97927,5,0,0:0:0:0:
352,256,98035,1,0,0:0:0:0:
320,224,98143,1,2,0:0:0:0:
288,224,98251,1,0,0:0:0:0:
192,160,98575,1,0,0:0:0:0:
192,160,98684,1,8,0:0:0:0:
192,160,98792,1,2,0:0:0:0:
192,160,98900,1,0,0:0:0:0:
224,128,99224,5,0,0:0:0:0:
352,128,99548,1,2,0:0:0:0:
352,128,99711,1,0,0:0:0:0:
352,128,99792,1,0,0:0:0:0:
352,128,99873,1,2,0:0:0:0:
320,192,100116,1,0,0:0:0:0:
416,192,100197,1,2,0:0:0:0:
416,192,100359,1,0,0:0:0:0:
352,224,100521,5,2,0:0:0:0:
352,224,100603,1,2,0:0:0:0:
352,224,100684,1,0,0:0:0:0:
352,224,100846,1,2,0:0:0:0:
352,224,101008,1,0,0:0:0:0:
352,224,101170,1,2,0:0:0:0:
384,256,101251,1,2,0:0:0:0:
384,224,101332,1,2,0:0:0:0:
384,224,101494,1,0,0:0:0:0:
320,192,101657,1,0,0:0:0:0:
384,224,101738,1,2,0:0:0:0:
384,224,101819,5,0,0:0:0:0:
128,192,102062,1,0,0:0:0:0:
320,320,102143,1,0,0:0:0:0:
352,256,102305,1,0,0:0:0:0:
384,224,102467,1,2,0:0:0:0:
320,160,102711,1,0,0:0:0:0:
288,192,102792,1,2,0:0:0:0:
352,224,102954,5,0,0:0:0:0:
416,256,103116,1,0,0:0:0:0:
352,256,103278,1,0,0:0:0:0:
384,224,103440,1,2,0:0:0:0:
384,224,103521,1,0,0:0:0:0:
384,224,103684,1,0,0:0:0:0:
384,224,103765,1,2,0:0:0:0:
384,224,104008,1,2,0:0:0:0:
352,128,104251,1,0,0:0:0:0:
384,224,104413,5,2,0:0:0:0:
352,192,104738,1,8,0:0:0:0:
416,160,104900,1,0,0:0:0:0:
416,160,104981,1,2,0:0:0:0:
416,160,105062,1,0,0:0:0:0:
416,160,105224,1,2,0:0:0:0:
448,128,105386,1,0,0:0:0:0:
448,128,105548,1,8,0:0:0:0:
448,128,105629,1,8,0:0:0:0:
416,128,105711,5,0,0:0:0:0:
320,160,106035,1,2,0:0:0:0:
448,128,106197,1,2,0:0:0:0:
448,128,106278,1,0,0:0:0:0:
448,128,106359,1,2,0:0:0:0:
448,128,106521,1,0,0:0:0:0:
448,128,106684,1,2,0:0:0:0:
448,128,106846,1,2,0:0:0:0:
416,128,106927,1,2,0:0:0:0:
448,128,107008,5,0,0:0:0:0:
320,160,107332,1,2,0:0:0:0:
192,160,107494,1,2,0:0:0:0:
224,224,107657,1,0,0:0:0:0:
256,224,107738,1,0,0:0:0:0:
320,192,107819,1,0,0:0:0:0:
320,192,107981,1,2,0:0:0:0:
224,64,108143,1,0,0:0:0:0:
384,96,108305,5,2,0:0:0:0:
297,111,108467,1,0,0:0:0:0:
297,111,108548,1,0,0:0:0:0:
288,192,108629,1,2,0:0:0:0:
288,192,108792,1,2,0:0:0:0:
288,192,108954,1,0,0:0:0:0:
320,192,109035,1,0,0:0:0:0:
224,160,109116,1,0,0:0:0:0:
288,192,109278,1,2,0:0:0:0:
384,288,109602,5,0,0:0:0:0:
416,352,109765,1,0,0:0:0:0:
448,384,109927,1,2,0:0:0:0:
448,384,110089,1,2,0:0:0:0:
288,160,110251,1,0,0:0:0:0:
288,160,110413,1,0,0:0:0:0:
352,192,110494,1,0,0:0:0:0:
288,160,110575,1,2,0:0:0:0:
256,224,110738,1,2,0:0:0:0:
288,192,110819,1,8,0:0:0:0:
256,192,110900,5,0,0:0:0:0:
352,160,111062,1,0,0:0:0:0:
352,160,111224,1,2,0:0:0:0:
352,160,111386,1,2,0:0:0:0:
352,160,111548,1,0,0:0:0:0:
288,160,111711,1,0,0:0:0:0:
256,160,111792,1,2,0:0:0:0:
224,128,111873,1,2,0:0:0:0:
320,224,112197,5,2,0:0:0:0:
320,224,112278,1,2,0:0:0:0:
288,96,112359,1,8,0:0:0:0:
256,128,112521,1,0,0:0:0:0:
256,128,112684,1,0,0:0:0:0:
256,160,112846,1,0,0:0:0:0:
320,224,113008,1,0,0:0:0:0:
288,160,113089,1,0,0:0:0:0:
384,288,113170,1,2,0:0:0:0:
352,224,113332,1,2,0:0:0:0:
256,128,113413,1,8,0:0:0:0:
352,224,113494,5,0,0:0:0:0:
416,256,113657,1,0,0:0:0:0:
384,288,113819,1,2,0:0:0:0:
416,224,113981,1,2,0:0:0:0:
352,224,114143,1,0,0:0:0:0:
320,192,114251,1,0,0:0:0:0:
320,160,114359,1,0,0:0:0:0:
320,128,114467,1,2,0:0:0:0:
320,128,114575,1,2,0:0:0:0:
320,128,114684,1,2,0:0:0:0:
256,192,115116,12,2,119981,0:0:0:0:
