osu file format v14

[General]
AudioFilename: BLACK or WHITE.mp3
AudioLeadIn: 0
PreviewTime: 52440
Countdown: 0
SampleSet: Normal
StackLeniency: 0.7
Mode: 1
LetterboxInBreaks: 0
WidescreenStoryboard: 0

[Editor]
Bookmarks: 112197
DistanceSpacing: 1
BeatDivisor: 4
GridSize: 32
TimelineZoom: 1.4

[Metadata]
Title:BLACK or WHITE?
TitleUnicode:BLACK or WHITE?
Artist:BlackYooh vs. siromaru
ArtistUnicode:BlackYooh vs. siromaru
Creator:komasy
Version:Futsuu
Source:SOUND VOLTEX II -infinite infection-
Tags:SDVX KAC 2013 Yooh BlackY schranz nyanmi-1828 jubeat Qubell hardcore symphonic
BeatmapID:1073778
BeatmapSetID:504720

[Difficulty]
HPDrainRate:7
CircleSize:5
OverallDifficulty:4
ApproachRate:5
SliderMultiplier:1.4
SliderTickRate:1

[Events]
//Background and Video events
0,0,"black_white_patterns_lines_light_11374_1366x768.jpg",0,0
//Break Periods
2,31965,35154
2,73478,76667
//Storyboard Layer 0 (Background)
//Storyboard Layer 1 (Fail)
//Storyboard Layer 2 (Pass)
//Storyboard Layer 3 (Foreground)
//Storyboard Sound Samples

[TimingPoints]
630,324.324324324324,4,1,0,80,1,0
31846,-100,4,1,0,50,0,0
41981,-100,4,1,0,80,0,0
51143,-100,4,1,0,70,0,0
52116,-100,4,1,0,90,0,0
52440,-100,4,1,0,95,0,0
52521,-100,4,1,0,95,0,1
65494,-100,4,1,0,95,0,0
65819,-100,4,1,0,95,0,1
73278,-100,4,1,0,90,0,0
73359,-100,4,1,0,50,0,0
80981,-100,4,1,0,60,0,0
82278,-100,4,1,0,70,0,0
83575,-100,4,1,0,85,0,0
93954,-100,4,1,0,95,0,0
94035,-100,4,1,0,95,0,1
115116,-100,4,1,0,95,0,0
115440,-100,4,1,0,80,0,0
115765,-100,4,1,0,70,0,0
116089,-100,4,1,0,60,0,0
116413,-100,4,1,0,50,0,0
116738,-100,4,1,0,40,0,0
117062,-100,4,1,0,30,0,0
117386,-100,4,1,0,20,0,0
117711,-100,4,1,0,10,0,0

[HitObjects]
224,160,630,5,4,0:0:0:0:
448,96,1278,1,0,0:0:0:0:
416,192,1602,1,8,0:0:0:0:
224,160,1927,1,0,0:0:0:0:
224,128,2251,1,2,0:0:0:0:
320,96,2575,1,0,0:0:0:0:
384,192,3224,1,2,0:0:0:0:
416,192,3873,1,2,0:0:0:0:
384,320,4197,1,0,0:0:0:0:
384,192,4521,1,2,0:0:0:0:
192,96,4846,1,0,0:0:0:0:
288,128,5170,1,2,0:0:0:0:
192,160,5819,1,0,0:0:0:0:
288,160,6467,1,0,0:0:0:0:
288,192,6792,1,2,0:0:0:0:
416,320,7116,1,0,0:0:0:0:
352,224,7440,1,2,0:0:0:0:
384,160,7602,1,0,0:0:0:0:
384,224,7765,1,8,0:0:0:0:
384,192,8413,1,4,0:0:0:0:
256,160,8738,1,4,0:0:0:0:
160,224,9062,1,4,0:0:0:0:
288,192,9386,1,4,0:0:0:0:
416,224,10035,1,6,0:0:0:0:
416,224,10684,1,8,0:0:0:0:
256,224,11008,1,4,0:0:0:0:
192,192,11657,1,0,0:0:0:0:
416,224,12305,1,0,0:0:0:0:
288,192,12629,1,0,0:0:0:0:
448,192,12954,1,0,0:0:0:0:
352,128,13278,1,2,0:0:0:0:
384,192,13440,1,8,0:0:0:0:
224,160,13602,1,0,0:0:0:0:
448,160,14251,1,0,0:0:0:0:
448,224,14900,1,0,0:0:0:0:
320,224,15224,1,0,0:0:0:0:
256,352,15548,1,0,0:0:0:0:
192,320,15711,1,0,0:0:0:0:
352,256,15873,1,8,0:0:0:0:
384,288,16521,1,0,0:0:0:0:
224,160,17170,1,0,0:0:0:0:
96,128,17819,1,0,0:0:0:0:
416,288,18143,1,0,0:0:0:0:
288,224,18467,1,2,0:0:0:0:
224,224,18629,1,8,0:0:0:0:
224,160,18792,1,0,0:0:0:0:
224,160,19440,1,0,0:0:0:0:
288,256,19765,1,8,0:0:0:0:
224,160,20089,1,0,0:0:0:0:
288,160,20251,1,0,0:0:0:0:
224,160,20413,1,0,0:0:0:0:
352,160,20738,1,2,0:0:0:0:
224,160,21386,1,4,0:0:0:0:
448,320,22035,1,4,0:0:0:0:
288,192,22684,1,2,0:0:0:0:
288,192,23008,1,8,0:0:0:0:
512,224,23332,1,0,0:0:0:0:
320,96,23657,1,8,0:0:0:0:
224,160,23981,1,4,0:0:0:0:
448,160,24629,1,4,0:0:0:0:
224,160,25278,1,0,0:0:0:0:
352,128,25602,1,8,0:0:0:0:
448,160,25927,1,0,0:0:0:0:
320,160,26251,1,0,0:0:0:0:
224,160,26575,1,8,0:0:0:0:
288,128,27224,1,0,0:0:0:0:
320,160,27873,1,8,0:0:0:0:
448,224,28521,1,8,0:0:0:0:
352,128,28846,1,0,0:0:0:0:
224,160,29170,1,2,0:0:0:0:
352,160,29819,1,8,0:0:0:0:
320,256,30143,1,0,0:0:0:0:
224,160,30467,1,8,0:0:0:0:
320,192,30792,1,2,0:0:0:0:
288,160,30954,1,2,0:0:0:0:
224,160,31116,1,2,0:0:0:0:
320,96,31440,1,2,0:0:0:0:
416,224,31765,1,4,0:0:0:0:
256,224,36954,5,2,0:0:0:0:
352,224,38251,1,8,0:0:0:0:
160,96,38900,1,2,0:0:0:0:
256,224,39548,1,2,0:0:0:0:
256,224,40846,1,2,0:0:0:0:
448,96,41494,1,10,0:0:0:0:
288,224,42143,1,4,0:0:0:0:
320,128,42467,1,0,0:0:0:0:
320,256,42792,1,0,0:0:0:0:
320,352,43440,1,8,0:0:0:0:
320,128,44089,1,0,0:0:0:0:
352,128,44738,1,8,0:0:0:0:
320,160,45062,1,8,0:0:0:0:
352,128,45386,1,8,0:0:0:0:
320,160,46035,1,8,0:0:0:0:
352,160,46197,1,2,0:0:0:0:
352,160,46359,1,2,0:0:0:0:
320,160,46684,1,0,0:0:0:0:
256,224,47332,1,0,0:0:0:0:
352,160,47657,1,2,0:0:0:0:
320,160,47981,1,0,0:0:0:0:
320,96,48629,1,2,0:0:0:0:
384,128,49278,1,0,0:0:0:0:
256,160,49926,1,8,0:0:0:0:
256,128,50251,1,0,0:0:0:0:
480,160,50575,1,8,0:0:0:0:
416,160,50738,1,2,0:0:0:0:
256,128,50900,1,2,0:0:0:0:
256,128,51224,1,0,0:0:0:0:
352,224,52197,1,8,0:0:0:0:
480,192,52521,1,4,0:0:0:0:
256,352,53170,1,0,0:0:0:0:
256,288,53332,1,0,0:0:0:0:
288,256,53494,1,8,0:0:0:0:
384,160,53819,1,0,0:0:0:0:
288,224,54143,1,0,0:0:0:0:
288,224,54467,1,8,0:0:0:0:
416,160,54792,1,8,0:0:0:0:
288,224,55116,1,0,0:0:0:0:
288,224,55765,1,2,0:0:0:0:
256,192,55927,1,0,0:0:0:0:
416,128,56089,1,8,0:0:0:0:
320,192,56413,1,0,0:0:0:0:
352,224,56738,1,8,0:0:0:0:
288,352,57062,1,8,0:0:0:0:
256,352,57386,1,0,0:0:0:0:
288,224,57711,1,4,0:0:0:0:
384,160,58359,1,0,0:0:0:0:
448,160,58521,1,0,0:0:0:0:
384,160,58684,1,8,0:0:0:0:
448,256,59008,1,0,0:0:0:0:
64,256,59332,1,0,0:0:0:0:
128,160,59657,1,8,0:0:0:0:
352,128,59981,1,8,0:0:0:0:
288,224,60305,1,0,0:0:0:0:
288,224,60954,1,8,0:0:0:0:
448,224,61116,1,0,0:0:0:0:
288,128,61278,1,8,0:0:0:0:
384,192,61602,1,8,0:0:0:0:
384,192,61927,1,0,0:0:0:0:
384,192,62251,1,8,0:0:0:0:
320,224,62575,1,2,0:0:0:0:
352,224,62900,1,4,0:0:0:0:
352,224,63548,1,0,0:0:0:0:
288,224,63711,1,0,0:0:0:0:
256,160,63873,1,8,0:0:0:0:
352,224,64197,1,0,0:0:0:0:
352,192,64521,1,8,0:0:0:0:
352,192,64846,1,0,0:0:0:0:
480,160,65170,1,8,0:0:0:0:
256,256,65819,1,0,0:0:0:0:
384,224,65981,1,0,0:0:0:0:
384,224,66143,1,0,0:0:0:0:
448,224,66467,1,8,0:0:0:0:
352,160,66792,1,8,0:0:0:0:
224,64,67278,1,8,0:0:0:0:
352,224,67765,1,2,0:0:0:0:
192,288,68089,1,4,0:0:0:0:
448,256,68738,1,12,0:0:0:0:
384,224,69386,1,12,0:0:0:0:
352,288,70035,1,4,0:0:0:0:
192,224,70684,1,0,0:0:0:0:
416,224,71008,1,2,0:0:0:0:
288,224,71332,1,0,0:0:0:0:
320,256,71494,1,0,0:0:0:0:
416,160,71981,1,2,0:0:0:0:
448,224,72305,1,0,0:0:0:0:
416,224,72629,1,2,0:0:0:0:
352,192,72792,1,8,0:0:0:0:
384,192,72954,1,8,0:0:0:0:
192,192,73278,1,4,0:0:0:0:
288,160,78467,5,0,0:0:0:0:
384,160,79765,1,8,0:0:0:0:
384,224,81062,1,0,0:0:0:0:
384,160,81711,1,8,0:0:0:0:
160,160,82359,1,0,0:0:0:0:
32,192,82684,1,2,0:0:0:0:
160,128,83008,1,2,0:0:0:0:
224,256,83657,1,4,0:0:0:0:
416,192,84305,1,4,0:0:0:0:
192,160,84954,1,8,0:0:0:0:
64,96,85278,1,8,0:0:0:0:
192,160,85602,1,0,0:0:0:0:
192,160,85927,1,0,0:0:0:0:
352,192,86251,1,4,0:0:0:0:
352,192,86900,1,4,0:0:0:0:
352,192,87548,1,8,0:0:0:0:
224,128,87873,1,8,0:0:0:0:
256,64,88197,1,0,0:0:0:0:
384,96,88521,1,8,0:0:0:0:
480,160,88846,1,0,0:0:0:0:
480,160,89494,1,0,0:0:0:0:
320,256,89819,1,8,0:0:0:0:
384,192,90143,1,0,0:0:0:0:
256,128,90467,1,8,0:0:0:0:
320,128,90629,1,8,0:0:0:0:
256,128,90792,1,0,0:0:0:0:
192,128,91116,1,2,0:0:0:0:
288,256,91440,1,0,0:0:0:0:
384,224,91765,1,8,0:0:0:0:
416,160,92089,1,0,0:0:0:0:
480,160,92251,1,0,0:0:0:0:
352,192,92413,1,8,0:0:0:0:
256,192,92738,12,0,93711,0:0:0:0:
256,128,94035,5,0,0:0:0:0:
448,192,94359,5,2,0:0:0:0:
480,288,94684,1,0,0:0:0:0:
448,192,95332,1,0,0:0:0:0:
320,160,95657,1,0,0:0:0:0:
416,128,95819,1,8,0:0:0:0:
384,96,95981,1,0,0:0:0:0:
224,160,96305,1,2,0:0:0:0:
320,160,96629,1,0,0:0:0:0:
288,64,96954,1,0,0:0:0:0:
288,64,97278,1,2,0:0:0:0:
448,224,97927,1,2,0:0:0:0:
352,192,98251,1,8,0:0:0:0:
352,192,98413,1,0,0:0:0:0:
416,192,98575,1,8,0:0:0:0:
288,160,98900,1,2,0:0:0:0:
288,64,99224,1,0,0:0:0:0:
256,192,99548,1,2,0:0:0:0:
192,160,99873,1,0,0:0:0:0:
288,64,100521,1,0,0:0:0:0:
160,128,100846,1,0,0:0:0:0:
288,64,101008,1,2,0:0:0:0:
224,96,101170,1,0,0:0:0:0:
416,288,101494,1,2,0:0:0:0:
320,192,101819,1,0,0:0:0:0:
320,192,102143,1,0,0:0:0:0:
352,192,102467,1,2,0:0:0:0:
128,32,103116,1,0,0:0:0:0:
288,160,103440,1,0,0:0:0:0:
352,192,103602,1,0,0:0:0:0:
416,288,103765,1,8,0:0:0:0:
320,96,104089,1,2,0:0:0:0:
288,64,104413,1,0,0:0:0:0:
224,192,104738,1,2,0:0:0:0:
480,224,105062,1,0,0:0:0:0:
352,128,105711,1,0,0:0:0:0:
448,192,106035,1,2,0:0:0:0:
352,224,106359,1,0,0:0:0:0:
384,224,106521,1,0,0:0:0:0:
352,224,106684,1,2,0:0:0:0:
256,192,107008,1,0,0:0:0:0:
448,256,107332,1,2,0:0:0:0:
384,160,107657,1,0,0:0:0:0:
256,160,107981,1,2,0:0:0:0:
288,64,108305,1,2,0:0:0:0:
224,96,108467,1,0,0:0:0:0:
320,96,108629,1,2,0:0:0:0:
288,64,108954,1,2,0:0:0:0:
288,64,109602,1,0,0:0:0:0:
352,160,109927,1,8,0:0:0:0:
448,224,110251,1,0,0:0:0:0:
256,192,110413,1,2,0:0:0:0:
320,192,110575,1,0,0:0:0:0:
288,64,110900,1,8,0:0:0:0:
352,160,111224,1,0,0:0:0:0:
448,224,111548,1,8,0:0:0:0:
384,224,111711,1,0,0:0:0:0:
320,192,111873,1,2,0:0:0:0:
288,128,112197,1,2,0:0:0:0:
416,256,112521,1,8,0:0:0:0:
288,64,112846,1,0,0:0:0:0:
288,160,113494,1,0,0:0:0:0:
320,160,113657,1,2,0:0:0:0:
288,224,113819,1,2,0:0:0:0:
352,96,114143,1,0,0:0:0:0:
288,64,114467,1,2,0:0:0:0:
288,128,114629,1,10,0:0:0:0:
256,192,115116,12,2,119981,0:0:0:0:
