osu file format v14

[General]
AudioFilename: BLACK or WHITE.mp3
AudioLeadIn: 0
PreviewTime: 52440
Countdown: 0
SampleSet: Normal
StackLeniency: 0.7
Mode: 1
LetterboxInBreaks: 0
WidescreenStoryboard: 0

[Editor]
DistanceSpacing: 1
BeatDivisor: 4
GridSize: 32
TimelineZoom: 2.200001

[Metadata]
Title:BLACK or WHITE?
TitleUnicode:BLACK or WHITE?
Artist:BlackYooh vs. siromaru
ArtistUnicode:BlackYooh vs. siromaru
Creator:komasy
Version:23-'s Inner Oni
Source:SOUND VOLTEX II -infinite infection-
Tags:SDVX KAC 2013 Yooh BlackY schranz nyanmi-1828 jubeat Qubell hardcore symphonic
BeatmapID:1100855
BeatmapSetID:504720

[Difficulty]
HPDrainRate:6
CircleSize:5
OverallDifficulty:6
ApproachRate:5
SliderMultiplier:1.4
SliderTickRate:1

[Events]
//Background and Video events
0,0,"black_white_patterns_lines_light_11374_1366x768.jpg",0,0
//Break Periods
//Storyboard Layer 0 (Background)
//Storyboard Layer 1 (Fail)
//Storyboard Layer 2 (Pass)
//Storyboard Layer 3 (Foreground)
//Storyboard Sound Samples

[TimingPoints]
630,324.324324324324,4,1,0,80,1,0
31846,-100,4,1,0,50,0,0
41981,-100,4,1,0,80,0,0
51184,-100,4,1,0,70,0,0
52157,-100,4,1,0,90,0,0
52440,-100,4,1,0,95,0,0
52521,-100,4,1,0,95,0,1
65494,-100,4,1,0,95,0,0
65819,-100,4,1,0,95,0,1
73278,-100,4,1,0,50,0,0
81023,-100,4,1,0,60,0,0
82278,-100,4,1,0,70,0,0
83575,-100,4,1,0,85,0,0
93994,-100,4,1,0,95,0,0
94035,-100,4,1,0,95,0,1
115116,-100,4,1,0,95,0,0
115440,-100,4,1,0,80,0,0
115765,-100,4,1,0,70,0,0
116089,-100,4,1,0,60,0,0
116413,-100,4,1,0,50,0,0
116738,-100,4,1,0,40,0,0
117062,-100,4,1,0,30,0,0
117386,-100,4,1,0,20,0,0
117711,-100,4,1,0,10,0,0

[HitObjects]
224,224,630,5,0,0:0:0:0:
256,224,792,1,0,0:0:0:0:
256,224,873,1,0,0:0:0:0:
256,224,954,1,8,0:0:0:0:
256,224,1035,1,8,0:0:0:0:
256,224,1116,1,0,0:0:0:0:
288,192,1278,1,0,0:0:0:0:
288,192,1359,1,0,0:0:0:0:
288,192,1440,1,8,0:0:0:0:
288,192,1521,1,0,0:0:0:0:
288,192,1602,1,8,0:0:0:0:
288,192,1684,1,8,0:0:0:0:
288,192,1765,1,0,0:0:0:0:
288,192,1927,1,0,0:0:0:0:
256,192,2089,1,0,0:0:0:0:
256,192,2170,1,0,0:0:0:0:
256,192,2251,1,8,0:0:0:0:
256,192,2332,1,8,0:0:0:0:
256,192,2413,1,0,0:0:0:0:
256,192,2575,1,0,0:0:0:0:
256,192,2657,1,8,0:0:0:0:
256,192,2738,1,0,0:0:0:0:
256,192,2819,1,0,0:0:0:0:
256,192,2900,1,8,0:0:0:0:
256,192,2981,1,8,0:0:0:0:
256,192,3062,1,0,0:0:0:0:
256,192,3224,1,0,0:0:0:0:
288,192,3386,1,0,0:0:0:0:
288,192,3467,1,0,0:0:0:0:
288,192,3548,1,8,0:0:0:0:
288,192,3629,1,8,0:0:0:0:
288,192,3711,1,0,0:0:0:0:
288,192,3873,1,0,0:0:0:0:
256,192,3954,1,0,0:0:0:0:
256,192,4035,1,8,0:0:0:0:
256,192,4116,1,0,0:0:0:0:
256,192,4197,1,8,0:0:0:0:
256,192,4278,1,8,0:0:0:0:
256,192,4359,1,0,0:0:0:0:
288,160,4521,1,0,0:0:0:0:
288,192,4684,1,0,0:0:0:0:
288,192,4765,1,0,0:0:0:0:
288,192,4846,1,8,0:0:0:0:
288,192,4927,1,8,0:0:0:0:
288,192,5008,1,0,0:0:0:0:
288,192,5170,1,0,0:0:0:0:
288,192,5251,1,8,0:0:0:0:
288,192,5332,1,0,0:0:0:0:
288,192,5413,1,0,0:0:0:0:
288,192,5494,1,8,0:0:0:0:
288,192,5575,1,8,0:0:0:0:
288,192,5657,1,0,0:0:0:0:
288,192,5819,1,0,0:0:0:0:
288,192,5981,1,0,0:0:0:0:
288,192,6062,1,0,0:0:0:0:
288,192,6143,1,8,0:0:0:0:
288,192,6224,1,8,0:0:0:0:
288,192,6305,1,0,0:0:0:0:
288,192,6386,1,8,0:0:0:0:
288,192,6467,1,0,0:0:0:0:
288,192,6548,1,0,0:0:0:0:
288,192,6629,1,8,0:0:0:0:
288,192,6711,1,0,0:0:0:0:
288,192,6792,1,8,0:0:0:0:
288,192,6873,1,8,0:0:0:0:
288,192,6954,1,0,0:0:0:0:
288,192,7116,1,0,0:0:0:0:
288,192,7278,1,8,0:0:0:0:
288,192,7359,1,0,0:0:0:0:
288,192,7440,1,8,0:0:0:0:
288,192,7521,1,8,0:0:0:0:
288,192,7602,1,0,0:0:0:0:
288,224,7684,1,0,0:0:0:0:
288,224,7765,1,8,0:0:0:0:
320,224,7846,1,0,0:0:0:0:
320,224,7927,1,8,0:0:0:0:
288,192,8008,1,0,0:0:0:0:
288,192,8089,1,8,0:0:0:0:
320,224,8170,1,8,0:0:0:0:
288,192,8251,1,0,0:0:0:0:
320,192,8413,1,4,0:0:0:0:
256,160,8575,1,0,0:0:0:0:
224,96,8738,1,0,0:0:0:0:
160,96,8900,1,0,0:0:0:0:
320,192,9062,1,0,0:0:0:0:
320,192,9224,1,0,0:0:0:0:
320,192,9386,1,0,0:0:0:0:
320,192,9548,1,0,0:0:0:0:
320,192,10035,1,8,0:0:0:0:
320,192,10116,1,8,0:0:0:0:
320,192,10197,1,8,0:0:0:0:
320,160,10278,1,8,0:0:0:0:
320,224,10359,1,8,0:0:0:0:
288,192,10440,1,8,0:0:0:0:
320,160,10521,1,8,0:0:0:0:
288,224,10602,1,8,0:0:0:0:
320,160,10684,1,8,0:0:0:0:
320,160,10738,1,8,0:0:0:0:
320,160,10792,1,8,0:0:0:0:
320,192,10846,1,0,0:0:0:0:
288,192,11008,1,0,0:0:0:0:
288,192,11170,1,8,0:0:0:0:
288,192,11251,1,0,0:0:0:0:
288,192,11332,1,0,0:0:0:0:
288,192,11494,1,0,0:0:0:0:
256,160,11575,1,0,0:0:0:0:
288,192,11657,1,0,0:0:0:0:
320,192,11819,1,8,0:0:0:0:
320,192,11900,1,0,0:0:0:0:
320,192,11981,1,0,0:0:0:0:
320,192,12143,1,0,0:0:0:0:
320,224,12224,1,0,0:0:0:0:
320,192,12305,1,0,0:0:0:0:
288,160,12467,1,8,0:0:0:0:
320,224,12548,1,0,0:0:0:0:
288,160,12629,1,0,0:0:0:0:
288,160,12792,1,0,0:0:0:0:
288,192,12873,1,0,0:0:0:0:
288,160,12954,1,0,0:0:0:0:
320,160,13116,1,0,0:0:0:0:
320,160,13197,1,0,0:0:0:0:
320,160,13278,1,8,0:0:0:0:
320,160,13359,1,8,0:0:0:0:
320,160,13440,1,8,0:0:0:0:
320,160,13521,1,8,0:0:0:0:
320,160,13602,1,0,0:0:0:0:
288,160,13765,1,8,0:0:0:0:
288,160,13846,1,0,0:0:0:0:
288,160,13927,1,0,0:0:0:0:
288,160,14089,1,0,0:0:0:0:
288,160,14170,1,8,0:0:0:0:
288,160,14251,1,0,0:0:0:0:
288,160,14413,1,8,0:0:0:0:
288,160,14494,1,0,0:0:0:0:
288,160,14575,1,0,0:0:0:0:
288,160,14738,1,0,0:0:0:0:
288,160,14819,1,8,0:0:0:0:
288,160,14900,1,0,0:0:0:0:
288,160,15062,1,8,0:0:0:0:
288,160,15143,1,0,0:0:0:0:
288,160,15224,1,0,0:0:0:0:
320,192,15386,1,0,0:0:0:0:
320,192,15467,1,8,0:0:0:0:
320,192,15548,1,0,0:0:0:0:
256,224,15629,1,0,0:0:0:0:
320,192,15711,1,8,0:0:0:0:
320,192,15792,1,8,0:0:0:0:
320,192,15873,1,0,0:0:0:0:
320,192,15954,1,0,0:0:0:0:
320,192,16035,1,8,0:0:0:0:
320,192,16197,1,0,0:0:0:0:
320,160,16251,1,0,0:0:0:0:
320,160,16305,1,0,0:0:0:0:
320,160,16359,1,8,0:0:0:0:
288,192,16521,1,0,0:0:0:0:
288,160,16684,1,0,0:0:0:0:
288,160,16765,1,8,0:0:0:0:
288,160,16846,1,0,0:0:0:0:
288,160,17008,1,8,0:0:0:0:
288,160,17089,1,8,0:0:0:0:
288,160,17170,1,0,0:0:0:0:
288,160,17332,1,0,0:0:0:0:
288,160,17413,1,8,0:0:0:0:
288,160,17494,1,0,0:0:0:0:
288,160,17657,1,8,0:0:0:0:
288,160,17738,1,8,0:0:0:0:
288,160,17819,1,0,0:0:0:0:
320,192,17981,1,0,0:0:0:0:
320,192,18062,1,8,0:0:0:0:
320,192,18143,1,0,0:0:0:0:
320,192,18305,1,8,0:0:0:0:
320,192,18386,1,0,0:0:0:0:
320,192,18467,1,8,0:0:0:0:
320,192,18548,1,8,0:0:0:0:
320,192,18629,1,8,0:0:0:0:
320,192,18711,1,8,0:0:0:0:
320,192,18792,1,0,0:0:0:0:
288,192,18954,1,8,0:0:0:0:
288,192,19035,1,0,0:0:0:0:
288,192,19116,1,0,0:0:0:0:
288,192,19278,1,0,0:0:0:0:
288,192,19359,1,8,0:0:0:0:
288,192,19440,1,0,0:0:0:0:
288,192,19521,1,0,0:0:0:0:
288,192,19602,1,8,0:0:0:0:
288,192,19683,1,0,0:0:0:0:
288,192,19765,1,0,0:0:0:0:
288,192,19927,1,0,0:0:0:0:
320,224,20089,1,8,0:0:0:0:
320,224,20170,1,0,0:0:0:0:
320,224,20251,1,8,0:0:0:0:
320,224,20332,1,0,0:0:0:0:
320,224,20413,1,8,0:0:0:0:
320,224,20494,1,8,0:0:0:0:
320,224,20575,1,0,0:0:0:0:
320,224,20657,1,0,0:0:0:0:
320,224,20738,1,8,0:0:0:0:
320,224,20900,1,0,0:0:0:0:
320,224,21062,1,8,0:0:0:0:
224,128,21386,1,0,0:0:0:0:
256,160,21467,1,0,0:0:0:0:
256,160,21548,1,0,0:0:0:0:
256,160,21711,1,12,0:0:0:0:
288,192,22035,1,0,0:0:0:0:
288,192,22116,1,0,0:0:0:0:
288,192,22197,1,8,0:0:0:0:
288,192,22359,1,12,0:0:0:0:
288,192,22684,1,0,0:0:0:0:
288,192,22846,1,0,0:0:0:0:
288,192,22927,1,0,0:0:0:0:
288,192,23008,1,8,0:0:0:0:
288,192,23089,1,8,0:0:0:0:
288,192,23170,1,0,0:0:0:0:
288,192,23251,1,8,0:0:0:0:
288,192,23332,1,0,0:0:0:0:
288,192,23494,1,0,0:0:0:0:
288,192,23657,1,8,0:0:0:0:
320,192,23981,1,0,0:0:0:0:
320,192,24062,1,0,0:0:0:0:
320,192,24143,1,0,0:0:0:0:
320,192,24305,1,12,0:0:0:0:
320,192,24629,1,0,0:0:0:0:
320,192,24711,1,8,0:0:0:0:
320,192,24792,1,8,0:0:0:0:
320,192,24954,1,12,0:0:0:0:
320,192,25278,1,0,0:0:0:0:
320,192,25440,1,0,0:0:0:0:
320,192,25521,1,0,0:0:0:0:
320,192,25602,1,8,0:0:0:0:
320,192,25684,1,0,0:0:0:0:
320,192,25765,1,8,0:0:0:0:
320,192,25927,1,8,0:0:0:0:
320,192,26035,1,8,0:0:0:0:
320,192,26143,1,0,0:0:0:0:
320,192,26251,1,8,0:0:0:0:
320,192,26359,1,8,0:0:0:0:
320,192,26467,1,8,0:0:0:0:
320,192,26575,1,0,0:0:0:0:
288,192,26738,1,8,0:0:0:0:
288,192,26900,1,0,0:0:0:0:
288,192,27062,1,8,0:0:0:0:
320,192,27224,1,0,0:0:0:0:
320,192,27305,1,0,0:0:0:0:
320,192,27386,1,8,0:0:0:0:
320,224,27467,1,0,0:0:0:0:
320,192,27548,1,0,0:0:0:0:
320,192,27629,1,0,0:0:0:0:
320,192,27711,1,8,0:0:0:0:
320,192,27873,1,0,0:0:0:0:
320,192,28035,1,8,0:0:0:0:
320,192,28197,1,0,0:0:0:0:
320,192,28359,1,8,0:0:0:0:
320,192,28521,1,0,0:0:0:0:
320,192,28602,1,0,0:0:0:0:
320,192,28684,1,8,0:0:0:0:
288,192,28765,1,8,0:0:0:0:
320,192,28846,1,0,0:0:0:0:
320,192,28927,1,8,0:0:0:0:
320,192,29008,1,8,0:0:0:0:
288,192,29170,1,0,0:0:0:0:
288,192,29251,1,0,0:0:0:0:
288,192,29332,1,8,0:0:0:0:
288,192,29494,1,0,0:0:0:0:
288,192,29575,1,0,0:0:0:0:
288,192,29657,1,8,0:0:0:0:
288,192,29819,1,0,0:0:0:0:
288,160,29900,1,0,0:0:0:0:
288,192,29981,1,8,0:0:0:0:
288,192,30062,1,0,0:0:0:0:
288,192,30143,1,0,0:0:0:0:
288,192,30305,1,8,0:0:0:0:
320,192,30467,1,0,0:0:0:0:
320,192,30548,1,0,0:0:0:0:
320,192,30629,1,8,0:0:0:0:
320,192,30711,1,8,0:0:0:0:
320,192,30792,1,0,0:0:0:0:
320,192,30873,1,8,0:0:0:0:
320,192,30954,1,8,0:0:0:0:
320,192,31035,1,8,0:0:0:0:
320,192,31116,1,0,0:0:0:0:
320,192,31197,1,0,0:0:0:0:
320,192,31278,1,8,0:0:0:0:
288,192,31359,1,8,0:0:0:0:
288,192,31440,1,0,0:0:0:0:
288,192,31521,1,0,0:0:0:0:
288,192,31602,1,8,0:0:0:0:
352,160,31765,1,4,0:0:0:0:
320,224,32413,1,8,0:0:0:0:
256,224,32738,1,8,0:0:0:0:
352,256,33062,1,8,0:0:0:0:
352,288,33711,1,0,0:0:0:0:
320,224,34035,1,8,0:0:0:0:
320,224,34359,1,8,0:0:0:0:
320,256,35008,1,8,0:0:0:0:
320,256,35332,1,8,0:0:0:0:
384,256,35657,1,8,0:0:0:0:
384,224,35981,1,0,0:0:0:0:
256,256,36143,1,0,0:0:0:0:
352,256,36305,1,8,0:0:0:0:
352,256,36629,1,8,0:0:0:0:
320,224,36954,1,0,0:0:0:0:
352,288,37116,1,0,0:0:0:0:
352,288,37278,1,0,0:0:0:0:
352,288,37440,1,0,0:0:0:0:
352,224,37602,1,8,0:0:0:0:
352,256,37927,1,8,0:0:0:0:
352,256,38251,1,8,0:0:0:0:
352,256,38413,1,0,0:0:0:0:
352,256,38575,1,0,0:0:0:0:
352,256,38738,1,0,0:0:0:0:
352,256,38900,1,8,0:0:0:0:
352,256,39224,5,8,0:0:0:0:
352,224,39548,1,0,0:0:0:0:
352,256,39711,1,0,0:0:0:0:
352,256,39873,1,0,0:0:0:0:
320,256,40035,1,0,0:0:0:0:
352,256,40197,1,8,0:0:0:0:
352,256,40521,1,8,0:0:0:0:
256,192,40846,12,0,41819,0:0:0:0:
288,224,42143,5,4,0:0:0:0:
288,192,42305,1,0,0:0:0:0:
288,192,42386,1,0,0:0:0:0:
288,192,42467,1,8,0:0:0:0:
288,192,42629,1,0,0:0:0:0:
288,192,42711,1,8,0:0:0:0:
288,192,42792,1,0,0:0:0:0:
288,192,42873,1,0,0:0:0:0:
288,192,42954,1,8,0:0:0:0:
288,192,43035,1,0,0:0:0:0:
288,192,43116,1,8,0:0:0:0:
288,192,43197,1,8,0:0:0:0:
288,192,43278,1,0,0:0:0:0:
288,192,43440,1,8,0:0:0:0:
288,192,43521,1,8,0:0:0:0:
288,192,43602,1,0,0:0:0:0:
288,192,43684,1,0,0:0:0:0:
288,192,43765,1,8,0:0:0:0:
320,256,43846,1,0,0:0:0:0:
320,256,43927,1,8,0:0:0:0:
288,224,44008,1,8,0:0:0:0:
288,224,44089,1,0,0:0:0:0:
288,224,44170,1,0,0:0:0:0:
288,224,44251,1,8,0:0:0:0:
320,192,44332,1,0,0:0:0:0:
320,192,44413,1,8,0:0:0:0:
320,192,44494,1,8,0:0:0:0:
320,192,44575,1,0,0:0:0:0:
352,224,44738,1,0,0:0:0:0:
320,224,44900,1,0,0:0:0:0:
320,224,44981,1,0,0:0:0:0:
320,224,45062,1,8,0:0:0:0:
320,224,45224,1,0,0:0:0:0:
288,192,45305,1,0,0:0:0:0:
320,224,45386,1,8,0:0:0:0:
320,224,45467,1,8,0:0:0:0:
320,224,45548,1,0,0:0:0:0:
320,224,45629,1,8,0:0:0:0:
288,192,45711,1,0,0:0:0:0:
288,192,45792,1,0,0:0:0:0:
288,192,45873,1,8,0:0:0:0:
288,224,46035,1,8,0:0:0:0:
288,224,46116,1,0,0:0:0:0:
288,224,46197,1,0,0:0:0:0:
288,224,46278,1,0,0:0:0:0:
288,224,46359,1,8,0:0:0:0:
288,224,46440,1,0,0:0:0:0:
288,224,46521,1,8,0:0:0:0:
288,224,46602,1,8,0:0:0:0:
288,224,46684,1,0,0:0:0:0:
288,224,46765,1,0,0:0:0:0:
288,224,46846,1,8,0:0:0:0:
288,224,46927,1,8,0:0:0:0:
288,224,47008,1,0,0:0:0:0:
288,224,47089,1,0,0:0:0:0:
288,224,47170,1,8,0:0:0:0:
320,224,47332,1,0,0:0:0:0:
320,224,47413,1,0,0:0:0:0:
320,224,47494,1,8,0:0:0:0:
320,224,47575,1,8,0:0:0:0:
320,224,47657,1,0,0:0:0:0:
320,224,47738,1,0,0:0:0:0:
320,224,47819,1,8,0:0:0:0:
320,224,47900,1,0,0:0:0:0:
320,224,47981,1,8,0:0:0:0:
320,224,48062,1,8,0:0:0:0:
320,224,48143,1,0,0:0:0:0:
320,224,48224,1,0,0:0:0:0:
320,224,48305,1,8,0:0:0:0:
320,224,48386,1,0,0:0:0:0:
320,224,48467,1,0,0:0:0:0:
320,224,48629,1,8,0:0:0:0:
320,224,48711,1,8,0:0:0:0:
320,224,48792,1,0,0:0:0:0:
320,224,48873,1,0,0:0:0:0:
320,224,48954,1,8,0:0:0:0:
320,224,49035,1,0,0:0:0:0:
320,224,49116,1,8,0:0:0:0:
288,224,49197,1,8,0:0:0:0:
320,224,49278,1,0,0:0:0:0:
320,224,49359,1,0,0:0:0:0:
320,224,49440,1,8,0:0:0:0:
320,224,49521,1,8,0:0:0:0:
320,224,49602,1,0,0:0:0:0:
320,224,49684,1,8,0:0:0:0:
320,224,49765,1,8,0:0:0:0:
320,224,49927,1,0,0:0:0:0:
320,224,50008,1,0,0:0:0:0:
320,224,50089,1,8,0:0:0:0:
320,224,50170,1,0,0:0:0:0:
320,224,50251,1,8,0:0:0:0:
320,224,50332,1,8,0:0:0:0:
320,224,50413,1,0,0:0:0:0:
320,224,50494,1,0,0:0:0:0:
320,224,50575,1,8,0:0:0:0:
320,224,50657,1,0,0:0:0:0:
320,224,50738,1,0,0:0:0:0:
320,224,50819,1,8,0:0:0:0:
320,224,50900,1,0,0:0:0:0:
320,224,50981,1,0,0:0:0:0:
320,224,51062,1,8,0:0:0:0:
320,224,51143,1,0,0:0:0:0:
256,192,51224,12,8,52197,0:0:0:0:
288,224,52521,5,4,0:0:0:0:
256,224,52684,1,0,0:0:0:0:
256,224,52765,1,0,0:0:0:0:
256,224,52846,1,8,0:0:0:0:
320,160,53008,1,0,0:0:0:0:
288,192,53089,1,0,0:0:0:0:
320,192,53170,1,8,0:0:0:0:
320,192,53251,1,8,0:0:0:0:
320,192,53332,1,0,0:0:0:0:
320,192,53413,1,0,0:0:0:0:
320,192,53494,1,8,0:0:0:0:
320,192,53657,1,0,0:0:0:0:
288,192,53819,1,8,0:0:0:0:
288,192,53900,1,8,0:0:0:0:
288,192,53981,1,0,0:0:0:0:
288,192,54143,1,8,0:0:0:0:
288,192,54305,1,0,0:0:0:0:
288,192,54386,1,0,0:0:0:0:
288,192,54467,1,8,0:0:0:0:
288,192,54629,1,0,0:0:0:0:
288,192,54792,1,8,0:0:0:0:
320,224,54873,1,8,0:0:0:0:
352,224,54954,1,0,0:0:0:0:
256,192,55116,1,0,0:0:0:0:
256,192,55278,1,0,0:0:0:0:
256,192,55359,1,0,0:0:0:0:
256,192,55440,1,8,0:0:0:0:
256,192,55602,1,0,0:0:0:0:
352,224,55684,1,0,0:0:0:0:
256,192,55765,1,8,0:0:0:0:
256,192,55846,1,0,0:0:0:0:
256,192,55927,1,0,0:0:0:0:
256,192,56008,1,0,0:0:0:0:
256,192,56089,1,8,0:0:0:0:
256,192,56251,1,8,0:0:0:0:
288,192,56413,1,0,0:0:0:0:
288,192,56494,1,0,0:0:0:0:
288,192,56575,1,0,0:0:0:0:
288,192,56738,1,8,0:0:0:0:
288,192,56900,1,0,0:0:0:0:
320,224,56981,1,8,0:0:0:0:
352,256,57062,1,0,0:0:0:0:
384,256,57224,1,0,0:0:0:0:
288,192,57386,1,8,0:0:0:0:
320,256,57467,1,8,0:0:0:0:
320,256,57548,1,0,0:0:0:0:
288,224,57711,1,4,0:0:0:0:
288,192,57873,1,0,0:0:0:0:
288,192,57954,1,0,0:0:0:0:
288,224,58035,1,8,0:0:0:0:
288,224,58197,1,0,0:0:0:0:
352,256,58278,1,0,0:0:0:0:
288,192,58359,1,8,0:0:0:0:
288,192,58440,1,8,0:0:0:0:
288,192,58521,1,0,0:0:0:0:
288,192,58602,1,0,0:0:0:0:
288,192,58684,1,8,0:0:0:0:
288,192,58846,1,0,0:0:0:0:
288,192,59008,1,8,0:0:0:0:
288,192,59089,1,8,0:0:0:0:
288,192,59170,1,0,0:0:0:0:
288,192,59332,1,8,0:0:0:0:
288,192,59494,1,0,0:0:0:0:
288,192,59575,1,0,0:0:0:0:
288,192,59657,1,8,0:0:0:0:
288,192,59819,1,0,0:0:0:0:
384,224,59981,1,8,0:0:0:0:
384,224,60062,1,8,0:0:0:0:
384,224,60143,1,0,0:0:0:0:
320,224,60305,1,0,0:0:0:0:
320,192,60467,1,0,0:0:0:0:
320,192,60548,1,0,0:0:0:0:
320,224,60629,1,8,0:0:0:0:
320,224,60792,1,0,0:0:0:0:
384,192,60873,1,0,0:0:0:0:
320,224,60954,1,8,0:0:0:0:
320,224,61035,1,0,0:0:0:0:
320,224,61116,1,0,0:0:0:0:
320,224,61197,1,0,0:0:0:0:
320,224,61278,1,8,0:0:0:0:
288,224,61440,1,8,0:0:0:0:
288,224,61602,1,0,0:0:0:0:
288,224,61684,1,0,0:0:0:0:
288,224,61765,1,0,0:0:0:0:
288,224,61927,1,8,0:0:0:0:
288,224,62089,1,0,0:0:0:0:
288,224,62170,1,0,0:0:0:0:
288,224,62251,1,8,0:0:0:0:
288,224,62413,1,0,0:0:0:0:
288,224,62575,1,8,0:0:0:0:
288,224,62657,1,0,0:0:0:0:
288,224,62738,1,8,0:0:0:0:
288,224,62819,1,8,0:0:0:0:
288,224,62900,1,0,0:0:0:0:
320,224,63062,1,0,0:0:0:0:
320,224,63143,1,0,0:0:0:0:
320,224,63224,1,8,0:0:0:0:
320,224,63386,1,0,0:0:0:0:
352,224,63467,1,0,0:0:0:0:
288,224,63548,1,8,0:0:0:0:
320,224,63629,1,8,0:0:0:0:
320,224,63711,1,0,0:0:0:0:
320,224,63792,1,0,0:0:0:0:
320,224,63873,1,8,0:0:0:0:
320,224,64035,1,0,0:0:0:0:
320,224,64197,1,8,0:0:0:0:
320,224,64278,1,8,0:0:0:0:
320,224,64359,1,0,0:0:0:0:
320,224,64521,1,8,0:0:0:0:
320,224,64684,1,0,0:0:0:0:
320,224,64765,1,0,0:0:0:0:
320,224,64846,1,8,0:0:0:0:
320,224,65008,1,0,0:0:0:0:
320,224,65170,1,8,0:0:0:0:
320,224,65332,1,8,0:0:0:0:
320,192,65657,1,0,0:0:0:0:
320,192,65711,1,0,0:0:0:0:
320,224,65765,1,0,0:0:0:0:
320,192,65819,1,8,0:0:0:0:
352,192,65981,1,8,0:0:0:0:
320,160,66143,1,8,0:0:0:0:
320,160,66224,1,8,0:0:0:0:
320,160,66305,1,8,0:0:0:0:
320,192,66386,1,8,0:0:0:0:
320,160,66467,1,8,0:0:0:0:
320,192,66792,1,8,0:0:0:0:
320,192,66954,1,8,0:0:0:0:
320,192,67035,1,0,0:0:0:0:
320,192,67197,1,0,0:0:0:0:
320,192,67278,1,8,0:0:0:0:
320,192,67440,1,0,0:0:0:0:
320,192,67521,1,8,0:0:0:0:
320,192,67602,1,0,0:0:0:0:
320,192,67684,1,0,0:0:0:0:
320,192,67765,1,8,0:0:0:0:
224,160,67846,1,0,0:0:0:0:
320,192,67927,1,8,0:0:0:0:
320,192,68089,1,4,0:0:0:0:
320,192,68251,1,0,0:0:0:0:
320,192,68332,1,0,0:0:0:0:
320,192,68413,1,8,0:0:0:0:
320,192,68494,1,0,0:0:0:0:
320,192,68575,1,8,0:0:0:0:
288,192,68738,1,4,0:0:0:0:
352,192,68900,1,0,0:0:0:0:
352,192,68981,1,8,0:0:0:0:
352,192,69062,1,8,0:0:0:0:
352,192,69143,1,0,0:0:0:0:
352,192,69224,1,8,0:0:0:0:
352,192,69386,1,4,0:0:0:0:
352,192,69548,1,8,0:0:0:0:
352,192,69629,1,8,0:0:0:0:
352,192,69711,1,0,0:0:0:0:
352,192,69792,1,0,0:0:0:0:
352,192,69873,1,8,0:0:0:0:
352,192,70035,1,4,0:0:0:0:
352,192,70197,1,8,0:0:0:0:
352,192,70278,1,0,0:0:0:0:
352,192,70359,1,8,0:0:0:0:
352,192,70440,1,8,0:0:0:0:
352,192,70521,1,8,0:0:0:0:
352,192,70684,1,0,0:0:0:0:
384,256,70765,1,0,0:0:0:0:
352,192,70846,1,0,0:0:0:0:
352,192,70927,1,0,0:0:0:0:
352,192,71008,1,8,0:0:0:0:
352,224,71170,1,8,0:0:0:0:
352,256,71251,1,0,0:0:0:0:
352,224,71332,1,8,0:0:0:0:
352,224,71494,1,0,0:0:0:0:
352,256,71657,1,8,0:0:0:0:
352,256,71738,1,8,0:0:0:0:
352,224,71819,1,0,0:0:0:0:
288,160,71900,1,0,0:0:0:0:
352,224,71981,1,8,0:0:0:0:
352,224,72143,1,0,0:0:0:0:
352,224,72224,1,0,0:0:0:0:
352,224,72305,1,8,0:0:0:0:
384,256,72467,1,0,0:0:0:0:
384,256,72548,1,0,0:0:0:0:
352,192,72629,1,8,0:0:0:0:
352,256,72711,1,0,0:0:0:0:
416,192,72792,1,8,0:0:0:0:
352,256,72873,1,8,0:0:0:0:
416,192,72954,1,0,0:0:0:0:
352,256,73035,1,0,0:0:0:0:
352,256,73116,1,8,0:0:0:0:
320,256,73197,1,8,0:0:0:0:
256,192,73278,12,0,78467,0:0:0:0:
288,192,81062,5,0,0:0:0:0:
288,192,81224,1,8,0:0:0:0:
288,192,81386,1,0,0:0:0:0:
288,192,81548,1,8,0:0:0:0:
288,192,81711,1,0,0:0:0:0:
288,192,81792,1,0,0:0:0:0:
288,192,81873,1,8,0:0:0:0:
288,192,82035,1,0,0:0:0:0:
288,192,82197,1,8,0:0:0:0:
320,192,82359,1,0,0:0:0:0:
320,192,82440,1,0,0:0:0:0:
320,192,82521,1,8,0:0:0:0:
320,192,82602,1,0,0:0:0:0:
352,256,82684,1,0,0:0:0:0:
320,224,82765,1,0,0:0:0:0:
352,256,82846,1,8,0:0:0:0:
352,256,82927,1,8,0:0:0:0:
320,192,83008,1,0,0:0:0:0:
320,192,83089,1,0,0:0:0:0:
320,192,83170,1,8,0:0:0:0:
352,224,83251,1,8,0:0:0:0:
320,192,83332,1,0,0:0:0:0:
320,192,83413,1,8,0:0:0:0:
320,192,83494,1,8,0:0:0:0:
224,128,83657,1,0,0:0:0:0:
256,160,83738,1,0,0:0:0:0:
256,160,83819,1,0,0:0:0:0:
256,160,83982,1,12,0:0:0:0:
288,192,84306,1,0,0:0:0:0:
288,192,84387,1,0,0:0:0:0:
288,192,84468,1,8,0:0:0:0:
288,192,84630,1,12,0:0:0:0:
288,192,84954,1,12,0:0:0:0:
288,192,85279,1,12,0:0:0:0:
288,192,85603,1,4,0:0:0:0:
288,192,85928,1,4,0:0:0:0:
320,192,86252,1,0,0:0:0:0:
320,192,86333,1,0,0:0:0:0:
320,192,86414,1,0,0:0:0:0:
320,192,86576,1,12,0:0:0:0:
320,192,86900,1,0,0:0:0:0:
320,192,86982,1,8,0:0:0:0:
320,192,87063,1,8,0:0:0:0:
320,192,87225,1,12,0:0:0:0:
256,192,87548,1,8,0:0:0:0:
256,192,87629,1,8,0:0:0:0:
256,192,87711,1,0,0:0:0:0:
256,192,87792,1,0,0:0:0:0:
256,192,87873,1,8,0:0:0:0:
256,192,87954,1,0,0:0:0:0:
256,192,88035,1,8,0:0:0:0:
256,192,88116,1,8,0:0:0:0:
256,192,88197,1,0,0:0:0:0:
288,224,88305,1,0,0:0:0:0:
256,192,88413,1,0,0:0:0:0:
256,192,88521,1,8,0:0:0:0:
256,192,88629,1,0,0:0:0:0:
224,192,88738,1,8,0:0:0:0:
224,192,88846,1,0,0:0:0:0:
256,192,89008,1,0,0:0:0:0:
256,192,89089,1,0,0:0:0:0:
256,192,89170,1,8,0:0:0:0:
224,160,89251,1,8,0:0:0:0:
288,192,89332,1,0,0:0:0:0:
288,192,89494,1,0,0:0:0:0:
288,192,89657,1,0,0:0:0:0:
288,192,89738,1,0,0:0:0:0:
288,192,89819,1,8,0:0:0:0:
288,192,89981,1,8,0:0:0:0:
288,256,90062,1,8,0:0:0:0:
288,192,90143,1,0,0:0:0:0:
288,192,90305,1,0,0:0:0:0:
288,192,90386,1,0,0:0:0:0:
288,192,90467,1,8,0:0:0:0:
384,288,90548,1,0,0:0:0:0:
384,288,90629,1,8,0:0:0:0:
416,224,90711,1,8,0:0:0:0:
288,192,90792,1,0,0:0:0:0:
352,256,90954,1,8,0:0:0:0:
352,288,91035,1,0,0:0:0:0:
288,192,91116,1,8,0:0:0:0:
352,288,91197,1,8,0:0:0:0:
352,256,91278,1,0,0:0:0:0:
352,256,91359,1,0,0:0:0:0:
288,192,91440,1,8,0:0:0:0:
320,256,91521,1,8,0:0:0:0:
384,256,91602,1,8,0:0:0:0:
320,224,91684,1,0,0:0:0:0:
320,224,91765,1,8,0:0:0:0:
320,224,91846,1,0,0:0:0:0:
320,224,91927,1,8,0:0:0:0:
320,224,92008,1,8,0:0:0:0:
320,224,92089,1,0,0:0:0:0:
320,224,92170,1,8,0:0:0:0:
320,224,92251,1,0,0:0:0:0:
352,224,92332,1,8,0:0:0:0:
352,224,92413,1,8,0:0:0:0:
352,224,92494,1,0,0:0:0:0:
352,224,92575,1,8,0:0:0:0:
352,224,92657,1,8,0:0:0:0:
352,224,92738,1,0,0:0:0:0:
352,224,92900,1,0,0:0:0:0:
352,224,93062,1,8,0:0:0:0:
352,224,93224,1,0,0:0:0:0:
352,224,93305,1,0,0:0:0:0:
352,224,93386,1,8,0:0:0:0:
352,224,93467,1,0,0:0:0:0:
352,224,93548,1,8,0:0:0:0:
352,224,93629,1,0,0:0:0:0:
352,224,93711,1,8,0:0:0:0:
288,192,93792,1,8,0:0:0:0:
288,192,93873,1,8,0:0:0:0:
384,256,93954,1,8,0:0:0:0:
288,224,94035,1,0,0:0:0:0:
288,224,94359,1,8,0:0:0:0:
288,224,94521,1,0,0:0:0:0:
288,224,94602,1,0,0:0:0:0:
288,224,94684,1,8,0:0:0:0:
320,224,94846,1,0,0:0:0:0:
320,224,94927,1,8,0:0:0:0:
320,224,95089,1,8,0:0:0:0:
320,224,95170,1,0,0:0:0:0:
320,224,95332,1,0,0:0:0:0:
320,224,95494,1,8,0:0:0:0:
384,256,95575,1,0,0:0:0:0:
320,224,95738,1,8,0:0:0:0:
320,224,95819,1,8,0:0:0:0:
320,224,95981,1,0,0:0:0:0:
320,224,96143,1,8,0:0:0:0:
320,224,96224,1,0,0:0:0:0:
320,224,96386,1,0,0:0:0:0:
320,224,96467,1,8,0:0:0:0:
384,256,96629,1,8,0:0:0:0:
416,256,96711,1,8,0:0:0:0:
320,224,96792,1,0,0:0:0:0:
320,224,96873,1,0,0:0:0:0:
320,224,96954,1,8,0:0:0:0:
416,256,97035,1,0,0:0:0:0:
320,224,97116,1,0,0:0:0:0:
320,224,97197,1,0,0:0:0:0:
320,224,97278,1,8,0:0:0:0:
320,224,97440,1,0,0:0:0:0:
320,224,97521,1,8,0:0:0:0:
320,224,97602,1,0,0:0:0:0:
320,224,97684,1,0,0:0:0:0:
320,224,97765,1,8,0:0:0:0:
352,224,97927,1,0,0:0:0:0:
352,224,98035,1,0,0:0:0:0:
352,224,98143,1,8,0:0:0:0:
352,224,98251,1,8,0:0:0:0:
320,160,98359,1,0,0:0:0:0:
320,192,98467,1,8,0:0:0:0:
352,192,98575,1,8,0:0:0:0:
352,192,98684,1,0,0:0:0:0:
352,192,98792,1,8,0:0:0:0:
352,192,98900,1,0,0:0:0:0:
352,192,99008,1,8,0:0:0:0:
352,192,99116,1,8,0:0:0:0:
352,192,99224,1,0,0:0:0:0:
352,224,99467,1,0,0:0:0:0:
352,224,99548,1,8,0:0:0:0:
352,192,99711,1,0,0:0:0:0:
352,224,99792,1,8,0:0:0:0:
352,192,99873,1,8,0:0:0:0:
352,192,100035,1,0,0:0:0:0:
352,224,100116,1,0,0:0:0:0:
352,192,100197,1,8,0:0:0:0:
352,192,100359,1,0,0:0:0:0:
320,192,100521,1,8,0:0:0:0:
320,192,100602,1,8,0:0:0:0:
320,192,100684,1,0,0:0:0:0:
352,224,100765,1,0,0:0:0:0:
352,224,100846,1,8,0:0:0:0:
352,224,100927,1,0,0:0:0:0:
352,224,101008,1,8,0:0:0:0:
352,224,101089,1,8,0:0:0:0:
352,224,101170,1,8,0:0:0:0:
352,224,101251,1,0,0:0:0:0:
352,224,101332,1,0,0:0:0:0:
352,224,101413,1,0,0:0:0:0:
352,224,101494,1,8,0:0:0:0:
352,224,101575,1,0,0:0:0:0:
352,224,101657,1,8,0:0:0:0:
352,224,101738,1,0,0:0:0:0:
352,224,101819,1,0,0:0:0:0:
352,224,102062,1,0,0:0:0:0:
352,224,102143,1,8,0:0:0:0:
352,224,102305,1,0,0:0:0:0:
352,224,102467,1,0,0:0:0:0:
384,256,102548,1,8,0:0:0:0:
352,224,102629,1,0,0:0:0:0:
352,256,102711,1,0,0:0:0:0:
352,224,102792,1,8,0:0:0:0:
352,224,102954,1,0,0:0:0:0:
352,224,103116,1,0,0:0:0:0:
352,224,103197,1,0,0:0:0:0:
352,224,103278,1,0,0:0:0:0:
352,224,103440,1,8,0:0:0:0:
352,224,103521,1,0,0:0:0:0:
352,224,103602,1,8,0:0:0:0:
352,224,103684,1,8,0:0:0:0:
352,224,103765,1,0,0:0:0:0:
352,224,103927,1,8,0:0:0:0:
352,224,104008,1,8,0:0:0:0:
352,224,104089,1,0,0:0:0:0:
352,224,104170,1,0,0:0:0:0:
352,224,104251,1,8,0:0:0:0:
352,224,104413,1,8,0:0:0:0:
352,224,104575,1,0,0:0:0:0:
352,224,104657,1,0,0:0:0:0:
352,224,104738,1,8,0:0:0:0:
320,224,104900,1,0,0:0:0:0:
320,224,104981,1,0,0:0:0:0:
320,224,105062,1,8,0:0:0:0:
320,224,105143,1,0,0:0:0:0:
320,224,105224,1,8,0:0:0:0:
320,224,105305,1,8,0:0:0:0:
320,224,105386,1,0,0:0:0:0:
320,224,105467,1,0,0:0:0:0:
320,224,105548,1,8,0:0:0:0:
320,224,105711,1,8,0:0:0:0:
320,224,105873,1,0,0:0:0:0:
320,224,105954,1,0,0:0:0:0:
320,224,106035,1,8,0:0:0:0:
320,224,106197,1,0,0:0:0:0:
320,224,106278,1,8,0:0:0:0:
320,224,106359,1,0,0:0:0:0:
320,224,106440,1,0,0:0:0:0:
320,224,106521,1,8,0:0:0:0:
320,224,106602,1,0,0:0:0:0:
320,224,106684,1,8,0:0:0:0:
320,224,106765,1,8,0:0:0:0:
320,224,106846,1,0,0:0:0:0:
384,256,106927,1,8,0:0:0:0:
320,224,107008,1,0,0:0:0:0:
320,224,107170,1,0,0:0:0:0:
320,224,107251,1,0,0:0:0:0:
320,224,107332,1,8,0:0:0:0:
320,224,107494,1,0,0:0:0:0:
320,224,107575,1,0,0:0:0:0:
320,224,107657,1,0,0:0:0:0:
320,224,107819,1,0,0:0:0:0:
320,224,107900,1,0,0:0:0:0:
320,224,107981,1,8,0:0:0:0:
352,320,108062,1,8,0:0:0:0:
352,288,108143,1,0,0:0:0:0:
384,288,108224,1,0,0:0:0:0:
352,288,108305,1,8,0:0:0:0:
352,288,108386,1,0,0:0:0:0:
352,288,108467,1,8,0:0:0:0:
352,288,108548,1,0,0:0:0:0:
352,288,108629,1,8,0:0:0:0:
384,288,108711,1,8,0:0:0:0:
352,256,108792,1,0,0:0:0:0:
352,256,108954,1,8,0:0:0:0:
352,256,109116,1,0,0:0:0:0:
352,256,109197,1,8,0:0:0:0:
352,256,109278,1,8,0:0:0:0:
352,288,109440,1,8,0:0:0:0:
352,256,109602,1,0,0:0:0:0:
352,256,109684,1,0,0:0:0:0:
352,256,109765,1,0,0:0:0:0:
352,256,109846,1,0,0:0:0:0:
352,256,109927,1,8,0:0:0:0:
352,256,110008,1,0,0:0:0:0:
352,256,110089,1,8,0:0:0:0:
352,256,110170,1,8,0:0:0:0:
352,256,110251,1,0,0:0:0:0:
352,256,110332,1,0,0:0:0:0:
384,256,110413,1,8,0:0:0:0:
352,256,110494,1,0,0:0:0:0:
352,256,110575,1,8,0:0:0:0:
352,256,110657,1,0,0:0:0:0:
352,256,110738,1,8,0:0:0:0:
352,256,110819,1,8,0:0:0:0:
352,224,110900,1,0,0:0:0:0:
352,224,110981,1,0,0:0:0:0:
352,224,111062,1,8,0:0:0:0:
352,224,111143,1,0,0:0:0:0:
352,224,111224,1,8,0:0:0:0:
352,224,111305,1,8,0:0:0:0:
352,224,111386,1,0,0:0:0:0:
352,224,111467,1,8,0:0:0:0:
352,224,111548,1,0,0:0:0:0:
352,224,111629,1,0,0:0:0:0:
352,224,111711,1,8,0:0:0:0:
320,224,111792,1,8,0:0:0:0:
320,224,111873,1,0,0:0:0:0:
320,224,111954,1,0,0:0:0:0:
320,224,112035,1,8,0:0:0:0:
320,224,112197,1,8,0:0:0:0:
320,192,112278,1,8,0:0:0:0:
352,224,112359,1,0,0:0:0:0:
352,224,112440,1,0,0:0:0:0:
352,224,112521,1,8,0:0:0:0:
352,224,112602,1,0,0:0:0:0:
352,224,112684,1,8,0:0:0:0:
352,224,112765,1,8,0:0:0:0:
352,224,112846,1,0,0:0:0:0:
320,224,113008,1,0,0:0:0:0:
320,224,113089,1,0,0:0:0:0:
320,224,113170,1,8,0:0:0:0:
288,192,113251,1,0,0:0:0:0:
320,224,113332,1,8,0:0:0:0:
320,224,113494,1,8,0:0:0:0:
320,224,113575,1,0,0:0:0:0:
320,224,113657,1,8,0:0:0:0:
352,224,113819,1,8,0:0:0:0:
352,192,113900,1,0,0:0:0:0:
352,192,113981,1,8,0:0:0:0:
320,192,114143,1,8,0:0:0:0:
320,192,114251,1,8,0:0:0:0:
320,192,114359,1,0,0:0:0:0:
320,192,114467,1,8,0:0:0:0:
352,192,114575,1,8,0:0:0:0:
352,192,114684,1,8,0:0:0:0:
256,192,115116,12,8,119981,0:0:0:0:
