osu file format v14

[General]
AudioFilename: BLACK or WHITE.mp3
AudioLeadIn: 0
PreviewTime: 52440
Countdown: 0
SampleSet: Normal
StackLeniency: 0.7
Mode: 1
LetterboxInBreaks: 0
WidescreenStoryboard: 0

[Editor]
DistanceSpacing: 1
BeatDivisor: 4
GridSize: 32
TimelineZoom: 2.4

[Metadata]
Title:BLACK or WHITE?
TitleUnicode:BLACK or WHITE?
Artist:BlackYooh vs. siromaru
ArtistUnicode:BlackYooh vs. siromaru
Creator:komasy
Version:Muzukashii
Source:SOUND VOLTEX II -infinite infection-
Tags:SDVX KAC 2013 Yooh BlackY schranz nyanmi-1828 jubeat Qubell hardcore symphonic
BeatmapID:1073781
BeatmapSetID:504720

[Difficulty]
HPDrainRate:5
CircleSize:5
OverallDifficulty:5
ApproachRate:5
SliderMultiplier:1.4
SliderTickRate:1

[Events]
//Background and Video events
0,0,"black_white_patterns_lines_light_11374_1366x768.jpg",0,0
//Break Periods
2,31965,35754
2,73478,76667
//Storyboard Layer 0 (Background)
//Storyboard Layer 1 (Fail)
//Storyboard Layer 2 (Pass)
//Storyboard Layer 3 (Foreground)
//Storyboard Sound Samples

[TimingPoints]
630,324.324324324324,4,1,0,80,1,0
31805,-100,4,1,0,50,0,0
41981,-100,4,1,0,80,0,0
51143,-100,4,1,0,70,0,0
52157,-100,4,1,0,90,0,0
52440,-100,4,1,0,95,0,0
52521,-100,4,1,0,95,0,1
65494,-100,4,1,0,95,0,0
65819,-100,4,1,0,95,0,1
73278,-100,4,1,0,90,0,0
73359,-100,4,1,0,50,0,0
80981,-100,4,1,0,60,0,0
82278,-100,4,1,0,70,0,0
83575,-100,4,1,0,85,0,0
93954,-100,4,1,0,95,0,0
94035,-100,4,1,0,95,0,1
115116,-100,4,1,0,95,0,0
115440,-100,4,1,0,80,0,0
115765,-100,4,1,0,70,0,0
116089,-100,4,1,0,60,0,0
116413,-100,4,1,0,50,0,0
116738,-100,4,1,0,40,0,0
117062,-100,4,1,0,30,0,0
117386,-100,4,1,0,20,0,0
117711,-100,4,1,0,10,0,0

[HitObjects]
224,160,630,5,0,0:0:0:0:
224,160,954,1,8,0:0:0:0:
224,160,1116,1,0,0:0:0:0:
224,160,1278,1,0,0:0:0:0:
352,160,1602,1,2,0:0:0:0:
224,160,1927,1,0,0:0:0:0:
192,192,2089,1,0,0:0:0:0:
256,192,2251,1,8,0:0:0:0:
448,288,2575,1,0,0:0:0:0:
288,160,2900,1,8,0:0:0:0:
480,224,3224,1,0,0:0:0:0:
448,288,3548,1,8,0:0:0:0:
416,224,3711,1,2,0:0:0:0:
384,160,3873,1,0,0:0:0:0:
288,224,4197,1,8,0:0:0:0:
352,128,4521,1,0,0:0:0:0:
384,192,4683,1,2,0:0:0:0:
448,224,4846,1,8,0:0:0:0:
480,192,5170,1,0,0:0:0:0:
192,160,5819,1,0,0:0:0:0:
256,224,6143,1,8,0:0:0:0:
256,160,6305,1,8,0:0:0:0:
256,160,6467,1,0,0:0:0:0:
256,160,6792,1,8,0:0:0:0:
512,96,7116,1,0,0:0:0:0:
480,128,7278,1,0,0:0:0:0:
416,96,7440,1,8,0:0:0:0:
352,96,7602,1,8,0:0:0:0:
320,128,7765,1,0,0:0:0:0:
192,128,8089,1,8,0:0:0:0:
416,224,8413,1,4,0:0:0:0:
320,128,8575,1,0,0:0:0:0:
320,128,8738,1,0,0:0:0:0:
320,192,8900,1,0,0:0:0:0:
320,192,9062,1,0,0:0:0:0:
320,192,9224,1,0,0:0:0:0:
320,192,9386,1,0,0:0:0:0:
320,192,9548,1,0,0:0:0:0:
288,224,10035,2,0,P|352:256|320:288,2,140
256,224,11008,5,4,0:0:0:0:
416,224,11332,1,8,0:0:0:0:
256,96,11657,1,0,0:0:0:0:
160,128,11819,1,2,0:0:0:0:
96,160,11981,1,0,0:0:0:0:
320,160,12143,1,2,0:0:0:0:
416,224,12305,1,0,0:0:0:0:
320,160,12629,1,2,0:0:0:0:
160,128,12954,1,0,0:0:0:0:
384,224,13278,1,2,0:0:0:0:
320,192,13359,1,2,0:0:0:0:
352,224,13440,1,2,0:0:0:0:
352,224,13602,1,0,0:0:0:0:
480,224,13927,1,8,0:0:0:0:
448,192,14251,1,0,0:0:0:0:
352,192,14413,1,0,0:0:0:0:
288,192,14575,1,2,0:0:0:0:
224,160,14738,1,8,0:0:0:0:
352,192,14900,1,0,0:0:0:0:
320,96,15224,1,8,0:0:0:0:
320,96,15548,1,0,0:0:0:0:
352,128,15629,1,0,0:0:0:0:
352,192,15711,1,0,0:0:0:0:
352,192,15873,1,8,0:0:0:0:
352,192,16035,1,8,0:0:0:0:
224,160,16521,1,0,0:0:0:0:
224,160,16846,1,0,0:0:0:0:
320,192,17008,1,8,0:0:0:0:
288,160,17170,1,0,0:0:0:0:
224,160,17332,1,2,0:0:0:0:
224,160,17494,1,0,0:0:0:0:
128,96,17819,1,2,0:0:0:0:
256,128,18143,1,0,0:0:0:0:
320,96,18467,1,8,0:0:0:0:
320,96,18548,1,8,0:0:0:0:
352,128,18629,1,8,0:0:0:0:
224,160,18792,1,0,0:0:0:0:
192,160,19116,1,0,0:0:0:0:
224,160,19278,1,0,0:0:0:0:
160,160,19440,1,8,0:0:0:0:
352,192,19765,1,8,0:0:0:0:
352,192,19927,1,8,0:0:0:0:
224,160,20089,1,0,0:0:0:0:
288,160,20251,1,0,0:0:0:0:
224,160,20413,1,0,0:0:0:0:
288,128,20575,1,0,0:0:0:0:
352,192,20738,1,8,0:0:0:0:
224,160,21386,1,0,0:0:0:0:
320,160,21711,1,6,0:0:0:0:
32,32,22035,1,0,0:0:0:0:
128,64,22359,1,6,0:0:0:0:
224,160,22684,1,2,0:0:0:0:
320,224,23008,1,8,0:0:0:0:
384,192,23170,1,8,0:0:0:0:
224,160,23332,1,0,0:0:0:0:
352,192,23657,1,8,0:0:0:0:
224,160,23981,1,0,0:0:0:0:
288,160,24305,1,6,0:0:0:0:
256,128,24629,1,0,0:0:0:0:
384,160,24954,1,6,0:0:0:0:
224,160,25278,1,0,0:0:0:0:
288,160,25440,1,8,0:0:0:0:
288,224,25602,1,0,0:0:0:0:
320,160,25765,1,0,0:0:0:0:
448,192,25927,1,8,0:0:0:0:
256,128,26251,1,0,0:0:0:0:
224,160,26575,1,2,0:0:0:0:
448,192,27224,1,8,0:0:0:0:
480,320,27548,1,0,0:0:0:0:
224,160,27873,1,2,0:0:0:0:
448,256,28197,1,0,0:0:0:0:
480,320,28359,1,0,0:0:0:0:
416,160,28521,1,0,0:0:0:0:
224,128,28846,1,0,0:0:0:0:
448,256,29170,1,8,0:0:0:0:
320,160,29494,1,0,0:0:0:0:
384,192,29657,1,0,0:0:0:0:
416,160,29819,1,2,0:0:0:0:
480,256,30143,1,8,0:0:0:0:
256,128,30467,1,0,0:0:0:0:
288,160,30629,1,8,0:0:0:0:
224,160,30792,1,2,0:0:0:0:
160,128,30954,1,8,0:0:0:0:
128,128,31116,1,0,0:0:0:0:
224,160,31440,1,2,0:0:0:0:
160,128,31602,1,8,0:0:0:0:
416,224,31765,1,4,0:0:0:0:
256,224,36954,5,2,0:0:0:0:
416,224,37602,1,2,0:0:0:0:
256,128,38251,1,2,0:0:0:0:
448,256,38900,1,8,0:0:0:0:
416,224,39224,1,2,0:0:0:0:
256,224,39548,1,2,0:0:0:0:
416,224,40197,1,2,0:0:0:0:
256,224,40846,1,2,0:0:0:0:
256,224,41494,1,8,0:0:0:0:
288,224,42143,1,4,0:0:0:0:
384,256,42467,1,8,0:0:0:0:
512,224,42792,1,0,0:0:0:0:
384,192,42954,1,0,0:0:0:0:
352,192,43116,1,0,0:0:0:0:
512,224,43440,1,2,0:0:0:0:
352,224,43765,1,0,0:0:0:0:
320,128,43927,1,2,0:0:0:0:
288,224,44089,1,0,0:0:0:0:
32,192,44738,1,0,0:0:0:0:
128,224,45062,1,8,0:0:0:0:
256,96,45386,1,0,0:0:0:0:
256,96,45548,1,0,0:0:0:0:
192,128,45711,1,0,0:0:0:0:
160,160,46035,1,8,0:0:0:0:
352,160,46197,1,2,0:0:0:0:
96,160,46359,1,0,0:0:0:0:
160,160,46521,1,8,0:0:0:0:
448,224,46684,1,0,0:0:0:0:
320,192,47008,1,8,0:0:0:0:
256,224,47332,1,0,0:0:0:0:
160,160,47657,1,2,0:0:0:0:
288,0,47981,1,0,0:0:0:0:
224,64,48143,1,0,0:0:0:0:
192,96,48305,1,0,0:0:0:0:
256,96,48629,1,2,0:0:0:0:
352,160,48954,1,0,0:0:0:0:
256,128,49116,1,2,0:0:0:0:
352,160,49278,1,0,0:0:0:0:
256,128,49927,1,0,0:0:0:0:
128,160,50251,1,2,0:0:0:0:
192,128,50413,1,2,0:0:0:0:
256,224,50575,1,0,0:0:0:0:
320,128,50738,1,2,0:0:0:0:
256,192,50900,1,0,0:0:0:0:
320,198,51224,1,0,0:0:0:0:
320,198,51386,1,0,0:0:0:0:
320,198,51548,1,8,0:0:0:0:
236,53,51711,1,0,0:0:0:0:
236,53,51792,1,0,0:0:0:0:
320,198,51873,1,0,0:0:0:0:
352,128,52035,1,0,0:0:0:0:
313,191,52197,1,12,0:0:0:0:
384,160,52521,1,4,0:0:0:0:
192,288,53008,1,0,0:0:0:0:
224,320,53089,1,0,0:0:0:0:
256,352,53170,1,0,0:0:0:0:
288,320,53332,1,0,0:0:0:0:
320,256,53494,1,8,0:0:0:0:
352,192,53657,1,2,0:0:0:0:
192,256,53819,1,0,0:0:0:0:
288,224,54143,1,0,0:0:0:0:
416,224,54467,1,8,0:0:0:0:
416,224,54792,1,8,0:0:0:0:
384,128,55116,1,0,0:0:0:0:
448,64,55602,1,8,0:0:0:0:
416,96,55684,1,8,0:0:0:0:
384,128,55765,1,8,0:0:0:0:
384,96,55927,1,0,0:0:0:0:
416,160,56089,1,8,0:0:0:0:
352,160,56251,1,2,0:0:0:0:
384,160,56413,1,4,0:0:0:0:
256,192,56738,1,6,0:0:0:0:
128,192,57062,1,6,0:0:0:0:
352,128,57386,1,4,0:0:0:0:
448,224,57711,1,4,0:0:0:0:
288,224,58197,1,0,0:0:0:0:
320,224,58278,1,0,0:0:0:0:
192,192,58359,1,0,0:0:0:0:
352,128,58521,1,0,0:0:0:0:
256,256,58684,1,8,0:0:0:0:
288,192,58846,1,2,0:0:0:0:
352,128,59008,1,0,0:0:0:0:
352,128,59332,1,0,0:0:0:0:
352,128,59657,1,8,0:0:0:0:
352,128,59981,1,8,0:0:0:0:
352,128,60305,1,0,0:0:0:0:
384,224,60792,1,8,0:0:0:0:
416,96,60873,1,8,0:0:0:0:
288,96,60954,1,2,0:0:0:0:
352,160,61116,1,0,0:0:0:0:
320,128,61278,1,8,0:0:0:0:
352,160,61440,1,0,0:0:0:0:
384,160,61602,1,12,0:0:0:0:
288,224,61927,1,4,0:0:0:0:
288,224,62251,1,12,0:0:0:0:
352,128,62575,1,12,0:0:0:0:
288,256,62900,1,0,0:0:0:0:
320,32,63386,1,0,0:0:0:0:
352,64,63467,1,0,0:0:0:0:
320,96,63548,1,0,0:0:0:0:
288,128,63711,1,0,0:0:0:0:
256,160,63873,1,8,0:0:0:0:
256,224,64035,1,2,0:0:0:0:
352,192,64197,1,0,0:0:0:0:
480,160,64521,1,0,0:0:0:0:
352,224,64846,1,8,0:0:0:0:
480,160,65170,1,8,0:0:0:0:
384,192,65819,1,4,0:0:0:0:
384,128,65981,1,4,0:0:0:0:
352,192,66143,1,4,0:0:0:0:
384,128,66305,1,4,0:0:0:0:
384,192,66467,1,12,0:0:0:0:
288,224,66792,1,2,0:0:0:0:
352,192,67035,1,0,0:0:0:0:
288,224,67278,1,2,0:0:0:0:
352,192,67521,1,0,0:0:0:0:
416,224,67765,1,8,0:0:0:0:
416,224,68089,1,4,0:0:0:0:
192,128,68413,1,0,0:0:0:0:
288,192,68576,1,0,0:0:0:0:
352,192,68738,1,8,0:0:0:0:
224,256,69062,1,0,0:0:0:0:
256,224,69224,1,8,0:0:0:0:
160,256,69386,1,8,0:0:0:0:
288,224,69711,1,8,0:0:0:0:
288,224,69873,1,8,0:0:0:0:
288,224,70035,1,0,0:0:0:0:
416,224,70359,1,0,0:0:0:0:
384,128,70521,1,8,0:0:0:0:
192,256,70684,1,0,0:0:0:0:
320,192,71008,1,0,0:0:0:0:
256,192,71170,1,0,0:0:0:0:
224,128,71332,1,2,0:0:0:0:
256,160,71494,1,0,0:0:0:0:
192,160,71657,1,0,0:0:0:0:
192,160,71738,1,0,0:0:0:0:
192,160,71819,1,0,0:0:0:0:
320,224,71981,1,8,0:0:0:0:
288,192,72305,1,0,0:0:0:0:
416,224,72629,1,2,0:0:0:0:
384,224,72711,1,2,0:0:0:0:
320,192,72792,1,2,0:0:0:0:
288,128,72954,1,2,0:0:0:0:
315,166,73116,1,8,0:0:0:0:
192,128,73278,1,4,0:0:0:0:
288,160,78467,5,0,0:0:0:0:
288,160,79116,1,0,0:0:0:0:
512,256,79765,1,8,0:0:0:0:
288,128,80413,1,8,0:0:0:0:
512,256,81062,1,0,0:0:0:0:
416,192,81386,1,8,0:0:0:0:
352,96,81711,1,0,0:0:0:0:
448,0,82035,1,8,0:0:0:0:
352,128,82359,1,0,0:0:0:0:
320,192,82521,1,8,0:0:0:0:
320,192,82684,1,8,0:0:0:0:
320,192,82846,1,8,0:0:0:0:
320,192,83008,1,0,0:0:0:0:
320,192,83332,1,8,0:0:0:0:
416,192,83657,1,0,0:0:0:0:
288,128,83981,1,6,0:0:0:0:
416,192,84305,1,0,0:0:0:0:
288,128,84629,1,12,0:0:0:0:
384,160,84954,1,6,0:0:0:0:
384,160,85278,1,6,0:0:0:0:
384,160,85602,1,4,0:0:0:0:
384,160,85927,1,4,0:0:0:0:
352,160,86251,1,0,0:0:0:0:
416,192,86575,1,6,0:0:0:0:
256,224,86900,1,0,0:0:0:0:
384,224,87224,1,6,0:0:0:0:
352,160,87548,1,2,0:0:0:0:
288,160,87711,1,0,0:0:0:0:
416,64,87873,1,8,0:0:0:0:
224,192,88197,1,0,0:0:0:0:
256,160,88305,1,0,0:0:0:0:
288,128,88413,1,0,0:0:0:0:
288,128,88521,1,0,0:0:0:0:
480,160,88846,1,0,0:0:0:0:
352,160,89170,1,2,0:0:0:0:
384,224,89332,1,2,0:0:0:0:
352,192,89494,1,0,0:0:0:0:
352,160,89657,1,0,0:0:0:0:
448,224,89819,1,8,0:0:0:0:
480,160,90143,1,0,0:0:0:0:
352,192,90305,1,0,0:0:0:0:
480,32,90467,1,8,0:0:0:0:
448,96,90629,1,2,0:0:0:0:
416,224,90792,1,0,0:0:0:0:
352,128,91116,1,2,0:0:0:0:
352,128,91440,1,0,0:0:0:0:
448,32,91765,1,8,0:0:0:0:
384,64,91927,1,8,0:0:0:0:
480,160,92089,1,0,0:0:0:0:
416,128,92251,1,0,0:0:0:0:
352,128,92413,1,2,0:0:0:0:
256,192,92738,12,0,93711,0:0:0:0:
256,192,94035,5,0,0:0:0:0:
224,256,94359,1,2,0:0:0:0:
352,256,94521,1,0,0:0:0:0:
384,224,94684,1,8,0:0:0:0:
224,128,95008,1,2,0:0:0:0:
158,103,95170,1,8,0:0:0:0:
448,192,95332,1,0,0:0:0:0:
320,160,95657,1,2,0:0:0:0:
384,224,95819,1,0,0:0:0:0:
288,128,95981,1,2,0:0:0:0:
288,128,96143,1,2,0:0:0:0:
320,160,96305,1,0,0:0:0:0:
288,64,96629,1,0,0:0:0:0:
288,160,96792,1,2,0:0:0:0:
288,160,96954,1,0,0:0:0:0:
288,64,97278,1,2,0:0:0:0:
224,64,97440,1,2,0:0:0:0:
288,160,97602,1,0,0:0:0:0:
384,256,97927,1,0,0:0:0:0:
384,224,98035,1,0,0:0:0:0:
416,256,98143,1,0,0:0:0:0:
384,224,98251,1,0,0:0:0:0:
416,320,98575,1,8,0:0:0:0:
416,320,98684,1,8,0:0:0:0:
320,160,98792,1,8,0:0:0:0:
320,224,98900,1,8,0:0:0:0:
320,160,99224,1,0,0:0:0:0:
181,138,99548,1,8,0:0:0:0:
181,138,99711,1,0,0:0:0:0:
181,138,99873,1,8,0:0:0:0:
320,256,100197,1,8,0:0:0:0:
320,192,100359,1,0,0:0:0:0:
288,64,100521,1,8,0:0:0:0:
224,96,100684,1,0,0:0:0:0:
320,160,100846,1,0,0:0:0:0:
288,64,101170,1,2,0:0:0:0:
384,128,101332,1,8,0:0:0:0:
210,155,101657,1,8,0:0:0:0:
288,64,101819,1,0,0:0:0:0:
384,96,102143,1,0,0:0:0:0:
320,192,102305,1,0,0:0:0:0:
320,160,102467,1,2,0:0:0:0:
288,64,102792,1,0,0:0:0:0:
288,64,103116,1,0,0:0:0:0:
320,96,103278,1,8,0:0:0:0:
352,160,103440,1,0,0:0:0:0:
320,224,103602,1,0,0:0:0:0:
320,192,103765,1,2,0:0:0:0:
448,160,104008,1,8,0:0:0:0:
288,64,104251,1,0,0:0:0:0:
384,160,104413,1,2,0:0:0:0:
384,160,104738,1,0,0:0:0:0:
384,160,105062,1,8,0:0:0:0:
320,128,105224,1,0,0:0:0:0:
352,128,105305,1,0,0:0:0:0:
288,64,105386,1,0,0:0:0:0:
352,128,105548,1,0,0:0:0:0:
384,256,105711,1,8,0:0:0:0:
256,192,106035,1,0,0:0:0:0:
320,192,106359,1,0,0:0:0:0:
384,160,106521,1,8,0:0:0:0:
384,160,106602,1,8,0:0:0:0:
384,160,106684,1,8,0:0:0:0:
320,192,106846,1,8,0:0:0:0:
320,128,107008,1,0,0:0:0:0:
320,128,107332,1,8,0:0:0:0:
320,128,107657,1,0,0:0:0:0:
250,134,107819,1,0,0:0:0:0:
320,128,107981,1,2,0:0:0:0:
320,128,108305,1,8,0:0:0:0:
251,141,108467,1,0,0:0:0:0:
320,128,108629,1,2,0:0:0:0:
250,140,108792,1,8,0:0:0:0:
288,64,108954,1,0,0:0:0:0:
384,128,109278,1,2,0:0:0:0:
416,224,109602,1,0,0:0:0:0:
416,256,109765,1,0,0:0:0:0:
416,256,109927,1,8,0:0:0:0:
416,256,110089,1,8,0:0:0:0:
448,256,110251,1,0,0:0:0:0:
448,256,110413,1,0,0:0:0:0:
448,256,110494,1,0,0:0:0:0:
320,160,110575,1,0,0:0:0:0:
480,224,110900,1,8,0:0:0:0:
480,224,111062,1,8,0:0:0:0:
480,224,111224,1,0,0:0:0:0:
480,224,111386,1,0,0:0:0:0:
320,320,111548,1,2,0:0:0:0:
320,256,111711,1,8,0:0:0:0:
320,224,111792,1,8,0:0:0:0:
320,192,111873,1,8,0:0:0:0:
288,192,112197,1,2,0:0:0:0:
352,192,112359,1,0,0:0:0:0:
224,160,112521,1,2,0:0:0:0:
384,224,112684,1,2,0:0:0:0:
192,96,112846,1,0,0:0:0:0:
416,160,113170,1,0,0:0:0:0:
349,139,113332,1,8,0:0:0:0:
320,128,113494,1,8,0:0:0:0:
320,128,113657,1,0,0:0:0:0:
352,192,113819,1,2,0:0:0:0:
288,224,113981,1,8,0:0:0:0:
256,320,114143,1,0,0:0:0:0:
256,192,114467,1,8,0:0:0:0:
224,96,114575,1,8,0:0:0:0:
352,192,114684,1,8,0:0:0:0:
256,192,115116,12,2,119981,0:0:0:0:
