osu file format v14

[General]
AudioFilename: audio.mp3
AudioLeadIn: 0
PreviewTime: 118443
Countdown: 0
SampleSet: Normal
StackLeniency: 0.7
Mode: 1
LetterboxInBreaks: 0
WidescreenStoryboard: 0

[Editor]
Bookmarks: 714,25362,46119,66876,98011,118768,139524,170659,232930,253687,300389,343200
DistanceSpacing: 0.5
BeatDivisor: 4
GridSize: 32
TimelineZoom: 2.5

[Metadata]
Title:BLACK or WHITE?
TitleUnicode:BLACK or WHITE?
Artist:BlackYooh vs. siromaru
ArtistUnicode:BlackYooh vs. siromaru
Creator:eiri-
Version:Ayyri vs. Kurokotei's ONI?
Source:SOUND VOLTEX II -infinite infection-
Tags:Ayyri BlackY Yooh SDVX Konami Bemani KERBEROX HEKATONCHEIR BEATS Comiket 88 C88 KAC2013 jubeat Qubell Schranz Hardcore Symphonic Speed Sayaka- Ex Kurokotei dialgadu77
BeatmapID:1646481
BeatmapSetID:784187

[Difficulty]
HPDrainRate:5
CircleSize:2
OverallDifficulty:6.5
ApproachRate:10
SliderMultiplier:1.4
SliderTickRate:1

[Events]
//Background and Video events
0,0,"Alice 787.png",0,70
//Break Periods
//Storyboard Layer 0 (Background)
//Storyboard Layer 1 (Fail)
//Storyboard Layer 2 (Pass)
//Storyboard Layer 3 (Foreground)
//Storyboard Sound Samples

[TimingPoints]
714,324.324324324324,4,1,0,30,1,0
714,-66.6666666666667,4,1,0,30,0,0
3308,-200,4,1,0,30,0,0
12389,-200,4,1,0,60,0,0
13687,-200,4,1,0,45,0,0
18876,-131.578947368421,4,1,0,45,0,0
19200,-128.205128205128,4,1,0,46,0,0
19524,-125,4,1,0,47,0,0
19849,-121.951219512195,4,1,0,48,0,0
20173,-119.047619047619,4,1,0,50,0,0
20335,-116.279069767442,4,1,0,52,0,0
20497,-113.636363636364,4,1,0,54,0,0
20660,-111.111111111111,4,1,0,56,0,0
20822,-108.695652173913,4,1,0,58,0,0
20984,-106.382978723404,4,1,0,60,0,0
21146,-104.166666666667,4,1,0,62,0,0
21308,-102.040816326531,4,1,0,64,0,0
21470,-100,4,1,0,66,0,0
22849,-200,4,1,0,70,0,0
25362,-100,4,1,0,80,0,0
33146,-100,4,1,0,85,0,0
35741,-100,4,1,0,90,0,0
66876,-95.2380952380952,4,1,0,95,0,0
67200,-90.9090909090909,4,1,0,95,0,0
67524,-86.9565217391304,4,1,0,95,0,0
67849,-83.3333333333333,4,1,0,95,0,0
68173,-80,4,1,0,95,0,0
69470,-76.9230769230769,4,1,0,95,0,0
70768,-74.0740740740741,4,1,0,95,0,0
71416,-71.4285714285714,4,1,0,95,0,0
72065,-68.9655172413793,4,1,0,95,0,0
73362,-66.6666666666667,4,1,0,95,0,0
74660,-64.5161290322581,4,1,0,95,0,0
75957,-66.6666666666667,4,1,0,95,0,0
76038,-68.0272108843537,4,1,0,95,0,0
76119,-68.9655172413793,4,1,0,95,0,0
76200,-69.9300699300699,4,1,0,95,0,0
76281,-71.4285714285714,4,1,0,95,0,0
76362,-72.992700729927,4,1,0,95,0,0
76443,-74.0740740740741,4,1,0,95,0,0
76524,-75.187969924812,4,1,0,95,0,0
76605,-76.9230769230769,4,1,0,95,0,0
76686,-78.7401574803149,4,1,0,95,0,0
76768,-80,4,1,0,95,0,0
76849,-81.3008130081301,4,1,0,95,0,0
76930,-83.3333333333333,4,1,0,95,0,0
77011,-85.4700854700855,4,1,0,95,0,0
77092,-86.9565217391304,4,1,0,95,0,0
77254,-90.9090909090909,4,1,0,95,0,0
77578,-117.647058823529,4,1,0,40,0,0
87551,-111.111111111111,4,1,0,60,0,0
87876,-111.111111111111,4,1,0,40,0,0
98011,-100,4,1,0,85,0,0
118443,-100,4,1,0,100,0,0
118768,-100,4,1,0,100,0,1
122659,-66.6666666666667,4,1,0,100,0,1
123957,-100,4,1,0,100,0,1
127849,-66.6666666666667,4,1,0,100,0,1
129146,-100,4,1,0,100,0,1
131741,-100,4,1,0,40,0,1
131822,-100,4,1,0,60,0,1
131903,-100,4,1,0,80,0,1
132065,-66.6666666666667,4,1,0,100,0,1
133038,-100,4,1,0,100,0,1
138227,-80,4,1,0,100,0,1
138551,-66.6666666666667,4,1,0,100,0,1
138876,-100,4,1,0,100,0,0
139524,-100,4,1,0,100,0,1
143416,-66.6666666666667,4,1,0,100,0,1
144713,-100,4,1,0,100,0,1
148605,-66.6666666666667,4,1,0,100,0,1
149903,-100,4,1,0,100,0,1
152497,-100,4,1,0,40,0,1
152578,-100,4,1,0,60,0,1
152660,-100,4,1,0,80,0,1
152822,-66.6666666666667,4,1,0,100,0,1
153795,-100,4,1,0,100,0,1
160281,-100,4,1,0,60,0,0
160443,-100,4,1,0,30,0,0
165470,-200,4,1,0,10,0,0
166119,-200,4,1,0,15,0,0
166768,-160,4,1,0,20,0,0
167092,-160,4,1,0,25,0,0
167416,-160,4,1,0,30,0,0
167741,-160,4,1,0,35,0,0
168065,-133.333333333333,4,1,0,40,0,0
168389,-133.333333333333,4,1,0,45,0,0
168714,-133.333333333333,4,1,0,50,0,0
169038,-133.333333333333,4,1,0,55,0,0
169362,-114.285714285714,4,1,0,60,0,0
170659,-111.111111111111,4,1,0,80,0,0
184930,-105.263157894737,4,1,0,80,0,0
186227,-100,4,1,0,80,0,0
190930,-102.040816326531,4,1,0,80,0,0
191011,-104.166666666667,4,1,0,80,0,0
191092,-106.382978723404,4,1,0,80,0,0
191173,-108.695652173913,4,1,0,80,0,0
191254,-111.111111111111,4,1,0,80,0,0
191416,-117.647058823529,4,1,0,70,0,0
212173,-111.111111111111,4,1,0,75,0,0
231632,-105.263157894737,4,1,0,75,0,0
232930,-100,4,1,0,80,0,0
243470,-100,4,1,0,85,0,0
248497,-100,4,1,0,90,0,0
252389,-100,4,1,0,70,0,0
253362,-100,4,1,0,80,0,0
253443,-100,4,1,0,85,0,0
253524,-100,4,1,0,90,0,0
253687,-100,4,1,0,100,0,0
290011,-95.2380952380952,4,1,0,100,0,0
290660,-90.9090909090909,4,1,0,100,0,0
291308,-86.9565217391304,4,1,0,100,0,0
291957,-83.3333333333333,4,1,0,100,0,0
292605,-80,4,1,0,100,0,0
295524,-76.9230769230769,4,1,0,75,0,0
295686,-76.9230769230769,4,1,0,50,0,0
300389,-100,4,1,0,70,0,0
337038,-100,4,1,0,50,0,0
339308,-100,4,1,0,40,0,0
340605,-100,4,1,0,30,0,0
343200,-100,4,1,0,80,0,0

[HitObjects]
256,192,2011,5,4,0:0:0:0:
256,192,3308,1,8,0:0:0:0:
256,192,3957,1,8,0:0:0:0:
256,192,4605,1,0,0:0:0:0:
256,192,5903,1,8,0:0:0:0:
256,192,6551,1,8,0:0:0:0:
256,192,7038,1,8,0:0:0:0:
256,192,7200,1,0,0:0:0:0:
256,192,8497,1,8,0:0:0:0:
256,192,9146,1,8,0:0:0:0:
256,192,9795,1,0,0:0:0:0:
256,192,11092,1,8,0:0:0:0:
256,192,11741,1,8,0:0:0:0:
256,192,12065,1,8,0:0:0:0:
256,192,12389,1,4,0:0:0:0:
256,192,13686,1,8,0:0:0:0:
256,192,14335,1,8,0:0:0:0:
256,192,14984,1,0,0:0:0:0:
256,192,16281,1,8,0:0:0:0:
256,192,16930,1,8,0:0:0:0:
256,192,17254,1,8,0:0:0:0:
256,192,17416,1,8,0:0:0:0:
256,192,17578,1,0,0:0:0:0:
256,192,18227,1,8,0:0:0:0:
256,192,18876,1,0,0:0:0:0:
256,192,19200,1,0,0:0:0:0:
256,192,19524,1,0,0:0:0:0:
256,192,19849,1,0,0:0:0:0:
256,192,20173,1,0,0:0:0:0:
256,192,20335,1,8,0:0:0:0:
256,192,20497,1,0,0:0:0:0:
256,192,20659,1,8,0:0:0:0:
256,192,20822,1,0,0:0:0:0:
256,192,20984,1,8,0:0:0:0:
256,192,21146,1,0,0:0:0:0:
256,192,21308,1,8,0:0:0:0:
256,192,21470,1,0,0:0:0:0:
256,192,21551,1,0,0:0:0:0:
256,192,21632,1,8,0:0:0:0:
256,192,21713,1,8,0:0:0:0:
256,192,21795,1,0,0:0:0:0:
256,192,21876,1,0,0:0:0:0:
256,192,21957,1,8,0:0:0:0:
256,192,22038,1,8,0:0:0:0:
256,192,22119,1,0,0:0:0:0:
256,192,22200,1,0,0:0:0:0:
256,192,22281,1,8,0:0:0:0:
256,192,22362,1,8,0:0:0:0:
256,192,22443,1,0,0:0:0:0:
256,192,22524,1,0,0:0:0:0:
256,192,22605,1,8,0:0:0:0:
256,192,22686,1,8,0:0:0:0:
256,192,25362,1,8,0:0:0:0:
256,192,25443,1,8,0:0:0:0:
256,192,25524,1,0,0:0:0:0:
256,192,25605,1,0,0:0:0:0:
256,192,25686,1,8,0:0:0:0:
256,192,25768,1,0,0:0:0:0:
256,192,25849,1,8,0:0:0:0:
256,192,25930,1,8,0:0:0:0:
256,192,26011,1,0,0:0:0:0:
256,192,26092,1,0,0:0:0:0:
256,192,26173,1,8,0:0:0:0:
256,192,26254,1,0,0:0:0:0:
256,192,26335,1,8,0:0:0:0:
256,192,26416,1,8,0:0:0:0:
256,192,26497,1,8,0:0:0:0:
256,192,26578,1,0,0:0:0:0:
256,192,26659,1,8,0:0:0:0:
256,192,26741,1,8,0:0:0:0:
256,192,26822,1,0,0:0:0:0:
256,192,26903,1,0,0:0:0:0:
256,192,26984,1,8,0:0:0:0:
256,192,27065,1,0,0:0:0:0:
256,192,27146,1,8,0:0:0:0:
256,192,27227,1,8,0:0:0:0:
256,192,27308,1,0,0:0:0:0:
256,192,27389,1,0,0:0:0:0:
256,192,27470,1,8,0:0:0:0:
256,192,27551,1,0,0:0:0:0:
256,192,27632,1,8,0:0:0:0:
256,192,27713,1,8,0:0:0:0:
256,192,27795,1,8,0:0:0:0:
256,192,27876,1,0,0:0:0:0:
256,192,27957,1,8,0:0:0:0:
256,192,28038,1,8,0:0:0:0:
256,192,28119,1,0,0:0:0:0:
256,192,28200,1,0,0:0:0:0:
256,192,28281,1,8,0:0:0:0:
256,192,28362,1,0,0:0:0:0:
256,192,28443,1,8,0:0:0:0:
256,192,28524,1,8,0:0:0:0:
256,192,28605,1,0,0:0:0:0:
256,192,28686,1,0,0:0:0:0:
256,192,28768,1,8,0:0:0:0:
256,192,28849,1,8,0:0:0:0:
256,192,28930,1,8,0:0:0:0:
256,192,29011,1,0,0:0:0:0:
256,192,29092,1,8,0:0:0:0:
256,192,29173,1,0,0:0:0:0:
256,192,29254,1,8,0:0:0:0:
256,192,29335,1,8,0:0:0:0:
256,192,29416,1,0,0:0:0:0:
256,192,29497,1,0,0:0:0:0:
256,192,29578,1,8,0:0:0:0:
256,192,29659,1,0,0:0:0:0:
256,192,29741,1,8,0:0:0:0:
256,192,29822,1,8,0:0:0:0:
256,192,29903,1,0,0:0:0:0:
256,192,29984,1,0,0:0:0:0:
256,192,30065,1,8,0:0:0:0:
256,192,30146,1,0,0:0:0:0:
256,192,30227,1,8,0:0:0:0:
256,192,30308,1,0,0:0:0:0:
256,192,30389,1,8,0:0:0:0:
256,192,30470,1,8,0:0:0:0:
256,192,30551,1,0,0:0:0:0:
256,192,30632,1,0,0:0:0:0:
256,192,30713,1,8,0:0:0:0:
256,192,30795,1,8,0:0:0:0:
256,192,30876,1,8,0:0:0:0:
256,192,30957,1,0,0:0:0:0:
256,192,31038,1,8,0:0:0:0:
256,192,31119,1,8,0:0:0:0:
256,192,31200,1,0,0:0:0:0:
256,192,31281,1,0,0:0:0:0:
256,192,31362,1,8,0:0:0:0:
256,192,31443,1,8,0:0:0:0:
256,192,31524,1,8,0:0:0:0:
256,192,31605,1,0,0:0:0:0:
256,192,31686,1,8,0:0:0:0:
256,192,31768,1,8,0:0:0:0:
256,192,31849,1,0,0:0:0:0:
256,192,31930,1,0,0:0:0:0:
256,192,32011,1,8,0:0:0:0:
256,192,32092,1,0,0:0:0:0:
256,192,32173,1,8,0:0:0:0:
256,192,32254,1,8,0:0:0:0:
256,192,32335,1,8,0:0:0:0:
256,192,32416,1,0,0:0:0:0:
256,192,32497,1,8,0:0:0:0:
256,192,32578,1,0,0:0:0:0:
256,192,32659,1,8,0:0:0:0:
256,192,32741,1,8,0:0:0:0:
256,192,32822,1,0,0:0:0:0:
256,192,32903,1,8,0:0:0:0:
256,192,32984,1,0,0:0:0:0:
256,192,33146,1,8,0:0:0:0:
256,192,33227,1,0,0:0:0:0:
256,192,33308,1,8,0:0:0:0:
256,192,33389,1,0,0:0:0:0:
256,192,33470,1,8,0:0:0:0:
256,192,33551,1,0,0:0:0:0:
256,192,33632,1,8,0:0:0:0:
256,192,33713,1,0,0:0:0:0:
256,192,33795,1,8,0:0:0:0:
256,192,33876,1,0,0:0:0:0:
256,192,33957,1,8,0:0:0:0:
256,192,34038,1,0,0:0:0:0:
256,192,34119,1,8,0:0:0:0:
256,192,34200,1,0,0:0:0:0:
256,192,34281,1,8,0:0:0:0:
256,192,34362,1,0,0:0:0:0:
256,192,34768,1,0,0:0:0:0:
256,192,34849,1,0,0:0:0:0:
256,192,34930,1,0,0:0:0:0:
256,192,35011,1,0,0:0:0:0:
256,192,35092,1,0,0:0:0:0:
256,192,35173,1,0,0:0:0:0:
256,192,35254,1,0,0:0:0:0:
256,192,35335,1,0,0:0:0:0:
256,192,35416,1,8,0:0:0:0:
256,192,35470,1,8,0:0:0:0:
256,192,35524,1,8,0:0:0:0:
256,192,35578,1,8,0:0:0:0:
256,192,35632,1,8,0:0:0:0:
256,192,35686,1,8,0:0:0:0:
256,192,35741,1,0,0:0:0:0:
256,192,35903,1,0,0:0:0:0:
256,192,35984,1,0,0:0:0:0:
256,192,36065,1,8,0:0:0:0:
256,192,36227,1,8,0:0:0:0:
256,192,36308,1,8,0:0:0:0:
256,192,36389,1,0,0:0:0:0:
256,192,36551,1,8,0:0:0:0:
256,192,36632,1,0,0:0:0:0:
256,192,36713,1,8,0:0:0:0:
256,192,36876,1,8,0:0:0:0:
256,192,36957,1,8,0:0:0:0:
256,192,37038,1,0,0:0:0:0:
256,192,37200,1,0,0:0:0:0:
256,192,37281,1,0,0:0:0:0:
256,192,37362,1,8,0:0:0:0:
256,192,37524,1,0,0:0:0:0:
256,192,37605,1,8,0:0:0:0:
256,192,37686,1,0,0:0:0:0:
256,192,37849,1,8,0:0:0:0:
256,192,37930,1,8,0:0:0:0:
256,192,38011,1,0,0:0:0:0:
256,192,38092,1,0,0:0:0:0:
256,192,38173,1,0,0:0:0:0:
256,192,38254,1,0,0:0:0:0:
256,192,38335,1,8,0:0:0:0:
256,192,38497,1,0,0:0:0:0:
256,192,38578,1,8,0:0:0:0:
256,192,38659,1,0,0:0:0:0:
256,192,38822,1,0,0:0:0:0:
256,192,38903,1,0,0:0:0:0:
256,192,38984,1,8,0:0:0:0:
256,192,39146,1,8,0:0:0:0:
256,192,39227,1,0,0:0:0:0:
256,192,39308,1,8,0:0:0:0:
256,192,39470,1,0,0:0:0:0:
256,192,39551,1,0,0:0:0:0:
256,192,39632,1,8,0:0:0:0:
256,192,39795,1,8,0:0:0:0:
256,192,39876,1,8,0:0:0:0:
256,192,39957,1,0,0:0:0:0:
256,192,40119,1,0,0:0:0:0:
256,192,40200,1,0,0:0:0:0:
256,192,40281,1,8,0:0:0:0:
256,192,40443,1,8,0:0:0:0:
256,192,40524,1,0,0:0:0:0:
256,192,40605,1,8,0:0:0:0:
256,192,40768,1,4,0:0:0:0:
256,192,40930,1,12,0:0:0:0:
256,192,41254,1,0,0:0:0:0:
256,192,41416,1,8,0:0:0:0:
256,192,41497,1,8,0:0:0:0:
256,192,41578,1,0,0:0:0:0:
256,192,41741,1,8,0:0:0:0:
256,192,41822,1,0,0:0:0:0:
256,192,41903,1,8,0:0:0:0:
256,192,42065,1,8,0:0:0:0:
256,192,42146,1,8,0:0:0:0:
256,192,42227,1,0,0:0:0:0:
256,192,42389,1,0,0:0:0:0:
256,192,42470,1,0,0:0:0:0:
256,192,42551,1,8,0:0:0:0:
256,192,42713,1,8,0:0:0:0:
256,192,42795,1,0,0:0:0:0:
256,192,42876,1,8,0:0:0:0:
256,192,43038,1,8,0:0:0:0:
256,192,43119,1,8,0:0:0:0:
256,192,43200,1,0,0:0:0:0:
256,192,43362,1,0,0:0:0:0:
256,192,43524,1,0,0:0:0:0:
256,192,43686,1,8,0:0:0:0:
256,192,43768,1,8,0:0:0:0:
256,192,43849,1,0,0:0:0:0:
256,192,44011,1,8,0:0:0:0:
256,192,44092,1,0,0:0:0:0:
256,192,44173,1,8,0:0:0:0:
256,192,44335,1,8,0:0:0:0:
256,192,44416,1,8,0:0:0:0:
256,192,44497,1,0,0:0:0:0:
256,192,44659,1,0,0:0:0:0:
256,192,44741,1,0,0:0:0:0:
256,192,44822,1,8,0:0:0:0:
256,192,44903,1,0,0:0:0:0:
256,192,44984,1,8,0:0:0:0:
256,192,45065,1,0,0:0:0:0:
256,192,45146,1,8,0:0:0:0:
256,192,45227,1,0,0:0:0:0:
256,192,45308,1,8,0:0:0:0:
256,192,45389,1,0,0:0:0:0:
256,192,45470,1,8,0:0:0:0:
256,192,45551,1,8,0:0:0:0:
256,192,45632,1,0,0:0:0:0:
256,192,45713,1,0,0:0:0:0:
256,192,45795,1,8,0:0:0:0:
256,192,45876,1,8,0:0:0:0:
256,192,45957,1,0,0:0:0:0:
256,192,46119,1,4,0:0:0:0:
256,192,46281,1,8,0:0:0:0:
256,192,46362,1,8,0:0:0:0:
256,192,46443,1,0,0:0:0:0:
256,192,46605,1,8,0:0:0:0:
256,192,46686,1,8,0:0:0:0:
256,192,46768,1,0,0:0:0:0:
256,192,46930,1,8,0:0:0:0:
256,192,47011,1,8,0:0:0:0:
256,192,47092,1,0,0:0:0:0:
256,192,47173,1,0,0:0:0:0:
256,192,47254,1,8,0:0:0:0:
256,192,47335,1,8,0:0:0:0:
256,192,47416,1,0,0:0:0:0:
256,192,47578,1,8,0:0:0:0:
256,192,47659,1,8,0:0:0:0:
256,192,47741,1,0,0:0:0:0:
256,192,47903,1,8,0:0:0:0:
256,192,47984,1,8,0:0:0:0:
256,192,48065,1,0,0:0:0:0:
256,192,48227,1,8,0:0:0:0:
256,192,48308,1,8,0:0:0:0:
256,192,48389,1,0,0:0:0:0:
256,192,48470,1,8,0:0:0:0:
256,192,48551,1,8,0:0:0:0:
256,192,48632,1,8,0:0:0:0:
256,192,48713,1,0,0:0:0:0:
256,192,48876,1,8,0:0:0:0:
256,192,48957,1,8,0:0:0:0:
256,192,49038,1,0,0:0:0:0:
256,192,49200,1,8,0:0:0:0:
256,192,49281,1,8,0:0:0:0:
256,192,49362,1,0,0:0:0:0:
256,192,49524,1,8,0:0:0:0:
256,192,49605,1,8,0:0:0:0:
256,192,49686,1,0,0:0:0:0:
256,192,49768,1,0,0:0:0:0:
256,192,49849,1,8,0:0:0:0:
256,192,49930,1,8,0:0:0:0:
256,192,50011,1,0,0:0:0:0:
256,192,50173,1,8,0:0:0:0:
256,192,50254,1,8,0:0:0:0:
256,192,50335,1,0,0:0:0:0:
256,192,50497,1,8,0:0:0:0:
256,192,50578,1,8,0:0:0:0:
256,192,50659,1,0,0:0:0:0:
256,192,50741,1,8,0:0:0:0:
256,192,50822,1,0,0:0:0:0:
256,192,50903,1,8,0:0:0:0:
256,192,50984,1,0,0:0:0:0:
256,192,51065,1,8,0:0:0:0:
256,192,51146,1,8,0:0:0:0:
256,192,51308,2,0,L|288:192,3,26.2499983906746
256,192,51632,1,4,0:0:0:0:
256,192,51795,1,8,0:0:0:0:
256,192,51876,1,8,0:0:0:0:
256,192,51957,1,0,0:0:0:0:
256,192,52119,1,8,0:0:0:0:
256,192,52200,1,8,0:0:0:0:
256,192,52281,1,0,0:0:0:0:
256,192,52362,1,0,0:0:0:0:
256,192,52443,1,8,0:0:0:0:
256,192,52524,1,8,0:0:0:0:
256,192,52605,1,0,0:0:0:0:
256,192,52768,1,8,0:0:0:0:
256,192,52849,1,8,0:0:0:0:
256,192,52930,1,0,0:0:0:0:
256,192,53092,1,8,0:0:0:0:
256,192,53173,1,8,0:0:0:0:
256,192,53254,1,0,0:0:0:0:
256,192,53416,1,8,0:0:0:0:
256,192,53497,1,8,0:0:0:0:
256,192,53578,1,0,0:0:0:0:
256,192,53903,1,0,0:0:0:0:
256,192,54065,1,8,0:0:0:0:
256,192,54146,1,8,0:0:0:0:
256,192,54227,1,0,0:0:0:0:
256,192,54308,1,0,0:0:0:0:
256,192,54389,1,8,0:0:0:0:
256,192,54470,1,8,0:0:0:0:
256,192,54551,1,0,0:0:0:0:
256,192,54713,1,8,0:0:0:0:
256,192,54795,1,8,0:0:0:0:
256,192,54876,1,0,0:0:0:0:
256,192,54957,1,8,0:0:0:0:
256,192,55038,1,8,0:0:0:0:
256,192,55119,1,8,0:0:0:0:
256,192,55200,1,0,0:0:0:0:
256,192,55281,1,8,0:0:0:0:
256,192,55362,1,0,0:0:0:0:
256,192,55443,1,8,0:0:0:0:
256,192,55524,1,0,0:0:0:0:
256,192,55605,1,8,0:0:0:0:
256,192,55686,1,0,0:0:0:0:
256,192,55768,1,8,0:0:0:0:
256,192,55849,1,0,0:0:0:0:
256,192,56011,1,0,0:0:0:0:
256,192,56092,1,0,0:0:0:0:
256,192,56173,1,8,0:0:0:0:
256,192,56497,1,0,0:0:0:0:
256,192,56578,1,0,0:0:0:0:
256,192,56659,1,0,0:0:0:0:
256,192,56822,1,12,0:0:0:0:
256,192,57146,1,0,0:0:0:0:
256,192,57227,1,0,0:0:0:0:
256,192,57308,1,0,0:0:0:0:
256,192,57470,1,12,0:0:0:0:
256,192,57795,1,0,0:0:0:0:
256,192,57876,1,0,0:0:0:0:
256,192,57957,1,8,0:0:0:0:
256,192,58038,1,0,0:0:0:0:
256,192,58119,1,8,0:0:0:0:
256,192,58200,1,8,0:0:0:0:
256,192,58281,1,0,0:0:0:0:
256,192,58362,1,8,0:0:0:0:
256,192,58443,1,0,0:0:0:0:
256,192,58768,1,12,0:0:0:0:
256,192,59092,1,0,0:0:0:0:
256,192,59173,1,0,0:0:0:0:
256,192,59254,1,0,0:0:0:0:
256,192,59416,1,12,0:0:0:0:
256,192,59741,1,0,0:0:0:0:
256,192,59822,1,0,0:0:0:0:
256,192,59903,1,0,0:0:0:0:
256,192,60065,1,12,0:0:0:0:
256,192,60389,1,0,0:0:0:0:
256,192,60470,1,0,0:0:0:0:
256,192,60551,1,8,0:0:0:0:
256,192,60632,1,0,0:0:0:0:
256,192,60713,1,8,0:0:0:0:
256,192,60795,1,8,0:0:0:0:
256,192,60876,1,0,0:0:0:0:
256,192,60957,1,8,0:0:0:0:
256,192,61038,1,0,0:0:0:0:
256,192,61119,1,8,0:0:0:0:
256,192,61200,1,8,0:0:0:0:
256,192,61281,1,0,0:0:0:0:
256,192,61362,1,8,0:0:0:0:
256,192,61443,1,8,0:0:0:0:
256,192,61524,1,0,0:0:0:0:
256,192,61605,1,8,0:0:0:0:
256,192,61686,1,0,0:0:0:0:
256,192,61768,1,0,0:0:0:0:
256,192,61849,1,0,0:0:0:0:
256,192,62011,1,12,0:0:0:0:
256,192,62335,1,0,0:0:0:0:
256,192,62416,1,0,0:0:0:0:
256,192,62497,1,0,0:0:0:0:
256,192,62659,1,12,0:0:0:0:
256,192,62984,1,0,0:0:0:0:
256,192,63065,1,0,0:0:0:0:
256,192,63146,1,8,0:0:0:0:
256,192,63227,1,0,0:0:0:0:
256,192,63308,1,8,0:0:0:0:
256,192,63389,1,8,0:0:0:0:
256,192,63470,1,0,0:0:0:0:
256,192,63551,1,8,0:0:0:0:
256,192,63632,1,0,0:0:0:0:
256,192,63957,1,12,0:0:0:0:
256,192,64281,1,0,0:0:0:0:
256,192,64362,1,0,0:0:0:0:
256,192,64443,1,0,0:0:0:0:
256,192,64605,1,12,0:0:0:0:
256,192,64930,1,0,0:0:0:0:
256,192,65011,1,0,0:0:0:0:
256,192,65092,1,0,0:0:0:0:
256,192,65254,1,12,0:0:0:0:
256,192,65578,1,0,0:0:0:0:
256,192,65659,1,0,0:0:0:0:
256,192,65741,1,8,0:0:0:0:
256,192,65822,1,0,0:0:0:0:
256,192,65903,1,8,0:0:0:0:
256,192,65984,1,8,0:0:0:0:
256,192,66065,1,0,0:0:0:0:
256,192,66146,1,8,0:0:0:0:
256,192,66227,1,0,0:0:0:0:
256,192,66335,1,8,0:0:0:0:
256,192,66443,1,8,0:0:0:0:
256,192,66551,1,0,0:0:0:0:
256,192,66659,1,0,0:0:0:0:
256,192,66768,1,0,0:0:0:0:
256,192,66876,1,12,0:0:0:0:
256,192,67200,1,12,0:0:0:0:
256,192,67524,1,12,0:0:0:0:
256,192,67849,1,12,0:0:0:0:
256,192,68173,1,12,0:0:0:0:
256,192,68335,1,4,0:0:0:0:
256,192,68497,1,12,0:0:0:0:
256,192,68822,1,12,0:0:0:0:
256,192,69146,1,12,0:0:0:0:
256,192,69470,1,12,0:0:0:0:
256,192,69632,1,4,0:0:0:0:
256,192,69795,1,12,0:0:0:0:
256,192,70119,1,12,0:0:0:0:
256,192,70443,1,12,0:0:0:0:
256,192,70768,1,12,0:0:0:0:
256,192,70930,1,4,0:0:0:0:
256,192,71092,1,12,0:0:0:0:
256,192,71416,1,12,0:0:0:0:
256,192,71578,1,4,0:0:0:0:
256,192,71741,1,12,0:0:0:0:
256,192,72065,1,12,0:0:0:0:
256,192,72227,1,12,0:0:0:0:
256,192,72389,1,4,0:0:0:0:
256,192,72551,1,4,0:0:0:0:
256,192,72713,1,12,0:0:0:0:
256,192,72876,1,12,0:0:0:0:
256,192,73038,1,4,0:0:0:0:
256,192,73200,1,4,0:0:0:0:
256,192,73362,1,12,0:0:0:0:
256,192,73524,1,12,0:0:0:0:
256,192,73686,1,4,0:0:0:0:
256,192,73849,1,4,0:0:0:0:
256,192,74011,1,12,0:0:0:0:
256,192,74173,1,12,0:0:0:0:
256,192,74335,1,4,0:0:0:0:
256,192,74497,1,12,0:0:0:0:
256,192,74659,1,4,0:0:0:0:
256,192,74822,1,12,0:0:0:0:
256,192,74984,1,4,0:0:0:0:
256,192,75146,1,12,0:0:0:0:
256,192,75308,1,4,0:0:0:0:
256,192,75470,1,12,0:0:0:0:
256,192,75632,1,4,0:0:0:0:
256,192,75795,1,12,0:0:0:0:
256,192,75957,1,0,0:0:0:0:
256,192,76038,1,0,0:0:0:0:
256,192,76119,1,8,0:0:0:0:
256,192,76200,1,8,0:0:0:0:
256,192,76281,1,0,0:0:0:0:
256,192,76362,1,0,0:0:0:0:
256,192,76443,1,8,0:0:0:0:
256,192,76524,1,8,0:0:0:0:
256,192,76605,1,0,0:0:0:0:
256,192,76686,1,0,0:0:0:0:
256,192,76768,1,8,0:0:0:0:
256,192,76849,1,8,0:0:0:0:
256,192,76930,1,0,0:0:0:0:
256,192,77011,1,0,0:0:0:0:
256,192,77092,1,8,0:0:0:0:
256,192,77254,1,12,0:0:0:0:
256,192,77578,1,0,0:0:0:0:
256,192,77903,1,8,0:0:0:0:
256,192,78065,1,0,0:0:0:0:
256,192,78227,1,0,0:0:0:0:
256,192,78389,1,8,0:0:0:0:
256,192,78713,1,0,0:0:0:0:
256,192,78876,1,8,0:0:0:0:
256,192,79038,1,0,0:0:0:0:
256,192,79200,1,8,0:0:0:0:
256,192,79362,1,8,0:0:0:0:
256,192,79524,1,0,0:0:0:0:
256,192,79686,1,0,0:0:0:0:
256,192,79849,1,8,0:0:0:0:
256,192,80173,1,8,0:0:0:0:
256,192,80335,1,0,0:0:0:0:
256,192,80497,1,8,0:0:0:0:
256,192,80659,1,8,0:0:0:0:
256,192,80822,1,0,0:0:0:0:
256,192,80984,1,8,0:0:0:0:
256,192,81308,1,0,0:0:0:0:
256,192,81470,1,8,0:0:0:0:
256,192,81632,1,0,0:0:0:0:
256,192,81795,1,0,0:0:0:0:
256,192,81957,1,8,0:0:0:0:
256,192,82119,1,8,0:0:0:0:
256,192,82281,1,0,0:0:0:0:
256,192,82443,1,8,0:0:0:0:
256,192,82768,1,8,0:0:0:0:
256,192,82930,1,0,0:0:0:0:
256,192,83092,1,8,0:0:0:0:
256,192,83254,1,8,0:0:0:0:
256,192,83416,1,0,0:0:0:0:
256,192,83578,1,0,0:0:0:0:
256,192,83741,1,8,0:0:0:0:
256,192,84065,1,8,0:0:0:0:
256,192,84227,1,0,0:0:0:0:
256,192,84389,1,8,0:0:0:0:
256,192,84551,1,8,0:0:0:0:
256,192,84713,1,8,0:0:0:0:
256,192,84876,1,0,0:0:0:0:
256,192,85038,1,8,0:0:0:0:
256,192,85362,1,0,0:0:0:0:
256,192,85686,1,8,0:0:0:0:
256,192,85849,1,0,0:0:0:0:
256,192,86011,1,0,0:0:0:0:
256,192,86173,1,8,0:0:0:0:
256,192,86497,1,8,0:0:0:0:
256,192,86659,1,0,0:0:0:0:
256,192,86822,1,8,0:0:0:0:
256,192,86984,1,8,0:0:0:0:
256,192,87146,1,0,0:0:0:0:
256,192,87308,1,8,0:0:0:0:
256,192,87470,1,0,0:0:0:0:
256,192,87632,1,12,0:0:0:0:
256,192,87957,1,8,0:0:0:0:
256,192,88119,1,0,0:0:0:0:
256,192,88281,1,8,0:0:0:0:
256,192,88443,1,8,0:0:0:0:
256,192,88605,1,0,0:0:0:0:
256,192,88768,1,8,0:0:0:0:
256,192,88930,1,8,0:0:0:0:
256,192,89254,1,8,0:0:0:0:
256,192,89416,1,0,0:0:0:0:
256,192,89578,1,8,0:0:0:0:
256,192,89741,1,8,0:0:0:0:
256,192,89903,1,8,0:0:0:0:
256,192,90065,1,0,0:0:0:0:
256,192,90227,1,8,0:0:0:0:
256,192,90551,1,8,0:0:0:0:
256,192,90713,1,0,0:0:0:0:
256,192,90876,1,8,0:0:0:0:
256,192,91038,1,8,0:0:0:0:
256,192,91200,1,0,0:0:0:0:
256,192,91362,1,8,0:0:0:0:
256,192,91524,1,8,0:0:0:0:
256,192,91849,1,8,0:0:0:0:
256,192,92011,1,0,0:0:0:0:
256,192,92173,1,8,0:0:0:0:
256,192,92335,1,8,0:0:0:0:
256,192,92497,1,8,0:0:0:0:
256,192,92659,1,0,0:0:0:0:
256,192,92822,1,8,0:0:0:0:
256,192,93146,1,8,0:0:0:0:
256,192,93308,1,0,0:0:0:0:
256,192,93470,1,8,0:0:0:0:
256,192,93632,1,8,0:0:0:0:
256,192,93795,1,0,0:0:0:0:
256,192,93957,1,8,0:0:0:0:
256,192,94119,1,8,0:0:0:0:
256,192,94443,1,8,0:0:0:0:
256,192,94605,1,0,0:0:0:0:
256,192,94768,1,8,0:0:0:0:
256,192,94930,1,8,0:0:0:0:
256,192,95092,1,8,0:0:0:0:
256,192,95254,1,0,0:0:0:0:
256,192,95416,1,8,0:0:0:0:
256,192,95741,1,8,0:0:0:0:
256,192,95903,1,0,0:0:0:0:
256,192,96065,1,8,0:0:0:0:
256,192,96227,1,8,0:0:0:0:
256,192,96389,1,0,0:0:0:0:
256,192,96551,1,8,0:0:0:0:
256,192,96713,1,0,0:0:0:0:
256,192,97038,1,8,0:0:0:0:
256,192,97200,1,0,0:0:0:0:
256,192,97362,1,8,0:0:0:0:
256,192,97524,1,8,0:0:0:0:
256,192,97686,1,8,0:0:0:0:
256,192,97849,1,0,0:0:0:0:
256,192,98011,1,4,0:0:0:0:
256,192,98173,1,0,0:0:0:0:
256,192,98254,1,0,0:0:0:0:
256,192,98335,1,8,0:0:0:0:
256,192,98416,1,0,0:0:0:0:
256,192,98497,1,8,0:0:0:0:
256,192,98578,1,8,0:0:0:0:
256,192,98659,1,0,0:0:0:0:
256,192,98741,1,8,0:0:0:0:
256,192,98822,1,0,0:0:0:0:
256,192,98903,1,0,0:0:0:0:
256,192,98984,1,8,0:0:0:0:
256,192,99065,1,8,0:0:0:0:
256,192,99146,1,0,0:0:0:0:
256,192,99227,1,0,0:0:0:0:
256,192,99308,1,8,0:0:0:0:
256,192,99389,1,0,0:0:0:0:
256,192,99470,1,8,0:0:0:0:
256,192,99551,1,8,0:0:0:0:
256,192,99632,1,0,0:0:0:0:
256,192,99713,1,8,0:0:0:0:
256,192,99795,1,8,0:0:0:0:
256,192,99876,1,0,0:0:0:0:
256,192,99957,1,8,0:0:0:0:
256,192,100038,1,0,0:0:0:0:
256,192,100119,1,0,0:0:0:0:
256,192,100200,1,8,0:0:0:0:
256,192,100281,1,8,0:0:0:0:
256,192,100362,1,0,0:0:0:0:
256,192,100443,1,0,0:0:0:0:
256,192,100524,1,8,0:0:0:0:
256,192,100605,1,0,0:0:0:0:
256,192,100686,1,0,0:0:0:0:
256,192,100768,1,8,0:0:0:0:
256,192,100849,1,0,0:0:0:0:
256,192,100930,1,8,0:0:0:0:
256,192,101011,1,8,0:0:0:0:
256,192,101092,1,0,0:0:0:0:
256,192,101173,1,8,0:0:0:0:
256,192,101254,1,0,0:0:0:0:
256,192,101335,1,8,0:0:0:0:
256,192,101416,1,8,0:0:0:0:
256,192,101497,1,0,0:0:0:0:
256,192,101578,1,8,0:0:0:0:
256,192,101659,1,0,0:0:0:0:
256,192,101741,1,0,0:0:0:0:
256,192,101822,1,8,0:0:0:0:
256,192,101903,1,0,0:0:0:0:
256,192,101984,1,8,0:0:0:0:
256,192,102065,1,8,0:0:0:0:
256,192,102146,1,0,0:0:0:0:
256,192,102227,1,8,0:0:0:0:
256,192,102308,1,8,0:0:0:0:
256,192,102389,1,0,0:0:0:0:
256,192,102470,1,8,0:0:0:0:
256,192,102551,1,0,0:0:0:0:
256,192,102632,1,0,0:0:0:0:
256,192,102713,1,8,0:0:0:0:
256,192,102795,1,0,0:0:0:0:
256,192,102876,1,8,0:0:0:0:
256,192,102957,1,8,0:0:0:0:
256,192,103038,1,0,0:0:0:0:
256,192,103119,1,8,0:0:0:0:
256,192,103200,1,0,0:0:0:0:
256,192,103362,1,0,0:0:0:0:
256,192,103443,1,0,0:0:0:0:
256,192,103524,1,8,0:0:0:0:
256,192,103605,1,0,0:0:0:0:
256,192,103686,1,8,0:0:0:0:
256,192,103768,1,8,0:0:0:0:
256,192,103849,1,0,0:0:0:0:
256,192,103930,1,8,0:0:0:0:
256,192,104011,1,0,0:0:0:0:
256,192,104092,1,0,0:0:0:0:
256,192,104173,1,8,0:0:0:0:
256,192,104254,1,8,0:0:0:0:
256,192,104335,1,0,0:0:0:0:
256,192,104416,1,0,0:0:0:0:
256,192,104497,1,8,0:0:0:0:
256,192,104578,1,0,0:0:0:0:
256,192,104659,1,8,0:0:0:0:
256,192,104741,1,8,0:0:0:0:
256,192,104822,1,0,0:0:0:0:
256,192,104903,1,8,0:0:0:0:
256,192,104984,1,0,0:0:0:0:
256,192,105065,1,0,0:0:0:0:
256,192,105146,1,8,0:0:0:0:
256,192,105227,1,0,0:0:0:0:
256,192,105308,1,0,0:0:0:0:
256,192,105389,1,8,0:0:0:0:
256,192,105470,1,8,0:0:0:0:
256,192,105551,1,0,0:0:0:0:
256,192,105632,1,0,0:0:0:0:
256,192,105713,1,8,0:0:0:0:
256,192,105795,1,0,0:0:0:0:
256,192,105876,1,0,0:0:0:0:
256,192,105957,1,8,0:0:0:0:
256,192,106038,1,0,0:0:0:0:
256,192,106119,1,8,0:0:0:0:
256,192,106200,1,8,0:0:0:0:
256,192,106281,1,0,0:0:0:0:
256,192,106362,1,8,0:0:0:0:
256,192,106443,1,0,0:0:0:0:
256,192,106524,1,8,0:0:0:0:
256,192,106605,1,8,0:0:0:0:
256,192,106686,1,0,0:0:0:0:
256,192,106768,1,8,0:0:0:0:
256,192,106849,1,0,0:0:0:0:
256,192,106930,1,0,0:0:0:0:
256,192,107011,1,8,0:0:0:0:
256,192,107092,1,0,0:0:0:0:
256,192,107173,1,8,0:0:0:0:
256,192,107254,1,8,0:0:0:0:
256,192,107335,1,0,0:0:0:0:
256,192,107416,1,8,0:0:0:0:
256,192,107497,1,8,0:0:0:0:
256,192,107578,1,0,0:0:0:0:
256,192,107659,1,0,0:0:0:0:
256,192,107741,1,8,0:0:0:0:
256,192,107822,1,8,0:0:0:0:
256,192,107903,1,0,0:0:0:0:
256,192,107984,1,8,0:0:0:0:
256,192,108065,1,0,0:0:0:0:
256,192,108146,1,8,0:0:0:0:
256,192,108227,1,0,0:0:0:0:
256,192,108389,1,4,0:0:0:0:
256,192,108551,1,0,0:0:0:0:
256,192,108632,1,0,0:0:0:0:
256,192,108713,1,8,0:0:0:0:
256,192,108795,1,0,0:0:0:0:
256,192,108876,1,8,0:0:0:0:
256,192,108957,1,8,0:0:0:0:
256,192,109038,1,0,0:0:0:0:
256,192,109119,1,8,0:0:0:0:
256,192,109200,1,0,0:0:0:0:
256,192,109281,1,0,0:0:0:0:
256,192,109362,1,8,0:0:0:0:
256,192,109443,1,8,0:0:0:0:
256,192,109524,1,0,0:0:0:0:
256,192,109605,1,0,0:0:0:0:
256,192,109686,1,8,0:0:0:0:
256,192,109768,1,0,0:0:0:0:
256,192,109849,1,8,0:0:0:0:
256,192,109930,1,8,0:0:0:0:
256,192,110011,1,0,0:0:0:0:
256,192,110092,1,8,0:0:0:0:
256,192,110173,1,8,0:0:0:0:
256,192,110254,1,0,0:0:0:0:
256,192,110335,1,8,0:0:0:0:
256,192,110416,1,0,0:0:0:0:
256,192,110497,1,0,0:0:0:0:
256,192,110578,1,8,0:0:0:0:
256,192,110659,1,8,0:0:0:0:
256,192,110741,1,0,0:0:0:0:
256,192,110822,1,0,0:0:0:0:
256,192,110903,1,8,0:0:0:0:
256,192,110984,1,0,0:0:0:0:
256,192,111065,1,0,0:0:0:0:
256,192,111146,1,8,0:0:0:0:
256,192,111227,1,0,0:0:0:0:
256,192,111308,1,8,0:0:0:0:
256,192,111389,1,8,0:0:0:0:
256,192,111470,1,0,0:0:0:0:
256,192,111551,1,8,0:0:0:0:
256,192,111632,1,0,0:0:0:0:
256,192,111713,1,8,0:0:0:0:
256,192,111795,1,8,0:0:0:0:
256,192,111876,1,0,0:0:0:0:
256,192,111957,1,8,0:0:0:0:
256,192,112038,1,0,0:0:0:0:
256,192,112119,1,0,0:0:0:0:
256,192,112200,1,8,0:0:0:0:
256,192,112281,1,0,0:0:0:0:
256,192,112362,1,8,0:0:0:0:
256,192,112443,1,8,0:0:0:0:
256,192,112524,1,0,0:0:0:0:
256,192,112605,1,8,0:0:0:0:
256,192,112686,1,8,0:0:0:0:
256,192,112768,1,0,0:0:0:0:
256,192,112849,1,8,0:0:0:0:
256,192,112930,1,0,0:0:0:0:
256,192,113011,1,0,0:0:0:0:
256,192,113092,1,8,0:0:0:0:
256,192,113173,1,0,0:0:0:0:
256,192,113254,1,8,0:0:0:0:
256,192,113335,1,8,0:0:0:0:
256,192,113416,1,0,0:0:0:0:
256,192,113497,1,8,0:0:0:0:
256,192,113578,1,0,0:0:0:0:
256,192,113741,1,0,0:0:0:0:
256,192,113822,1,0,0:0:0:0:
256,192,113903,1,8,0:0:0:0:
256,192,113984,1,0,0:0:0:0:
256,192,114065,1,8,0:0:0:0:
256,192,114146,1,8,0:0:0:0:
256,192,114227,1,0,0:0:0:0:
256,192,114308,1,8,0:0:0:0:
256,192,114389,1,0,0:0:0:0:
256,192,114470,1,0,0:0:0:0:
256,192,114551,1,8,0:0:0:0:
256,192,114632,1,8,0:0:0:0:
256,192,114713,1,0,0:0:0:0:
256,192,114795,1,0,0:0:0:0:
256,192,114876,1,8,0:0:0:0:
256,192,114957,1,0,0:0:0:0:
256,192,115038,1,8,0:0:0:0:
256,192,115119,1,8,0:0:0:0:
256,192,115200,1,0,0:0:0:0:
256,192,115281,1,8,0:0:0:0:
256,192,115362,1,0,0:0:0:0:
256,192,115443,1,0,0:0:0:0:
256,192,115524,1,8,0:0:0:0:
256,192,115605,1,0,0:0:0:0:
256,192,115686,1,0,0:0:0:0:
256,192,115768,1,8,0:0:0:0:
256,192,115849,1,8,0:0:0:0:
256,192,115930,1,0,0:0:0:0:
256,192,116011,1,0,0:0:0:0:
256,192,116092,1,8,0:0:0:0:
256,192,116173,1,0,0:0:0:0:
256,192,116335,1,0,0:0:0:0:
256,192,116416,1,0,0:0:0:0:
256,192,116497,1,8,0:0:0:0:
256,192,116578,1,0,0:0:0:0:
256,192,116659,1,8,0:0:0:0:
256,192,116741,1,8,0:0:0:0:
256,192,116822,1,0,0:0:0:0:
256,192,116903,1,8,0:0:0:0:
256,192,116984,1,0,0:0:0:0:
256,192,117065,1,0,0:0:0:0:
256,192,117146,1,8,0:0:0:0:
256,192,117227,1,8,0:0:0:0:
256,192,117308,1,0,0:0:0:0:
256,192,117389,1,8,0:0:0:0:
256,192,117470,1,0,0:0:0:0:
256,192,117632,1,0,0:0:0:0:
256,192,117795,1,8,0:0:0:0:
256,192,117957,1,8,0:0:0:0:
256,192,118038,1,8,0:0:0:0:
256,192,118119,1,0,0:0:0:0:
256,192,118200,1,8,0:0:0:0:
256,192,118281,1,0,0:0:0:0:
256,192,118362,1,0,0:0:0:0:
256,192,118443,1,8,0:0:0:0:
256,192,118497,1,8,0:0:0:0:
256,192,118551,1,8,0:0:0:0:
256,192,118605,1,0,0:0:0:0:
256,192,118768,1,12,0:0:0:0:
256,192,118930,1,0,0:0:0:0:
256,192,119011,1,0,0:0:0:0:
256,192,119092,1,8,0:0:0:0:
256,192,119254,1,0,0:0:0:0:
256,192,119335,1,0,0:0:0:0:
256,192,119416,1,8,0:0:0:0:
256,192,119497,1,0,0:0:0:0:
256,192,119578,1,8,0:0:0:0:
256,192,119659,1,0,0:0:0:0:
256,192,119741,1,8,0:0:0:0:
256,192,119822,1,8,0:0:0:0:
256,192,119903,1,8,0:0:0:0:
256,192,119984,1,0,0:0:0:0:
256,192,120065,1,8,0:0:0:0:
256,192,120146,1,8,0:0:0:0:
256,192,120227,1,0,0:0:0:0:
256,192,120308,1,0,0:0:0:0:
256,192,120389,1,8,0:0:0:0:
256,192,120470,1,0,0:0:0:0:
256,192,120551,1,0,0:0:0:0:
256,192,120632,1,0,0:0:0:0:
256,192,120713,1,8,0:0:0:0:
256,192,120795,1,8,0:0:0:0:
256,192,120876,1,0,0:0:0:0:
256,192,120957,1,0,0:0:0:0:
256,192,121038,1,8,0:0:0:0:
256,192,121119,1,0,0:0:0:0:
256,192,121200,1,8,0:0:0:0:
256,192,121362,1,8,0:0:0:0:
256,192,121443,1,8,0:0:0:0:
256,192,121524,1,0,0:0:0:0:
256,192,121605,1,0,0:0:0:0:
256,192,121686,1,8,0:0:0:0:
256,192,121768,1,0,0:0:0:0:
256,192,121849,1,8,0:0:0:0:
256,192,121930,1,8,0:0:0:0:
256,192,122011,1,8,0:0:0:0:
256,192,122092,1,0,0:0:0:0:
256,192,122173,1,8,0:0:0:0:
256,192,122254,1,0,0:0:0:0:
256,192,122335,1,8,0:0:0:0:
256,192,122416,1,8,0:0:0:0:
256,192,122497,1,0,0:0:0:0:
256,192,122659,1,12,0:0:0:0:
256,192,122984,1,4,0:0:0:0:
256,192,123308,1,12,0:0:0:0:
256,192,123632,1,4,0:0:0:0:
256,192,123957,1,12,0:0:0:0:
256,192,124119,1,0,0:0:0:0:
256,192,124200,1,0,0:0:0:0:
256,192,124281,1,8,0:0:0:0:
256,192,124443,1,0,0:0:0:0:
256,192,124524,1,0,0:0:0:0:
256,192,124605,1,8,0:0:0:0:
256,192,124686,1,0,0:0:0:0:
256,192,124767,1,8,0:0:0:0:
256,192,124848,1,0,0:0:0:0:
256,192,124930,1,8,0:0:0:0:
256,192,125011,1,8,0:0:0:0:
256,192,125092,1,8,0:0:0:0:
256,192,125173,1,0,0:0:0:0:
256,192,125254,1,8,0:0:0:0:
256,192,125335,1,8,0:0:0:0:
256,192,125416,1,0,0:0:0:0:
256,192,125497,1,0,0:0:0:0:
256,192,125578,1,8,0:0:0:0:
256,192,125659,1,0,0:0:0:0:
256,192,125740,1,0,0:0:0:0:
256,192,125821,1,0,0:0:0:0:
256,192,125902,1,8,0:0:0:0:
256,192,125984,1,8,0:0:0:0:
256,192,126065,1,0,0:0:0:0:
256,192,126146,1,0,0:0:0:0:
256,192,126227,1,8,0:0:0:0:
256,192,126308,1,0,0:0:0:0:
256,192,126389,1,8,0:0:0:0:
256,192,126551,1,12,0:0:0:0:
256,192,126713,1,0,0:0:0:0:
256,192,126795,1,0,0:0:0:0:
256,192,126876,1,8,0:0:0:0:
256,192,126957,1,0,0:0:0:0:
256,192,127038,1,8,0:0:0:0:
256,192,127119,1,0,0:0:0:0:
256,192,127200,1,8,0:0:0:0:
256,192,127281,1,0,0:0:0:0:
256,192,127362,1,8,0:0:0:0:
256,192,127443,1,8,0:0:0:0:
256,192,127524,1,8,0:0:0:0:
256,192,127605,1,0,0:0:0:0:
256,192,127686,1,8,0:0:0:0:
256,192,127849,1,4,0:0:0:0:
256,192,128173,1,12,0:0:0:0:
256,192,128497,1,12,0:0:0:0:
256,192,128822,1,4,0:0:0:0:
256,192,129146,1,12,0:0:0:0:
256,192,129308,1,0,0:0:0:0:
256,192,129389,1,0,0:0:0:0:
256,192,129470,1,8,0:0:0:0:
256,192,129632,1,0,0:0:0:0:
256,192,129713,1,0,0:0:0:0:
256,192,129794,1,8,0:0:0:0:
256,192,129875,1,0,0:0:0:0:
256,192,129956,1,8,0:0:0:0:
256,192,130037,1,0,0:0:0:0:
256,192,130119,1,8,0:0:0:0:
256,192,130200,1,8,0:0:0:0:
256,192,130281,1,8,0:0:0:0:
256,192,130362,1,0,0:0:0:0:
256,192,130443,1,8,0:0:0:0:
256,192,130524,1,8,0:0:0:0:
256,192,130605,1,0,0:0:0:0:
256,192,130686,1,0,0:0:0:0:
256,192,130767,1,8,0:0:0:0:
256,192,130848,1,0,0:0:0:0:
256,192,130929,1,0,0:0:0:0:
256,192,131010,1,0,0:0:0:0:
256,192,131091,1,8,0:0:0:0:
256,192,131173,1,8,0:0:0:0:
256,192,131254,1,0,0:0:0:0:
256,192,131335,1,0,0:0:0:0:
256,192,131416,1,8,0:0:0:0:
256,192,131497,1,0,0:0:0:0:
256,192,131578,1,8,0:0:0:0:
256,192,131741,2,0,L|288:192,3,26.2499983906746
256,192,132065,1,4,0:0:0:0:
256,192,132227,1,4,0:0:0:0:
256,192,132389,1,4,0:0:0:0:
256,192,132551,1,4,0:0:0:0:
256,192,132713,1,12,0:0:0:0:
256,192,133038,1,8,0:0:0:0:
256,192,133119,1,0,0:0:0:0:
256,192,133200,1,0,0:0:0:0:
256,192,133281,1,8,0:0:0:0:
256,192,133362,1,0,0:0:0:0:
256,192,133443,1,0,0:0:0:0:
256,192,133524,1,8,0:0:0:0:
256,192,133605,1,8,0:0:0:0:
256,192,133686,1,0,0:0:0:0:
256,192,133767,1,8,0:0:0:0:
256,192,133848,1,8,0:0:0:0:
256,192,134011,1,8,0:0:0:0:
256,192,134092,1,0,0:0:0:0:
256,192,134173,1,8,0:0:0:0:
256,192,134254,1,8,0:0:0:0:
256,192,134335,1,0,0:0:0:0:
256,192,134416,1,0,0:0:0:0:
256,192,134497,1,0,0:0:0:0:
256,192,134659,1,12,0:0:0:0:
256,192,134822,1,8,0:0:0:0:
256,192,134903,1,0,0:0:0:0:
256,192,134984,1,8,0:0:0:0:
256,192,135065,1,0,0:0:0:0:
256,192,135146,1,0,0:0:0:0:
256,192,135308,1,12,0:0:0:0:
256,192,135470,1,0,0:0:0:0:
256,192,135551,1,8,0:0:0:0:
256,192,135632,1,8,0:0:0:0:
256,192,135713,1,0,0:0:0:0:
256,192,135795,1,0,0:0:0:0:
256,192,135957,1,12,0:0:0:0:
256,192,136119,1,8,0:0:0:0:
256,192,136200,1,0,0:0:0:0:
256,192,136281,1,8,0:0:0:0:
256,192,136362,1,0,0:0:0:0:
256,192,136443,1,0,0:0:0:0:
256,192,136605,1,12,0:0:0:0:
256,192,136768,1,0,0:0:0:0:
256,192,136849,1,8,0:0:0:0:
256,192,136930,1,0,0:0:0:0:
256,192,136984,1,0,0:0:0:0:
256,192,137038,1,0,0:0:0:0:
256,192,137092,1,8,0:0:0:0:
256,192,137173,1,8,0:0:0:0:
256,192,137254,1,0,0:0:0:0:
256,192,137308,1,0,0:0:0:0:
256,192,137362,1,0,0:0:0:0:
256,192,137416,1,8,0:0:0:0:
256,192,137497,1,8,0:0:0:0:
256,192,137578,1,0,0:0:0:0:
256,192,137659,1,8,0:0:0:0:
256,192,137741,1,0,0:0:0:0:
256,192,137903,1,0,0:0:0:0:
256,192,137984,1,0,0:0:0:0:
256,192,138065,1,8,0:0:0:0:
256,192,138227,1,12,0:0:0:0:
256,192,138551,1,4,0:0:0:0:
256,192,138876,1,8,0:0:0:0:
256,192,138930,1,8,0:0:0:0:
256,192,138984,1,8,0:0:0:0:
256,192,139038,1,0,0:0:0:0:
256,192,139092,1,0,0:0:0:0:
256,192,139146,1,0,0:0:0:0:
256,192,139200,1,8,0:0:0:0:
256,192,139281,1,0,0:0:0:0:
256,192,139362,1,8,0:0:0:0:
256,192,139524,1,4,0:0:0:0:
256,192,139686,1,8,0:0:0:0:
256,192,139768,1,8,0:0:0:0:
256,192,139849,1,0,0:0:0:0:
256,192,139930,1,0,0:0:0:0:
256,192,140011,1,8,0:0:0:0:
256,192,140173,1,0,0:0:0:0:
256,192,140254,1,0,0:0:0:0:
256,192,140335,1,8,0:0:0:0:
256,192,140416,1,0,0:0:0:0:
256,192,140497,1,0,0:0:0:0:
256,192,140659,1,8,0:0:0:0:
256,192,140822,1,0,0:0:0:0:
256,192,140984,1,0,0:0:0:0:
256,192,141065,1,0,0:0:0:0:
256,192,141146,1,8,0:0:0:0:
256,192,141308,1,8,0:0:0:0:
256,192,141389,1,8,0:0:0:0:
256,192,141470,1,0,0:0:0:0:
256,192,141632,1,0,0:0:0:0:
256,192,141713,1,8,0:0:0:0:
256,192,141795,1,8,0:0:0:0:
256,192,141957,1,8,0:0:0:0:
256,192,142038,1,0,0:0:0:0:
256,192,142119,1,0,0:0:0:0:
256,192,142281,1,8,0:0:0:0:
256,192,142362,1,8,0:0:0:0:
256,192,142443,1,0,0:0:0:0:
256,192,142524,1,0,0:0:0:0:
256,192,142605,1,8,0:0:0:0:
256,192,142768,1,0,0:0:0:0:
256,192,142849,1,0,0:0:0:0:
256,192,142930,1,8,0:0:0:0:
256,192,143011,1,0,0:0:0:0:
256,192,143092,1,0,0:0:0:0:
256,192,143254,1,8,0:0:0:0:
256,192,143416,1,4,0:0:0:0:
256,192,143741,1,4,0:0:0:0:
256,192,144065,1,12,0:0:0:0:
256,192,144389,1,12,0:0:0:0:
256,192,144713,1,4,0:0:0:0:
256,192,144876,1,8,0:0:0:0:
256,192,144957,1,8,0:0:0:0:
256,192,145038,1,0,0:0:0:0:
256,192,145200,1,8,0:0:0:0:
256,192,145281,1,8,0:0:0:0:
256,192,145362,1,0,0:0:0:0:
256,192,145443,1,0,0:0:0:0:
256,192,145524,1,8,0:0:0:0:
256,192,145686,1,0,0:0:0:0:
256,192,145849,1,8,0:0:0:0:
256,192,145930,1,8,0:0:0:0:
256,192,146011,1,0,0:0:0:0:
256,192,146173,1,0,0:0:0:0:
256,192,146254,1,0,0:0:0:0:
256,192,146335,1,8,0:0:0:0:
256,192,146497,1,8,0:0:0:0:
256,192,146578,1,8,0:0:0:0:
256,192,146659,1,0,0:0:0:0:
256,192,146822,1,0,0:0:0:0:
256,192,146903,1,8,0:0:0:0:
256,192,146984,1,8,0:0:0:0:
256,192,147146,1,8,0:0:0:0:
256,192,147227,1,0,0:0:0:0:
256,192,147308,1,0,0:0:0:0:
256,192,147470,1,8,0:0:0:0:
256,192,147551,1,8,0:0:0:0:
256,192,147632,1,0,0:0:0:0:
256,192,147795,1,8,0:0:0:0:
256,192,147876,1,8,0:0:0:0:
256,192,147957,1,0,0:0:0:0:
256,192,148038,1,0,0:0:0:0:
256,192,148119,1,8,0:0:0:0:
256,192,148281,1,0,0:0:0:0:
256,192,148443,1,8,0:0:0:0:
256,192,148605,1,4,0:0:0:0:
256,192,148930,1,4,0:0:0:0:
256,192,149254,1,12,0:0:0:0:
256,192,149578,1,12,0:0:0:0:
256,192,149903,1,4,0:0:0:0:
256,192,150065,1,0,0:0:0:0:
256,192,150146,1,0,0:0:0:0:
256,192,150227,1,8,0:0:0:0:
256,192,150308,1,0,0:0:0:0:
256,192,150389,1,8,0:0:0:0:
256,192,150470,1,8,0:0:0:0:
256,192,150551,1,0,0:0:0:0:
256,192,150713,1,0,0:0:0:0:
256,192,150795,1,0,0:0:0:0:
256,192,150876,1,8,0:0:0:0:
256,192,151038,1,8,0:0:0:0:
256,192,151200,1,0,0:0:0:0:
256,192,151362,1,0,0:0:0:0:
256,192,151443,1,0,0:0:0:0:
256,192,151524,1,8,0:0:0:0:
256,192,151686,1,8,0:0:0:0:
256,192,151768,1,8,0:0:0:0:
256,192,151849,1,0,0:0:0:0:
256,192,151930,1,8,0:0:0:0:
256,192,152011,1,0,0:0:0:0:
256,192,152092,1,0,0:0:0:0:
256,192,152173,1,8,0:0:0:0:
256,192,152335,1,8,0:0:0:0:
256,192,152497,2,0,L|320:192,2,34.9999978542328
256,192,152822,1,4,0:0:0:0:
256,192,152984,1,4,0:0:0:0:
256,192,153146,1,4,0:0:0:0:
256,192,153308,1,4,0:0:0:0:
256,192,153470,1,12,0:0:0:0:
256,192,153795,1,8,0:0:0:0:
256,192,153876,1,0,0:0:0:0:
256,192,153957,1,0,0:0:0:0:
256,192,154038,1,8,0:0:0:0:
256,192,154119,1,0,0:0:0:0:
256,192,154200,1,0,0:0:0:0:
256,192,154281,1,8,0:0:0:0:
256,192,154362,1,8,0:0:0:0:
256,192,154443,1,0,0:0:0:0:
256,192,154524,1,8,0:0:0:0:
256,192,154605,1,8,0:0:0:0:
256,192,154686,1,0,0:0:0:0:
256,192,154768,1,8,0:0:0:0:
256,192,154849,1,0,0:0:0:0:
256,192,154930,1,8,0:0:0:0:
256,192,155011,1,8,0:0:0:0:
256,192,155092,1,0,0:0:0:0:
256,192,155173,1,0,0:0:0:0:
256,192,155254,1,0,0:0:0:0:
256,192,155416,1,12,0:0:0:0:
256,192,155578,1,8,0:0:0:0:
256,192,155659,1,8,0:0:0:0:
256,192,155741,1,0,0:0:0:0:
256,192,155822,1,0,0:0:0:0:
256,192,155903,1,0,0:0:0:0:
256,192,156065,1,12,0:0:0:0:
256,192,156227,1,0,0:0:0:0:
256,192,156308,1,8,0:0:0:0:
256,192,156389,1,0,0:0:0:0:
256,192,156470,1,0,0:0:0:0:
256,192,156551,1,0,0:0:0:0:
256,192,156713,1,12,0:0:0:0:
256,192,156876,1,8,0:0:0:0:
256,192,156957,1,8,0:0:0:0:
256,192,157038,1,0,0:0:0:0:
256,192,157119,1,0,0:0:0:0:
256,192,157200,1,0,0:0:0:0:
256,192,157362,1,12,0:0:0:0:
256,192,157524,1,0,0:0:0:0:
256,192,157605,1,8,0:0:0:0:
256,192,157686,1,0,0:0:0:0:
256,192,157741,1,0,0:0:0:0:
256,192,157795,1,0,0:0:0:0:
256,192,157849,1,8,0:0:0:0:
256,192,157930,1,8,0:0:0:0:
256,192,158011,1,0,0:0:0:0:
256,192,158065,1,0,0:0:0:0:
256,192,158119,1,0,0:0:0:0:
256,192,158173,1,8,0:0:0:0:
256,192,158254,1,8,0:0:0:0:
256,192,158335,1,0,0:0:0:0:
256,192,158497,1,0,0:0:0:0:
256,192,158659,1,8,0:0:0:0:
256,192,158822,1,8,0:0:0:0:
256,192,158903,1,8,0:0:0:0:
256,192,158984,1,0,0:0:0:0:
256,192,159146,1,0,0:0:0:0:
256,192,159227,1,0,0:0:0:0:
256,192,159308,1,8,0:0:0:0:
256,192,159470,1,8,0:0:0:0:
256,192,159551,1,8,0:0:0:0:
256,192,159632,1,0,0:0:0:0:
256,192,159686,1,8,0:0:0:0:
256,192,159741,1,8,0:0:0:0:
256,192,159795,1,0,0:0:0:0:
256,192,159876,1,0,0:0:0:0:
256,192,159957,1,8,0:0:0:0:
256,192,160038,1,0,0:0:0:0:
256,192,160119,1,8,0:0:0:0:
256,192,160281,1,4,0:0:0:0:
256,192,160443,8,0,165146,0:0:0:0:
256,192,165470,5,8,0:0:0:0:
256,192,166119,1,8,0:0:0:0:
256,192,166768,1,8,0:0:0:0:
256,192,167092,1,8,0:0:0:0:
256,192,167416,1,8,0:0:0:0:
256,192,167741,1,8,0:0:0:0:
256,192,168065,1,8,0:0:0:0:
256,192,168227,1,8,0:0:0:0:
256,192,168389,1,8,0:0:0:0:
256,192,168551,1,8,0:0:0:0:
256,192,168713,1,8,0:0:0:0:
256,192,168876,1,8,0:0:0:0:
256,192,169038,1,8,0:0:0:0:
256,192,169200,1,8,0:0:0:0:
256,192,169362,1,8,0:0:0:0:
256,192,169443,1,8,0:0:0:0:
256,192,169524,1,8,0:0:0:0:
256,192,169605,1,8,0:0:0:0:
256,192,169686,1,8,0:0:0:0:
256,192,169768,1,8,0:0:0:0:
256,192,169849,1,8,0:0:0:0:
256,192,169930,1,8,0:0:0:0:
256,192,170011,1,8,0:0:0:0:
256,192,170092,1,8,0:0:0:0:
256,192,170173,1,8,0:0:0:0:
256,192,170254,1,8,0:0:0:0:
256,192,170335,1,8,0:0:0:0:
256,192,170416,1,8,0:0:0:0:
256,192,170497,1,8,0:0:0:0:
256,192,170659,1,0,0:0:0:0:
256,192,170822,1,0,0:0:0:0:
256,192,170984,1,12,0:0:0:0:
256,192,171308,1,0,0:0:0:0:
256,192,171470,1,0,0:0:0:0:
256,192,171632,1,12,0:0:0:0:
256,192,171957,1,4,0:0:0:0:
256,192,172281,1,12,0:0:0:0:
256,192,172605,1,4,0:0:0:0:
256,192,172930,1,12,0:0:0:0:
256,192,173254,1,0,0:0:0:0:
256,192,173416,1,0,0:0:0:0:
256,192,173578,1,12,0:0:0:0:
256,192,173903,1,0,0:0:0:0:
256,192,174065,1,0,0:0:0:0:
256,192,174227,1,12,0:0:0:0:
256,192,174551,1,4,0:0:0:0:
256,192,174713,1,8,0:0:0:0:
256,192,174876,1,4,0:0:0:0:
256,192,175038,1,8,0:0:0:0:
256,192,175200,1,8,0:0:0:0:
256,192,175308,1,0,0:0:0:0:
256,192,175416,1,8,0:0:0:0:
256,192,175524,1,8,0:0:0:0:
256,192,175632,1,0,0:0:0:0:
256,192,175741,1,8,0:0:0:0:
256,192,175849,1,8,0:0:0:0:
256,192,175957,1,0,0:0:0:0:
256,192,176065,1,0,0:0:0:0:
256,192,176173,1,12,0:0:0:0:
256,192,176497,1,0,0:0:0:0:
256,192,176605,1,0,0:0:0:0:
256,192,176713,1,0,0:0:0:0:
256,192,176822,1,12,0:0:0:0:
256,192,177146,1,4,0:0:0:0:
256,192,177470,1,12,0:0:0:0:
256,192,177795,1,4,0:0:0:0:
256,192,178119,1,12,0:0:0:0:
256,192,178443,1,0,0:0:0:0:
256,192,178605,1,0,0:0:0:0:
256,192,178768,1,12,0:0:0:0:
256,192,179092,1,0,0:0:0:0:
256,192,179254,1,0,0:0:0:0:
256,192,179416,1,12,0:0:0:0:
256,192,179741,1,8,0:0:0:0:
256,192,179849,1,0,0:0:0:0:
256,192,179957,1,0,0:0:0:0:
256,192,180065,1,8,0:0:0:0:
256,192,180281,1,0,0:0:0:0:
256,192,180389,1,8,0:0:0:0:
256,192,180497,1,0,0:0:0:0:
256,192,180605,1,8,0:0:0:0:
256,192,180713,1,8,0:0:0:0:
256,192,180822,1,0,0:0:0:0:
256,192,180930,1,8,0:0:0:0:
256,192,181038,1,0,0:0:0:0:
256,192,181200,1,0,0:0:0:0:
256,192,181362,1,12,0:0:0:0:
256,192,181686,1,0,0:0:0:0:
256,192,181849,1,0,0:0:0:0:
256,192,182011,1,12,0:0:0:0:
256,192,182335,1,4,0:0:0:0:
256,192,182659,1,12,0:0:0:0:
256,192,182984,1,0,0:0:0:0:
256,192,183065,1,0,0:0:0:0:
256,192,183146,1,0,0:0:0:0:
256,192,183308,1,12,0:0:0:0:
256,192,183632,1,0,0:0:0:0:
256,192,183795,1,0,0:0:0:0:
256,192,183957,1,12,0:0:0:0:
256,192,184281,1,0,0:0:0:0:
256,192,184443,1,0,0:0:0:0:
256,192,184605,1,12,0:0:0:0:
256,192,184930,1,8,0:0:0:0:
256,192,185011,1,8,0:0:0:0:
256,192,185092,1,0,0:0:0:0:
256,192,185173,1,0,0:0:0:0:
256,192,185254,1,8,0:0:0:0:
256,192,185335,1,0,0:0:0:0:
256,192,185416,1,8,0:0:0:0:
256,192,185497,1,0,0:0:0:0:
256,192,185578,1,8,0:0:0:0:
256,192,185659,1,8,0:0:0:0:
256,192,185741,1,8,0:0:0:0:
256,192,185822,1,0,0:0:0:0:
256,192,185903,1,8,0:0:0:0:
256,192,185984,1,0,0:0:0:0:
256,192,186065,1,8,0:0:0:0:
256,192,186227,1,8,0:0:0:0:
256,192,186308,1,8,0:0:0:0:
256,192,186389,1,0,0:0:0:0:
256,192,186470,1,0,0:0:0:0:
256,192,186551,1,8,0:0:0:0:
256,192,186632,1,0,0:0:0:0:
256,192,186713,1,8,0:0:0:0:
256,192,186795,1,0,0:0:0:0:
256,192,186876,1,8,0:0:0:0:
256,192,186957,1,8,0:0:0:0:
256,192,187038,1,0,0:0:0:0:
256,192,187119,1,0,0:0:0:0:
256,192,187200,1,8,0:0:0:0:
256,192,187281,1,0,0:0:0:0:
256,192,187362,1,8,0:0:0:0:
256,192,187524,1,8,0:0:0:0:
256,192,187605,1,0,0:0:0:0:
256,192,187686,1,0,0:0:0:0:
256,192,187768,1,8,0:0:0:0:
256,192,187849,1,8,0:0:0:0:
256,192,187930,1,0,0:0:0:0:
256,192,188011,1,8,0:0:0:0:
256,192,188092,1,8,0:0:0:0:
256,192,188173,1,0,0:0:0:0:
256,192,188254,1,0,0:0:0:0:
256,192,188335,1,8,0:0:0:0:
256,192,188416,1,0,0:0:0:0:
256,192,188497,1,8,0:0:0:0:
256,192,188578,1,8,0:0:0:0:
256,192,188659,1,0,0:0:0:0:
256,192,188741,1,8,0:0:0:0:
256,192,188822,1,8,0:0:0:0:
256,192,188903,1,0,0:0:0:0:
256,192,188984,1,8,0:0:0:0:
256,192,189065,1,0,0:0:0:0:
256,192,189146,1,8,0:0:0:0:
256,192,189227,1,0,0:0:0:0:
256,192,189308,1,8,0:0:0:0:
256,192,189389,1,0,0:0:0:0:
256,192,189470,1,8,0:0:0:0:
256,192,189551,1,8,0:0:0:0:
256,192,189632,1,0,0:0:0:0:
256,192,189713,1,0,0:0:0:0:
256,192,189795,1,8,0:0:0:0:
256,192,189876,1,0,0:0:0:0:
256,192,189957,1,8,0:0:0:0:
256,192,190038,1,8,0:0:0:0:
256,192,190119,1,8,0:0:0:0:
256,192,190281,1,8,0:0:0:0:
256,192,190362,1,0,0:0:0:0:
256,192,190443,1,8,0:0:0:0:
256,192,190524,1,0,0:0:0:0:
256,192,190605,1,8,0:0:0:0:
256,192,190686,1,8,0:0:0:0:
256,192,190768,1,0,0:0:0:0:
256,192,190849,1,0,0:0:0:0:
256,192,190930,1,0,0:0:0:0:
256,192,191011,1,0,0:0:0:0:
256,192,191092,1,8,0:0:0:0:
256,192,191173,1,8,0:0:0:0:
256,192,191254,1,0,0:0:0:0:
256,192,191416,1,4,0:0:0:0:
256,192,192065,1,8,0:0:0:0:
256,192,192713,1,0,0:0:0:0:
256,192,193362,1,8,0:0:0:0:
256,192,193686,1,0,0:0:0:0:
256,192,194011,1,0,0:0:0:0:
256,192,194659,1,8,0:0:0:0:
256,192,195308,1,0,0:0:0:0:
256,192,195957,1,8,0:0:0:0:
256,192,196281,1,0,0:0:0:0:
256,192,196605,1,0,0:0:0:0:
256,192,197254,1,8,0:0:0:0:
256,192,197903,1,0,0:0:0:0:
256,192,198146,1,0,0:0:0:0:
256,192,198389,1,0,0:0:0:0:
256,192,198551,1,8,0:0:0:0:
256,192,198632,1,0,0:0:0:0:
256,192,198876,1,0,0:0:0:0:
256,192,199200,1,0,0:0:0:0:
256,192,199849,1,8,0:0:0:0:
256,192,200497,1,0,0:0:0:0:
256,192,201146,1,8,0:0:0:0:
256,192,201470,1,0,0:0:0:0:
256,192,201795,1,4,0:0:0:0:
256,192,202443,1,8,0:0:0:0:
256,192,203092,1,0,0:0:0:0:
256,192,203741,1,8,0:0:0:0:
256,192,204065,1,0,0:0:0:0:
256,192,204389,1,0,0:0:0:0:
256,192,205038,1,8,0:0:0:0:
256,192,205686,1,0,0:0:0:0:
256,192,206335,1,8,0:0:0:0:
256,192,206659,1,0,0:0:0:0:
256,192,206984,1,0,0:0:0:0:
256,192,207632,1,8,0:0:0:0:
256,192,208281,1,0,0:0:0:0:
256,192,208524,1,0,0:0:0:0:
256,192,208768,1,0,0:0:0:0:
256,192,208930,1,8,0:0:0:0:
256,192,209011,1,0,0:0:0:0:
256,192,209254,1,0,0:0:0:0:
256,192,209578,1,0,0:0:0:0:
256,192,210227,1,8,0:0:0:0:
256,192,210876,1,8,0:0:0:0:
256,192,211038,1,0,0:0:0:0:
256,192,211200,1,8,0:0:0:0:
256,192,211362,1,0,0:0:0:0:
256,192,211524,1,8,0:0:0:0:
256,192,211686,1,0,0:0:0:0:
256,192,211768,1,8,0:0:0:0:
256,192,211849,1,0,0:0:0:0:
256,192,212011,1,8,0:0:0:0:
256,192,212173,1,4,0:0:0:0:
256,192,212659,1,0,0:0:0:0:
256,192,212822,1,8,0:0:0:0:
256,192,212984,1,8,0:0:0:0:
256,192,213146,1,0,0:0:0:0:
256,192,213308,1,0,0:0:0:0:
256,192,213470,1,8,0:0:0:0:
256,192,213795,1,0,0:0:0:0:
256,192,214119,1,8,0:0:0:0:
256,192,214443,1,0,0:0:0:0:
256,192,214768,1,0,0:0:0:0:
256,192,215254,1,8,0:0:0:0:
256,192,215416,1,8,0:0:0:0:
256,192,216065,1,8,0:0:0:0:
256,192,216389,1,0,0:0:0:0:
256,192,216713,1,8,0:0:0:0:
256,192,217038,1,0,0:0:0:0:
256,192,217362,1,0,0:0:0:0:
256,192,217849,1,0,0:0:0:0:
256,192,218011,1,8,0:0:0:0:
256,192,218173,1,8,0:0:0:0:
256,192,218335,1,0,0:0:0:0:
256,192,218497,1,0,0:0:0:0:
256,192,218659,1,8,0:0:0:0:
256,192,218903,1,0,0:0:0:0:
256,192,218984,1,0,0:0:0:0:
256,192,219146,1,0,0:0:0:0:
256,192,219308,1,8,0:0:0:0:
256,192,219389,1,0,0:0:0:0:
256,192,219632,1,8,0:0:0:0:
256,192,219957,1,0,0:0:0:0:
256,192,220443,1,0,0:0:0:0:
256,192,220605,1,8,0:0:0:0:
256,192,221092,1,8,0:0:0:0:
256,192,221254,1,0,0:0:0:0:
256,192,221903,1,8,0:0:0:0:
256,192,222065,1,0,0:0:0:0:
256,192,222227,1,8,0:0:0:0:
256,192,222308,1,0,0:0:0:0:
256,192,222551,1,8,0:0:0:0:
256,192,223038,1,0,0:0:0:0:
256,192,223200,1,8,0:0:0:0:
256,192,223362,1,8,0:0:0:0:
256,192,223524,1,0,0:0:0:0:
256,192,223686,1,0,0:0:0:0:
256,192,223849,1,8,0:0:0:0:
256,192,224173,1,0,0:0:0:0:
256,192,224497,1,8,0:0:0:0:
256,192,224822,1,0,0:0:0:0:
256,192,225146,1,0,0:0:0:0:
256,192,225632,1,8,0:0:0:0:
256,192,225795,1,8,0:0:0:0:
256,192,226443,1,8,0:0:0:0:
256,192,226768,1,0,0:0:0:0:
256,192,227092,1,8,0:0:0:0:
256,192,227416,1,0,0:0:0:0:
256,192,227741,1,0,0:0:0:0:
256,192,228227,1,0,0:0:0:0:
256,192,228389,1,8,0:0:0:0:
256,192,228551,1,8,0:0:0:0:
256,192,228713,1,0,0:0:0:0:
256,192,228876,1,0,0:0:0:0:
256,192,229038,1,8,0:0:0:0:
256,192,229281,1,0,0:0:0:0:
256,192,229362,1,0,0:0:0:0:
256,192,229524,1,0,0:0:0:0:
256,192,229686,1,8,0:0:0:0:
256,192,229768,1,0,0:0:0:0:
256,192,230011,1,8,0:0:0:0:
256,192,230335,1,0,0:0:0:0:
256,192,230984,1,8,0:0:0:0:
256,192,231632,1,8,0:0:0:0:
256,192,231795,1,0,0:0:0:0:
256,192,231876,1,0,0:0:0:0:
256,192,231957,1,8,0:0:0:0:
256,192,232119,1,8,0:0:0:0:
256,192,232200,1,8,0:0:0:0:
256,192,232281,1,0,0:0:0:0:
256,192,232443,1,0,0:0:0:0:
256,192,232605,1,8,0:0:0:0:
256,192,232687,1,0,0:0:0:0:
256,192,232930,1,4,0:0:0:0:
256,192,233254,1,8,0:0:0:0:
256,192,233578,1,0,0:0:0:0:
256,192,233822,1,0,0:0:0:0:
256,192,233903,1,8,0:0:0:0:
256,192,234065,1,8,0:0:0:0:
256,192,234227,1,0,0:0:0:0:
256,192,234551,1,8,0:0:0:0:
256,192,234876,1,0,0:0:0:0:
256,192,235038,1,0,0:0:0:0:
256,192,235119,1,0,0:0:0:0:
256,192,235200,1,8,0:0:0:0:
256,192,235362,1,8,0:0:0:0:
256,192,235524,1,0,0:0:0:0:
256,192,235849,1,8,0:0:0:0:
256,192,236173,1,0,0:0:0:0:
256,192,236416,1,0,0:0:0:0:
256,192,236497,1,8,0:0:0:0:
256,192,236659,1,8,0:0:0:0:
256,192,236822,1,0,0:0:0:0:
256,192,237146,1,8,0:0:0:0:
256,192,237470,1,0,0:0:0:0:
256,192,237632,1,0,0:0:0:0:
256,192,237713,1,0,0:0:0:0:
256,192,237795,1,8,0:0:0:0:
256,192,237876,1,0,0:0:0:0:
256,192,237957,1,0,0:0:0:0:
256,192,238038,1,8,0:0:0:0:
256,192,238119,1,0,0:0:0:0:
256,192,238443,1,8,0:0:0:0:
256,192,238768,1,0,0:0:0:0:
256,192,239011,1,0,0:0:0:0:
256,192,239092,1,8,0:0:0:0:
256,192,239254,1,8,0:0:0:0:
256,192,239416,1,0,0:0:0:0:
256,192,239741,1,8,0:0:0:0:
256,192,240065,1,0,0:0:0:0:
256,192,240227,1,0,0:0:0:0:
256,192,240308,1,0,0:0:0:0:
256,192,240389,1,8,0:0:0:0:
256,192,240551,1,8,0:0:0:0:
256,192,240713,1,0,0:0:0:0:
256,192,241038,1,8,0:0:0:0:
256,192,241362,1,0,0:0:0:0:
256,192,241605,1,0,0:0:0:0:
256,192,241686,1,8,0:0:0:0:
256,192,241849,1,8,0:0:0:0:
256,192,242011,1,0,0:0:0:0:
256,192,242335,1,8,0:0:0:0:
256,192,242659,1,0,0:0:0:0:
256,192,242822,1,0,0:0:0:0:
256,192,242903,1,0,0:0:0:0:
256,192,242984,1,8,0:0:0:0:
256,192,243065,1,0,0:0:0:0:
256,192,243146,1,0,0:0:0:0:
256,192,243227,1,8,0:0:0:0:
256,192,243308,1,0,0:0:0:0:
256,192,243470,1,0,0:0:0:0:
256,192,243551,1,0,0:0:0:0:
256,192,243632,1,8,0:0:0:0:
256,192,243795,1,8,0:0:0:0:
256,192,243876,1,8,0:0:0:0:
256,192,243957,1,0,0:0:0:0:
256,192,244119,1,0,0:0:0:0:
256,192,244200,1,8,0:0:0:0:
256,192,244281,1,8,0:0:0:0:
256,192,244443,1,8,0:0:0:0:
256,192,244524,1,0,0:0:0:0:
256,192,244605,1,0,0:0:0:0:
256,192,244768,1,0,0:0:0:0:
256,192,244849,1,8,0:0:0:0:
256,192,244930,1,8,0:0:0:0:
256,192,245092,1,8,0:0:0:0:
256,192,245173,1,0,0:0:0:0:
256,192,245254,1,0,0:0:0:0:
256,192,245416,1,0,0:0:0:0:
256,192,245497,1,0,0:0:0:0:
256,192,245578,1,8,0:0:0:0:
256,192,245741,1,8,0:0:0:0:
256,192,245822,1,8,0:0:0:0:
256,192,245903,1,0,0:0:0:0:
256,192,246065,1,0,0:0:0:0:
256,192,246146,1,8,0:0:0:0:
256,192,246227,1,8,0:0:0:0:
256,192,246389,1,8,0:0:0:0:
256,192,246470,1,8,0:0:0:0:
256,192,246551,1,0,0:0:0:0:
256,192,246713,1,0,0:0:0:0:
256,192,246795,1,0,0:0:0:0:
256,192,246876,1,8,0:0:0:0:
256,192,247038,1,8,0:0:0:0:
256,192,247119,1,0,0:0:0:0:
256,192,247200,1,0,0:0:0:0:
256,192,247362,1,0,0:0:0:0:
256,192,247443,1,0,0:0:0:0:
256,192,247524,1,8,0:0:0:0:
256,192,247686,1,8,0:0:0:0:
256,192,247768,1,0,0:0:0:0:
256,192,247849,1,0,0:0:0:0:
256,192,248011,1,0,0:0:0:0:
256,192,248092,1,8,0:0:0:0:
256,192,248173,1,8,0:0:0:0:
256,192,248335,1,8,0:0:0:0:
256,192,248416,1,8,0:0:0:0:
256,192,248497,1,0,0:0:0:0:
256,192,248578,1,0,0:0:0:0:
256,192,248659,1,8,0:0:0:0:
256,192,248741,1,0,0:0:0:0:
256,192,248822,1,8,0:0:0:0:
256,192,248903,1,8,0:0:0:0:
256,192,248984,1,0,0:0:0:0:
256,192,249065,1,8,0:0:0:0:
256,192,249146,1,0,0:0:0:0:
256,192,249227,1,8,0:0:0:0:
256,192,249308,1,8,0:0:0:0:
256,192,249389,1,0,0:0:0:0:
256,192,249470,1,8,0:0:0:0:
256,192,249551,1,8,0:0:0:0:
256,192,249632,1,0,0:0:0:0:
256,192,249713,1,8,0:0:0:0:
256,192,249795,1,0,0:0:0:0:
256,192,249876,1,0,0:0:0:0:
256,192,249957,1,8,0:0:0:0:
256,192,250038,1,0,0:0:0:0:
256,192,250119,1,8,0:0:0:0:
256,192,250200,1,8,0:0:0:0:
256,192,250281,1,0,0:0:0:0:
256,192,250362,1,8,0:0:0:0:
256,192,250443,1,0,0:0:0:0:
256,192,250524,1,8,0:0:0:0:
256,192,250605,1,8,0:0:0:0:
256,192,250686,1,0,0:0:0:0:
256,192,250768,1,8,0:0:0:0:
256,192,250849,1,8,0:0:0:0:
256,192,250930,1,0,0:0:0:0:
256,192,251011,1,8,0:0:0:0:
256,192,251092,1,0,0:0:0:0:
256,192,251173,1,0,0:0:0:0:
256,192,251254,1,8,0:0:0:0:
256,192,251335,1,0,0:0:0:0:
256,192,251416,1,8,0:0:0:0:
256,192,251497,1,8,0:0:0:0:
256,192,251578,1,0,0:0:0:0:
256,192,251659,1,8,0:0:0:0:
256,192,251741,1,0,0:0:0:0:
256,192,251822,1,8,0:0:0:0:
256,192,251903,1,8,0:0:0:0:
256,192,251984,1,0,0:0:0:0:
256,192,252065,1,8,0:0:0:0:
256,192,252146,1,8,0:0:0:0:
256,192,252227,1,0,0:0:0:0:
256,192,252308,1,8,0:0:0:0:
256,192,252389,1,0,0:0:0:0:
256,192,252551,1,0,0:0:0:0:
256,192,252632,1,0,0:0:0:0:
256,192,252713,1,8,0:0:0:0:
256,192,252876,1,8,0:0:0:0:
256,192,253038,1,8,0:0:0:0:
256,192,253200,1,8,0:0:0:0:
256,192,253362,1,0,0:0:0:0:
256,192,253443,1,0,0:0:0:0:
256,192,253524,1,0,0:0:0:0:
256,192,253686,1,12,0:0:0:0:
256,192,253849,1,0,0:0:0:0:
256,192,253930,1,0,0:0:0:0:
256,192,254011,1,8,0:0:0:0:
256,192,254173,1,0,0:0:0:0:
256,192,254254,1,0,0:0:0:0:
256,192,254335,1,8,0:0:0:0:
256,192,254416,1,8,0:0:0:0:
256,192,254497,1,0,0:0:0:0:
256,192,254578,1,8,0:0:0:0:
256,192,254659,1,8,0:0:0:0:
256,192,254741,1,0,0:0:0:0:
256,192,254822,1,8,0:0:0:0:
256,192,254903,1,0,0:0:0:0:
256,192,254984,1,8,0:0:0:0:
256,192,255065,1,0,0:0:0:0:
256,192,255146,1,0,0:0:0:0:
256,192,255227,1,8,0:0:0:0:
256,192,255308,1,8,0:0:0:0:
256,192,255389,1,0,0:0:0:0:
256,192,255470,1,8,0:0:0:0:
256,192,255551,1,0,0:0:0:0:
256,192,255632,1,8,0:0:0:0:
256,192,255713,1,0,0:0:0:0:
256,192,255795,1,0,0:0:0:0:
256,192,255876,1,8,0:0:0:0:
256,192,255957,1,8,0:0:0:0:
256,192,256038,1,0,0:0:0:0:
256,192,256119,1,8,0:0:0:0:
256,192,256281,1,8,0:0:0:0:
256,192,256362,1,0,0:0:0:0:
256,192,256443,1,8,0:0:0:0:
256,192,256524,1,8,0:0:0:0:
256,192,256605,1,8,0:0:0:0:
256,192,256686,1,0,0:0:0:0:
256,192,256768,1,8,0:0:0:0:
256,192,256849,1,0,0:0:0:0:
256,192,256930,1,8,0:0:0:0:
256,192,257011,1,8,0:0:0:0:
256,192,257092,1,0,0:0:0:0:
256,192,257173,1,0,0:0:0:0:
256,192,257254,1,8,0:0:0:0:
256,192,257335,1,0,0:0:0:0:
256,192,257416,1,8,0:0:0:0:
256,192,257578,1,0,0:0:0:0:
256,192,257686,1,0,0:0:0:0:
256,192,257795,1,0,0:0:0:0:
256,192,257903,1,0,0:0:0:0:
256,192,258011,1,0,0:0:0:0:
256,192,258119,1,0,0:0:0:0:
256,192,258227,1,8,0:0:0:0:
256,192,258335,1,0,0:0:0:0:
256,192,258443,1,8,0:0:0:0:
256,192,258551,1,8,0:0:0:0:
256,192,258659,1,0,0:0:0:0:
256,192,258768,1,0,0:0:0:0:
256,192,258876,1,12,0:0:0:0:
256,192,259200,1,8,0:0:0:0:
256,192,259281,1,0,0:0:0:0:
256,192,259362,1,8,0:0:0:0:
256,192,259524,1,8,0:0:0:0:
256,192,259605,1,8,0:0:0:0:
256,192,259686,1,0,0:0:0:0:
256,192,259768,1,0,0:0:0:0:
256,192,259849,1,8,0:0:0:0:
256,192,259930,1,0,0:0:0:0:
256,192,260011,1,8,0:0:0:0:
256,192,260173,1,8,0:0:0:0:
256,192,260254,1,0,0:0:0:0:
256,192,260335,1,8,0:0:0:0:
256,192,260416,1,0,0:0:0:0:
256,192,260497,1,8,0:0:0:0:
256,192,260578,1,8,0:0:0:0:
256,192,260659,1,0,0:0:0:0:
256,192,260741,1,8,0:0:0:0:
256,192,260822,1,8,0:0:0:0:
256,192,260903,1,0,0:0:0:0:
256,192,260984,1,8,0:0:0:0:
256,192,261065,1,8,0:0:0:0:
256,192,261146,1,8,0:0:0:0:
256,192,261227,1,0,0:0:0:0:
256,192,261308,1,8,0:0:0:0:
256,192,261470,1,8,0:0:0:0:
256,192,261551,1,0,0:0:0:0:
256,192,261632,1,8,0:0:0:0:
256,192,261713,1,8,0:0:0:0:
256,192,261795,1,0,0:0:0:0:
256,192,261876,1,0,0:0:0:0:
256,192,261957,1,8,0:0:0:0:
256,192,262038,1,0,0:0:0:0:
256,192,262119,1,8,0:0:0:0:
256,192,262200,1,8,0:0:0:0:
256,192,262281,1,0,0:0:0:0:
256,192,262362,1,0,0:0:0:0:
256,192,262443,1,8,0:0:0:0:
256,192,262524,1,0,0:0:0:0:
256,192,262605,1,8,0:0:0:0:
256,192,262768,1,8,0:0:0:0:
256,192,262849,1,8,0:0:0:0:
256,192,262930,1,0,0:0:0:0:
256,192,263011,1,0,0:0:0:0:
256,192,263092,1,8,0:0:0:0:
256,192,263173,1,0,0:0:0:0:
256,192,263254,1,8,0:0:0:0:
256,192,263335,1,0,0:0:0:0:
256,192,263416,1,8,0:0:0:0:
256,192,263497,1,8,0:0:0:0:
256,192,263578,1,0,0:0:0:0:
256,192,263659,1,8,0:0:0:0:
256,192,263741,1,8,0:0:0:0:
256,192,263822,1,0,0:0:0:0:
256,192,263903,1,8,0:0:0:0:
256,192,264065,1,8,0:0:0:0:
256,192,264146,1,8,0:0:0:0:
256,192,264227,1,0,0:0:0:0:
256,192,264308,1,0,0:0:0:0:
256,192,264389,1,8,0:0:0:0:
256,192,264470,1,0,0:0:0:0:
256,192,264551,1,0,0:0:0:0:
256,192,264632,1,0,0:0:0:0:
256,192,264713,1,8,0:0:0:0:
256,192,264795,1,0,0:0:0:0:
256,192,264876,1,8,0:0:0:0:
256,192,264957,1,0,0:0:0:0:
256,192,265038,1,8,0:0:0:0:
256,192,265119,1,8,0:0:0:0:
256,192,265200,1,0,0:0:0:0:
256,192,265362,1,8,0:0:0:0:
256,192,265443,1,8,0:0:0:0:
256,192,265524,1,0,0:0:0:0:
256,192,265605,1,0,0:0:0:0:
256,192,265686,1,8,0:0:0:0:
256,192,265768,1,0,0:0:0:0:
256,192,265849,1,0,0:0:0:0:
256,192,265930,1,0,0:0:0:0:
256,192,266011,1,8,0:0:0:0:
256,192,266092,1,0,0:0:0:0:
256,192,266173,1,8,0:0:0:0:
256,192,266254,1,0,0:0:0:0:
256,192,266335,1,8,0:0:0:0:
256,192,266416,1,8,0:0:0:0:
256,192,266497,1,0,0:0:0:0:
256,192,266578,1,0,0:0:0:0:
256,192,266659,1,8,0:0:0:0:
256,192,266741,1,0,0:0:0:0:
256,192,266822,1,0,0:0:0:0:
256,192,266903,1,0,0:0:0:0:
256,192,266984,1,8,0:0:0:0:
256,192,267065,1,8,0:0:0:0:
256,192,267146,1,0,0:0:0:0:
256,192,267227,1,0,0:0:0:0:
256,192,267308,1,8,0:0:0:0:
256,192,267362,1,8,0:0:0:0:
256,192,267416,1,8,0:0:0:0:
256,192,267470,1,0,0:0:0:0:
256,192,267551,1,0,0:0:0:0:
256,192,267632,1,8,0:0:0:0:
256,192,267686,1,8,0:0:0:0:
256,192,267741,1,8,0:0:0:0:
256,192,267795,1,0,0:0:0:0:
256,192,267876,1,0,0:0:0:0:
256,192,267957,1,8,0:0:0:0:
256,192,268038,1,0,0:0:0:0:
256,192,268119,1,0,0:0:0:0:
256,192,268200,1,0,0:0:0:0:
256,192,268281,1,8,0:0:0:0:
256,192,268362,1,8,0:0:0:0:
256,192,268443,1,0,0:0:0:0:
256,192,268524,1,0,0:0:0:0:
256,192,268605,1,8,0:0:0:0:
256,192,268768,1,0,0:0:0:0:
256,192,268930,1,8,0:0:0:0:
256,192,269254,1,8,0:0:0:0:
256,192,269335,1,0,0:0:0:0:
256,192,269416,1,8,0:0:0:0:
256,192,269497,1,8,0:0:0:0:
256,192,269578,1,0,0:0:0:0:
256,192,269659,1,0,0:0:0:0:
256,192,269741,1,8,0:0:0:0:
256,192,269822,1,0,0:0:0:0:
256,192,269903,1,8,0:0:0:0:
256,192,269984,1,0,0:0:0:0:
256,192,270065,1,8,0:0:0:0:
256,192,270119,1,8,0:0:0:0:
256,192,270173,1,8,0:0:0:0:
256,192,270227,1,0,0:0:0:0:
256,192,270308,1,0,0:0:0:0:
256,192,270389,1,8,0:0:0:0:
256,192,270443,1,0,0:0:0:0:
256,192,270497,1,0,0:0:0:0:
256,192,270551,1,8,0:0:0:0:
256,192,270632,1,0,0:0:0:0:
256,192,270713,1,8,0:0:0:0:
256,192,270795,1,8,0:0:0:0:
256,192,270876,1,0,0:0:0:0:
256,192,270957,1,0,0:0:0:0:
256,192,271038,1,8,0:0:0:0:
256,192,271119,1,0,0:0:0:0:
256,192,271200,1,8,0:0:0:0:
256,192,271281,1,0,0:0:0:0:
256,192,271362,1,8,0:0:0:0:
256,192,271416,1,8,0:0:0:0:
256,192,271470,1,8,0:0:0:0:
256,192,271524,1,0,0:0:0:0:
256,192,271605,1,0,0:0:0:0:
256,192,271686,1,8,0:0:0:0:
256,192,271741,1,0,0:0:0:0:
256,192,271795,1,0,0:0:0:0:
256,192,271849,1,8,0:0:0:0:
256,192,271930,1,8,0:0:0:0:
256,192,272011,1,8,0:0:0:0:
256,192,272092,1,8,0:0:0:0:
256,192,272173,1,0,0:0:0:0:
256,192,272254,1,0,0:0:0:0:
256,192,272335,1,0,0:0:0:0:
256,192,272416,1,0,0:0:0:0:
256,192,272497,1,8,0:0:0:0:
256,192,272578,1,8,0:0:0:0:
256,192,272659,1,0,0:0:0:0:
256,192,272741,1,0,0:0:0:0:
256,192,272822,1,8,0:0:0:0:
256,192,272903,1,8,0:0:0:0:
256,192,272984,1,0,0:0:0:0:
256,192,273065,1,8,0:0:0:0:
256,192,273146,1,8,0:0:0:0:
256,192,273227,1,0,0:0:0:0:
256,192,273308,1,8,0:0:0:0:
256,192,273389,1,0,0:0:0:0:
256,192,273470,1,8,0:0:0:0:
256,192,273551,1,0,0:0:0:0:
256,192,273632,1,8,0:0:0:0:
256,192,273713,1,0,0:0:0:0:
256,192,273795,1,8,0:0:0:0:
256,192,273903,1,8,0:0:0:0:
256,192,274011,1,8,0:0:0:0:
256,192,274119,1,0,0:0:0:0:
256,192,274227,1,0,0:0:0:0:
256,192,274335,1,0,0:0:0:0:
256,192,274443,1,12,0:0:0:0:
256,192,274605,1,0,0:0:0:0:
256,192,274686,1,0,0:0:0:0:
256,192,274768,1,8,0:0:0:0:
256,192,274930,1,8,0:0:0:0:
256,192,275011,1,0,0:0:0:0:
256,192,275092,1,8,0:0:0:0:
256,192,275173,1,8,0:0:0:0:
256,192,275254,1,0,0:0:0:0:
256,192,275335,1,0,0:0:0:0:
256,192,275416,1,8,0:0:0:0:
256,192,275497,1,0,0:0:0:0:
256,192,275578,1,8,0:0:0:0:
256,192,275659,1,0,0:0:0:0:
256,192,275741,1,8,0:0:0:0:
256,192,275822,1,8,0:0:0:0:
256,192,275903,1,0,0:0:0:0:
256,192,276065,1,8,0:0:0:0:
256,192,276146,1,0,0:0:0:0:
256,192,276227,1,0,0:0:0:0:
256,192,276308,1,0,0:0:0:0:
256,192,276389,1,8,0:0:0:0:
256,192,276470,1,0,0:0:0:0:
256,192,276551,1,8,0:0:0:0:
256,192,276632,1,8,0:0:0:0:
256,192,276713,1,0,0:0:0:0:
256,192,276795,1,0,0:0:0:0:
256,192,276876,1,8,0:0:0:0:
256,192,276957,1,0,0:0:0:0:
256,192,277038,1,8,0:0:0:0:
256,192,277119,1,8,0:0:0:0:
256,192,277200,1,0,0:0:0:0:
256,192,277281,1,0,0:0:0:0:
256,192,277362,1,8,0:0:0:0:
256,192,277443,1,0,0:0:0:0:
256,192,277524,1,0,0:0:0:0:
256,192,277605,1,8,0:0:0:0:
256,192,277686,1,8,0:0:0:0:
256,192,277768,1,0,0:0:0:0:
256,192,277849,1,8,0:0:0:0:
256,192,277930,1,0,0:0:0:0:
256,192,278011,1,8,0:0:0:0:
256,192,278092,1,8,0:0:0:0:
256,192,278173,1,0,0:0:0:0:
256,192,278335,1,8,0:0:0:0:
256,192,278416,1,8,0:0:0:0:
256,192,278497,1,0,0:0:0:0:
256,192,278578,1,8,0:0:0:0:
256,192,278659,1,0,0:0:0:0:
256,192,278822,1,8,0:0:0:0:
256,192,278903,1,0,0:0:0:0:
256,192,278984,1,8,0:0:0:0:
256,192,279146,1,0,0:0:0:0:
256,192,279227,1,8,0:0:0:0:
256,192,279389,1,0,0:0:0:0:
256,192,279470,1,8,0:0:0:0:
256,192,279632,1,8,0:0:0:0:
256,192,279713,1,8,0:0:0:0:
256,192,279795,1,0,0:0:0:0:
256,192,279876,1,0,0:0:0:0:
256,192,279957,1,8,0:0:0:0:
256,192,280119,1,0,0:0:0:0:
256,192,280200,1,0,0:0:0:0:
256,192,280281,1,8,0:0:0:0:
256,192,280362,1,0,0:0:0:0:
256,192,280443,1,8,0:0:0:0:
256,192,280605,1,0,0:0:0:0:
256,192,280686,1,8,0:0:0:0:
256,192,280768,1,8,0:0:0:0:
256,192,280849,1,0,0:0:0:0:
256,192,280930,1,8,0:0:0:0:
256,192,281011,1,8,0:0:0:0:
256,192,281092,1,0,0:0:0:0:
256,192,281173,1,8,0:0:0:0:
256,192,281254,1,0,0:0:0:0:
256,192,281335,1,0,0:0:0:0:
256,192,281416,1,8,0:0:0:0:
256,192,281578,1,8,0:0:0:0:
256,192,281659,1,0,0:0:0:0:
256,192,281741,1,8,0:0:0:0:
256,192,281822,1,0,0:0:0:0:
256,192,281903,1,8,0:0:0:0:
256,192,281984,1,8,0:0:0:0:
256,192,282065,1,0,0:0:0:0:
256,192,282146,1,0,0:0:0:0:
256,192,282227,1,8,0:0:0:0:
256,192,282389,1,0,0:0:0:0:
256,192,282470,1,8,0:0:0:0:
256,192,282551,1,8,0:0:0:0:
256,192,282713,1,8,0:0:0:0:
256,192,282795,1,0,0:0:0:0:
256,192,282876,1,8,0:0:0:0:
256,192,282957,1,8,0:0:0:0:
256,192,283038,1,8,0:0:0:0:
256,192,283119,1,8,0:0:0:0:
256,192,283200,1,0,0:0:0:0:
256,192,283281,1,0,0:0:0:0:
256,192,283362,1,8,0:0:0:0:
256,192,283443,1,0,0:0:0:0:
256,192,283524,1,8,0:0:0:0:
256,192,283605,1,8,0:0:0:0:
256,192,283686,1,0,0:0:0:0:
256,192,283768,1,0,0:0:0:0:
256,192,283849,1,8,0:0:0:0:
256,192,283930,1,0,0:0:0:0:
256,192,284011,1,8,0:0:0:0:
256,192,284173,1,8,0:0:0:0:
256,192,284254,1,0,0:0:0:0:
256,192,284335,1,8,0:0:0:0:
256,192,284416,1,0,0:0:0:0:
256,192,284497,1,8,0:0:0:0:
256,192,284578,1,0,0:0:0:0:
256,192,284659,1,8,0:0:0:0:
256,192,284741,1,0,0:0:0:0:
256,192,284822,1,8,0:0:0:0:
256,192,284903,1,8,0:0:0:0:
256,192,284984,1,0,0:0:0:0:
256,192,285065,1,0,0:0:0:0:
256,192,285146,1,8,0:0:0:0:
256,192,285227,1,0,0:0:0:0:
256,192,285308,1,0,0:0:0:0:
256,192,285389,1,8,0:0:0:0:
256,192,285470,1,8,0:0:0:0:
256,192,285632,1,8,0:0:0:0:
256,192,285713,1,0,0:0:0:0:
256,192,285795,1,8,0:0:0:0:
256,192,285876,1,8,0:0:0:0:
256,192,285957,1,0,0:0:0:0:
256,192,286038,1,0,0:0:0:0:
256,192,286119,1,8,0:0:0:0:
256,192,286200,1,0,0:0:0:0:
256,192,286281,1,8,0:0:0:0:
256,192,286362,1,0,0:0:0:0:
256,192,286443,1,8,0:0:0:0:
256,192,286524,1,0,0:0:0:0:
256,192,286605,1,0,0:0:0:0:
256,192,286686,1,8,0:0:0:0:
256,192,286768,1,8,0:0:0:0:
256,192,286849,1,0,0:0:0:0:
256,192,286930,1,8,0:0:0:0:
256,192,287011,1,0,0:0:0:0:
256,192,287092,1,8,0:0:0:0:
256,192,287173,1,0,0:0:0:0:
256,192,287254,1,8,0:0:0:0:
256,192,287416,1,8,0:0:0:0:
256,192,287497,1,8,0:0:0:0:
256,192,287578,1,0,0:0:0:0:
256,192,287659,1,0,0:0:0:0:
256,192,287741,1,8,0:0:0:0:
256,192,287822,1,0,0:0:0:0:
256,192,287903,1,8,0:0:0:0:
256,192,287984,1,8,0:0:0:0:
256,192,288065,1,8,0:0:0:0:
256,192,288119,1,0,0:0:0:0:
256,192,288173,1,0,0:0:0:0:
256,192,288227,1,8,0:0:0:0:
256,192,288308,1,0,0:0:0:0:
256,192,288389,1,8,0:0:0:0:
256,192,288443,1,0,0:0:0:0:
256,192,288497,1,0,0:0:0:0:
256,192,288551,1,8,0:0:0:0:
256,192,288632,1,0,0:0:0:0:
256,192,288713,1,8,0:0:0:0:
256,192,288795,1,8,0:0:0:0:
256,192,288876,1,8,0:0:0:0:
256,192,288957,1,0,0:0:0:0:
256,192,289038,1,8,0:0:0:0:
256,192,289119,1,8,0:0:0:0:
256,192,289200,1,0,0:0:0:0:
256,192,289281,1,0,0:0:0:0:
256,192,289362,1,8,0:0:0:0:
256,192,289524,1,0,0:0:0:0:
256,192,289686,1,8,0:0:0:0:
256,192,290011,1,12,0:0:0:0:
256,192,290173,1,0,0:0:0:0:
256,192,290254,1,0,0:0:0:0:
256,192,290335,1,8,0:0:0:0:
256,192,290416,1,0,0:0:0:0:
256,192,290497,1,8,0:0:0:0:
256,192,290659,1,12,0:0:0:0:
256,192,290822,1,8,0:0:0:0:
256,192,290903,1,0,0:0:0:0:
256,192,290984,1,8,0:0:0:0:
256,192,291065,1,0,0:0:0:0:
256,192,291146,1,8,0:0:0:0:
256,192,291308,1,12,0:0:0:0:
256,192,291470,1,0,0:0:0:0:
256,192,291551,1,0,0:0:0:0:
256,192,291632,1,8,0:0:0:0:
256,192,291713,1,0,0:0:0:0:
256,192,291795,1,8,0:0:0:0:
256,192,291957,1,12,0:0:0:0:
256,192,292119,1,8,0:0:0:0:
256,192,292200,1,0,0:0:0:0:
256,192,292281,1,8,0:0:0:0:
256,192,292362,1,0,0:0:0:0:
256,192,292443,1,8,0:0:0:0:
256,192,292605,1,8,0:0:0:0:
256,192,292686,1,8,0:0:0:0:
256,192,292768,1,0,0:0:0:0:
256,192,292849,1,8,0:0:0:0:
256,192,292930,1,8,0:0:0:0:
256,192,293011,1,0,0:0:0:0:
256,192,293092,1,8,0:0:0:0:
256,192,293173,1,8,0:0:0:0:
256,192,293254,1,0,0:0:0:0:
256,192,293335,1,0,0:0:0:0:
256,192,293416,1,8,0:0:0:0:
256,192,293497,1,0,0:0:0:0:
256,192,293578,1,8,0:0:0:0:
256,192,293659,1,8,0:0:0:0:
256,192,293741,1,0,0:0:0:0:
256,192,293822,1,0,0:0:0:0:
256,192,293903,1,8,0:0:0:0:
256,192,293984,1,0,0:0:0:0:
256,192,294065,1,8,0:0:0:0:
256,192,294146,1,0,0:0:0:0:
256,192,294227,1,8,0:0:0:0:
256,192,294308,1,0,0:0:0:0:
256,192,294389,1,8,0:0:0:0:
256,192,294470,1,0,0:0:0:0:
256,192,294551,1,8,0:0:0:0:
256,192,294632,1,8,0:0:0:0:
256,192,294713,1,0,0:0:0:0:
256,192,294795,1,0,0:0:0:0:
256,192,294876,1,8,0:0:0:0:
256,192,294957,1,0,0:0:0:0:
256,192,295038,1,8,0:0:0:0:
256,192,295524,1,12,0:0:0:0:
256,192,295686,8,0,300227,0:0:0:0:
256,192,300389,5,0,0:0:0:0:
256,192,300551,1,8,0:0:0:0:
256,192,300632,1,8,0:0:0:0:
256,192,300713,1,0,0:0:0:0:
256,192,300876,1,8,0:0:0:0:
256,192,300957,1,8,0:0:0:0:
256,192,301038,1,0,0:0:0:0:
256,192,301200,1,8,0:0:0:0:
256,192,301281,1,8,0:0:0:0:
256,192,301362,1,0,0:0:0:0:
256,192,301443,1,0,0:0:0:0:
256,192,301524,1,8,0:0:0:0:
256,192,301605,1,8,0:0:0:0:
256,192,301686,1,0,0:0:0:0:
256,192,301849,1,8,0:0:0:0:
256,192,301930,1,8,0:0:0:0:
256,192,302011,1,0,0:0:0:0:
256,192,302173,1,8,0:0:0:0:
256,192,302254,1,8,0:0:0:0:
256,192,302335,1,0,0:0:0:0:
256,192,302497,1,8,0:0:0:0:
256,192,302578,1,8,0:0:0:0:
256,192,302659,1,0,0:0:0:0:
256,192,302741,1,0,0:0:0:0:
256,192,302822,1,0,0:0:0:0:
256,192,302903,1,0,0:0:0:0:
256,192,302984,1,0,0:0:0:0:
256,192,303146,1,8,0:0:0:0:
256,192,303227,1,8,0:0:0:0:
256,192,303308,1,0,0:0:0:0:
256,192,303470,1,8,0:0:0:0:
256,192,303551,1,8,0:0:0:0:
256,192,303632,1,0,0:0:0:0:
256,192,303795,1,8,0:0:0:0:
256,192,303876,1,8,0:0:0:0:
256,192,303957,1,0,0:0:0:0:
256,192,304038,1,0,0:0:0:0:
256,192,304119,1,8,0:0:0:0:
256,192,304200,1,8,0:0:0:0:
256,192,304281,1,0,0:0:0:0:
256,192,304443,1,8,0:0:0:0:
256,192,304524,1,8,0:0:0:0:
256,192,304605,1,0,0:0:0:0:
256,192,304768,1,8,0:0:0:0:
256,192,304849,1,8,0:0:0:0:
256,192,304930,1,0,0:0:0:0:
256,192,305092,1,8,0:0:0:0:
256,192,305173,1,8,0:0:0:0:
256,192,305254,1,0,0:0:0:0:
256,192,305416,1,8,0:0:0:0:
256,192,305578,1,8,0:0:0:0:
256,192,305903,1,4,0:0:0:0:
256,192,306065,1,8,0:0:0:0:
256,192,306146,1,8,0:0:0:0:
256,192,306227,1,0,0:0:0:0:
256,192,306389,1,8,0:0:0:0:
256,192,306470,1,8,0:0:0:0:
256,192,306551,1,0,0:0:0:0:
256,192,306632,1,0,0:0:0:0:
256,192,306713,1,8,0:0:0:0:
256,192,306795,1,8,0:0:0:0:
256,192,306876,1,0,0:0:0:0:
256,192,307038,1,8,0:0:0:0:
256,192,307119,1,8,0:0:0:0:
256,192,307200,1,0,0:0:0:0:
256,192,307362,1,8,0:0:0:0:
256,192,307443,1,8,0:0:0:0:
256,192,307524,1,0,0:0:0:0:
256,192,307686,1,8,0:0:0:0:
256,192,307768,1,8,0:0:0:0:
256,192,307849,1,8,0:0:0:0:
256,192,308173,1,0,0:0:0:0:
256,192,308335,1,8,0:0:0:0:
256,192,308416,1,8,0:0:0:0:
256,192,308497,1,0,0:0:0:0:
256,192,308659,1,8,0:0:0:0:
256,192,308741,1,8,0:0:0:0:
256,192,308822,1,0,0:0:0:0:
256,192,308984,1,8,0:0:0:0:
256,192,309065,1,8,0:0:0:0:
256,192,309146,1,0,0:0:0:0:
256,192,309227,1,0,0:0:0:0:
256,192,309308,1,8,0:0:0:0:
256,192,309389,1,8,0:0:0:0:
256,192,309470,1,0,0:0:0:0:
256,192,309551,1,8,0:0:0:0:
256,192,309632,1,0,0:0:0:0:
256,192,309713,1,8,0:0:0:0:
256,192,309795,1,0,0:0:0:0:
256,192,309876,1,8,0:0:0:0:
256,192,309957,1,0,0:0:0:0:
256,192,310038,1,8,0:0:0:0:
256,192,310119,1,0,0:0:0:0:
256,192,310200,1,8,0:0:0:0:
256,192,310281,1,0,0:0:0:0:
256,192,310362,1,8,0:0:0:0:
256,192,310443,1,8,0:0:0:0:
256,192,310605,1,8,0:0:0:0:
256,192,310686,1,8,0:0:0:0:
256,192,310768,1,0,0:0:0:0:
256,192,310930,1,8,0:0:0:0:
256,192,311011,1,8,0:0:0:0:
256,192,311092,1,0,0:0:0:0:
256,192,311254,1,8,0:0:0:0:
256,192,311335,1,8,0:0:0:0:
256,192,311416,1,0,0:0:0:0:
256,192,311578,1,8,0:0:0:0:
256,192,311659,1,8,0:0:0:0:
256,192,311741,1,0,0:0:0:0:
256,192,311822,1,0,0:0:0:0:
256,192,311903,1,8,0:0:0:0:
256,192,311984,1,8,0:0:0:0:
256,192,312065,1,0,0:0:0:0:
256,192,312227,1,8,0:0:0:0:
256,192,312308,1,8,0:0:0:0:
256,192,312389,1,0,0:0:0:0:
256,192,312551,1,8,0:0:0:0:
256,192,312632,1,8,0:0:0:0:
256,192,312713,1,0,0:0:0:0:
256,192,312876,1,8,0:0:0:0:
256,192,312957,1,8,0:0:0:0:
256,192,313038,1,0,0:0:0:0:
256,192,313119,1,0,0:0:0:0:
256,192,313200,1,0,0:0:0:0:
256,192,313281,1,0,0:0:0:0:
256,192,313362,1,0,0:0:0:0:
256,192,313524,1,8,0:0:0:0:
256,192,313605,1,8,0:0:0:0:
256,192,313686,1,0,0:0:0:0:
256,192,313849,1,8,0:0:0:0:
256,192,313930,1,8,0:0:0:0:
256,192,314011,1,0,0:0:0:0:
256,192,314173,1,8,0:0:0:0:
256,192,314254,1,8,0:0:0:0:
256,192,314335,1,0,0:0:0:0:
256,192,314416,1,0,0:0:0:0:
256,192,314497,1,8,0:0:0:0:
256,192,314578,1,8,0:0:0:0:
256,192,314659,1,0,0:0:0:0:
256,192,314822,1,8,0:0:0:0:
256,192,314903,1,8,0:0:0:0:
256,192,314984,1,0,0:0:0:0:
256,192,315146,1,8,0:0:0:0:
256,192,315227,1,8,0:0:0:0:
256,192,315308,1,0,0:0:0:0:
256,192,315470,1,8,0:0:0:0:
256,192,315551,1,8,0:0:0:0:
256,192,315632,1,0,0:0:0:0:
256,192,315795,1,8,0:0:0:0:
256,192,315957,1,8,0:0:0:0:
256,192,316281,1,4,0:0:0:0:
256,192,316443,1,8,0:0:0:0:
256,192,316524,1,8,0:0:0:0:
256,192,316605,1,0,0:0:0:0:
256,192,316768,1,8,0:0:0:0:
256,192,316849,1,8,0:0:0:0:
256,192,316930,1,0,0:0:0:0:
256,192,317011,1,0,0:0:0:0:
256,192,317092,1,8,0:0:0:0:
256,192,317173,1,8,0:0:0:0:
256,192,317254,1,0,0:0:0:0:
256,192,317416,1,8,0:0:0:0:
256,192,317497,1,8,0:0:0:0:
256,192,317578,1,0,0:0:0:0:
256,192,317741,1,8,0:0:0:0:
256,192,317822,1,8,0:0:0:0:
256,192,317903,1,0,0:0:0:0:
256,192,318065,1,8,0:0:0:0:
256,192,318146,1,8,0:0:0:0:
256,192,318227,1,8,0:0:0:0:
256,192,318551,1,0,0:0:0:0:
256,192,318713,1,8,0:0:0:0:
256,192,318795,1,8,0:0:0:0:
256,192,318876,1,0,0:0:0:0:
256,192,319038,1,8,0:0:0:0:
256,192,319119,1,8,0:0:0:0:
256,192,319200,1,0,0:0:0:0:
256,192,319362,1,8,0:0:0:0:
256,192,319443,1,8,0:0:0:0:
256,192,319524,1,0,0:0:0:0:
256,192,319605,1,0,0:0:0:0:
256,192,319686,1,8,0:0:0:0:
256,192,319768,1,8,0:0:0:0:
256,192,319849,1,0,0:0:0:0:
256,192,319930,1,8,0:0:0:0:
256,192,320011,1,0,0:0:0:0:
256,192,320092,1,8,0:0:0:0:
256,192,320173,1,0,0:0:0:0:
256,192,320254,1,8,0:0:0:0:
256,192,320335,1,0,0:0:0:0:
256,192,320416,1,8,0:0:0:0:
256,192,320497,1,8,0:0:0:0:
256,192,320659,1,8,0:0:0:0:
256,192,320822,1,8,0:0:0:0:
256,192,320984,1,0,0:0:0:0:
256,192,321065,1,8,0:0:0:0:
256,192,321146,1,0,0:0:0:0:
256,192,321389,1,8,0:0:0:0:
256,192,321470,1,0,0:0:0:0:
256,192,321632,1,8,0:0:0:0:
256,192,321795,1,0,0:0:0:0:
256,192,321957,1,8,0:0:0:0:
256,192,322038,1,8,0:0:0:0:
256,192,322119,1,0,0:0:0:0:
256,192,322281,1,8,0:0:0:0:
256,192,322443,1,0,0:0:0:0:
256,192,322686,1,8,0:0:0:0:
256,192,322768,1,0,0:0:0:0:
256,192,322930,1,8,0:0:0:0:
256,192,323092,1,0,0:0:0:0:
256,192,323254,1,8,0:0:0:0:
256,192,323335,1,8,0:0:0:0:
256,192,323416,1,0,0:0:0:0:
256,192,323497,1,0,0:0:0:0:
256,192,323578,1,0,0:0:0:0:
256,192,323659,1,0,0:0:0:0:
256,192,323741,1,0,0:0:0:0:
256,192,323984,1,8,0:0:0:0:
256,192,324065,1,0,0:0:0:0:
256,192,324227,1,8,0:0:0:0:
256,192,324389,1,0,0:0:0:0:
256,192,324551,1,8,0:0:0:0:
256,192,324632,1,8,0:0:0:0:
256,192,324713,1,0,0:0:0:0:
256,192,324876,1,8,0:0:0:0:
256,192,325038,1,0,0:0:0:0:
256,192,325281,1,8,0:0:0:0:
256,192,325362,1,0,0:0:0:0:
256,192,325524,1,8,0:0:0:0:
256,192,325686,1,0,0:0:0:0:
256,192,325849,1,8,0:0:0:0:
256,192,325930,1,8,0:0:0:0:
256,192,326011,1,0,0:0:0:0:
256,192,326173,1,8,0:0:0:0:
256,192,326335,1,8,0:0:0:0:
256,192,326659,1,4,0:0:0:0:
256,192,326822,1,8,0:0:0:0:
256,192,326903,1,8,0:0:0:0:
256,192,326984,1,0,0:0:0:0:
256,192,327146,1,8,0:0:0:0:
256,192,327227,1,8,0:0:0:0:
256,192,327308,1,0,0:0:0:0:
256,192,327470,1,8,0:0:0:0:
256,192,327632,1,0,0:0:0:0:
256,192,327876,1,8,0:0:0:0:
256,192,327957,1,0,0:0:0:0:
256,192,328119,1,8,0:0:0:0:
256,192,328281,1,0,0:0:0:0:
256,192,328443,1,8,0:0:0:0:
256,192,328524,1,8,0:0:0:0:
256,192,328605,1,8,0:0:0:0:
256,192,328930,1,0,0:0:0:0:
256,192,329173,1,8,0:0:0:0:
256,192,329254,1,0,0:0:0:0:
256,192,329416,1,8,0:0:0:0:
256,192,329578,1,0,0:0:0:0:
256,192,329741,1,8,0:0:0:0:
256,192,329822,1,8,0:0:0:0:
256,192,329903,1,0,0:0:0:0:
256,192,330065,1,8,0:0:0:0:
256,192,330227,1,0,0:0:0:0:
256,192,330308,1,8,0:0:0:0:
256,192,330389,1,0,0:0:0:0:
256,192,330470,1,8,0:0:0:0:
256,192,330551,1,0,0:0:0:0:
256,192,330632,1,8,0:0:0:0:
256,192,330713,1,0,0:0:0:0:
256,192,330795,1,8,0:0:0:0:
256,192,330876,1,0,0:0:0:0:
256,192,331038,1,8,0:0:0:0:
256,192,331119,1,0,0:0:0:0:
256,192,331200,1,8,0:0:0:0:
256,192,331362,1,0,0:0:0:0:
256,192,331524,1,0,0:0:0:0:
256,192,331768,1,8,0:0:0:0:
256,192,331849,1,0,0:0:0:0:
256,192,332011,1,8,0:0:0:0:
256,192,332173,1,0,0:0:0:0:
256,192,332335,1,8,0:0:0:0:
256,192,332416,1,8,0:0:0:0:
256,192,332497,1,0,0:0:0:0:
256,192,332659,1,8,0:0:0:0:
256,192,332822,1,0,0:0:0:0:
256,192,333065,1,8,0:0:0:0:
256,192,333146,1,0,0:0:0:0:
256,192,333308,1,8,0:0:0:0:
256,192,333470,1,0,0:0:0:0:
256,192,333632,1,8,0:0:0:0:
256,192,333713,1,8,0:0:0:0:
256,192,333795,1,0,0:0:0:0:
256,192,333876,1,0,0:0:0:0:
256,192,333957,1,0,0:0:0:0:
256,192,334038,1,0,0:0:0:0:
256,192,334119,1,0,0:0:0:0:
256,192,334362,1,8,0:0:0:0:
256,192,334443,1,0,0:0:0:0:
256,192,334605,1,8,0:0:0:0:
256,192,334768,1,0,0:0:0:0:
256,192,334930,1,8,0:0:0:0:
256,192,335011,1,8,0:0:0:0:
256,192,335092,1,0,0:0:0:0:
256,192,335254,1,8,0:0:0:0:
256,192,335416,1,0,0:0:0:0:
256,192,335659,1,8,0:0:0:0:
256,192,335741,1,0,0:0:0:0:
256,192,335903,1,8,0:0:0:0:
256,192,336065,1,0,0:0:0:0:
256,192,336227,1,8,0:0:0:0:
256,192,336308,1,8,0:0:0:0:
256,192,336389,1,0,0:0:0:0:
256,192,336551,1,8,0:0:0:0:
256,192,336713,1,8,0:0:0:0:
256,192,337038,1,4,0:0:0:0:
256,192,337200,1,8,0:0:0:0:
256,192,337281,1,8,0:0:0:0:
256,192,337362,1,0,0:0:0:0:
256,192,337524,1,8,0:0:0:0:
256,192,337605,1,8,0:0:0:0:
256,192,337686,1,0,0:0:0:0:
256,192,337849,1,8,0:0:0:0:
256,192,338011,1,0,0:0:0:0:
256,192,338254,1,8,0:0:0:0:
256,192,338335,1,0,0:0:0:0:
256,192,338497,1,8,0:0:0:0:
256,192,338659,1,0,0:0:0:0:
256,192,338822,1,8,0:0:0:0:
256,192,338903,1,8,0:0:0:0:
256,192,338984,1,8,0:0:0:0:
256,192,339308,1,0,0:0:0:0:
256,192,339551,1,8,0:0:0:0:
256,192,339632,1,0,0:0:0:0:
256,192,339795,1,8,0:0:0:0:
256,192,339957,1,0,0:0:0:0:
256,192,340119,1,8,0:0:0:0:
256,192,340200,1,8,0:0:0:0:
256,192,340281,1,0,0:0:0:0:
256,192,340443,1,8,0:0:0:0:
256,192,340605,8,0,343038,0:0:0:0:
256,192,343200,5,12,0:0:0:0:
