osu file format v14

[General]
AudioFilename: BLACK or WHITE.mp3
AudioLeadIn: 2000
PreviewTime: 52927
Countdown: 0
SampleSet: Normal
StackLeniency: 0.6
Mode: 0
LetterboxInBreaks: 0
WidescreenStoryboard: 0

[Editor]
Bookmarks: 2495
DistanceSpacing: 0.4
BeatDivisor: 4
GridSize: 4
TimelineZoom: 1

[Metadata]
Title:BLACK or WHITE?
TitleUnicode:BLACK or WHITE?
Artist:BlackYooh vs. siromaru
ArtistUnicode:BlackYooh vs. siromaru
Creator:Frobe
Version:GRAVITY
Source:SOUND VOLTEX II -infinite infection-
Tags:SDVX BlackY KAC 2013 yooh symphonic schranz
BeatmapID:1559735
BeatmapSetID:739113

[Difficulty]
HPDrainRate:7
CircleSize:4
OverallDifficulty:8
ApproachRate:9.4
SliderMultiplier:1.8
SliderTickRate:1

[Events]
//Background and Video events
0,0,"bg.jpg",0,0
//Break Periods
2,79397,83847
//Storyboard Layer 0 (Background)
//Storyboard Layer 1 (Fail)
//Storyboard Layer 2 (Pass)
//Storyboard Layer 3 (Foreground)
//Storyboard Sound Samples

[TimingPoints]
1360,324.324324324324,4,2,1,60,1,0
9143,-66.6666666666667,4,2,1,70,0,0
10278,-200,4,2,1,70,0,0
10603,-200,4,2,1,5,0,0
10765,-100,4,2,1,80,0,0
11414,-66.6666666666667,4,1,0,40,0,0
11657,-66.6666666666667,4,2,1,70,0,0
11738,-100,4,1,1,60,0,0
16927,-66.6666666666667,4,2,2,60,0,0
17251,-100,4,1,1,60,0,0
21792,-133.333333333333,4,1,1,60,0,0
22116,-66.6666666666667,4,1,1,60,0,0
23332,-66.6666666666667,4,3,12,90,0,0
24062,-90.0900900900901,4,3,12,70,0,0
24711,-66.6666666666667,4,1,1,60,0,0
27305,-100,4,1,13,60,0,0
32495,-200,4,1,0,60,0,0
32576,-200,4,2,2,30,0,0
37927,-200,4,2,2,20,0,0
38089,-200,4,2,2,30,0,0
38251,-200,4,2,2,25,0,0
38414,-200,4,2,2,30,0,0
40522,-200,4,2,2,20,0,0
40684,-200,4,2,2,30,0,0
41495,-200,4,2,2,40,0,0
42143,-200,4,2,2,50,0,0
42873,-100,4,1,13,60,0,0
52927,-66.6666666666667,4,1,0,60,0,0
53251,-100,4,1,1,80,0,1
57143,-66.6666666666667,4,1,1,80,0,1
58441,-100,4,1,1,80,0,1
61116,-100,4,2,0,20,0,1
61197,-100,4,1,1,80,0,1
62332,-133.333333333333,4,1,1,80,0,1
62657,-100,4,1,1,80,0,1
62981,-66.6666666666667,4,1,1,80,0,1
63630,-100,4,1,1,80,0,1
66224,-66.6666666666667,4,2,1,60,0,1
66549,-66.6666666666667,4,1,1,80,0,1
67197,-100,4,1,1,80,0,1
67359,-100,4,2,0,5,0,1
67522,-66.6666666666667,4,1,1,80,0,1
67765,-55.5555555555556,4,1,1,80,0,1
68008,-50,4,1,1,80,0,1
68495,-100,4,1,1,80,0,1
69143,-83.3333333333333,4,1,1,80,0,1
69792,-71.4285714285714,4,1,1,80,0,1
70441,-62.5,4,1,1,80,0,1
73359,-100,4,1,1,80,0,1
74008,-100,4,1,0,60,0,0
74170,-100,4,2,0,20,0,0
75305,-100,4,2,0,15,0,0
76603,-100,4,2,0,10,0,0
77900,-100,4,2,0,5,0,0
84387,-66.6666666666667,4,1,1,60,0,0
84711,-100,4,1,1,60,0,0
85035,-66.6666666666667,4,1,1,60,0,0
85359,-100,4,1,1,60,0,0
85684,-166.666666666667,4,1,1,60,0,0
85927,-166.666666666667,4,2,0,5,0,0
86008,-166.666666666667,4,1,1,60,0,0
86251,-166.666666666667,4,2,0,5,0,0
86332,-166.666666666667,4,1,1,60,0,0
86576,-166.666666666667,4,2,0,5,0,0
86657,-166.666666666667,4,1,1,60,0,0
86900,-166.666666666667,4,2,0,5,0,0
86981,-66.6666666666667,4,1,1,60,0,0
87305,-100,4,1,1,60,0,0
87630,-66.6666666666667,4,1,1,60,0,0
87954,-100,4,1,1,60,0,0
88278,-100,4,1,17,40,0,0
88522,-100,4,1,17,50,0,0
88684,-100,4,1,17,55,0,0
88846,-100,4,1,17,60,0,0
89576,-66.6666666666667,4,1,1,70,0,1
89900,-100,4,1,1,70,0,1
90224,-66.6666666666667,4,1,1,70,0,1
90549,-100,4,1,1,70,0,1
90873,-66.6666666666667,4,1,1,70,0,1
91197,-100,4,1,1,70,0,1
91522,-66.6666666666667,4,1,1,70,0,1
91846,-100,4,1,1,70,0,1
92170,-66.6666666666667,4,1,1,70,0,1
92495,-100,4,1,1,70,0,1
92819,-66.6666666666667,4,1,1,70,0,1
93468,-100,4,1,1,60,0,0
94765,-200,4,1,1,60,0,0
95089,-100,4,1,1,80,0,1
98657,-100,4,1,17,50,0,1
98981,-100,4,1,17,60,0,1
99305,-100,4,1,17,70,0,1
99630,-100,4,1,17,80,0,1
99954,-200,4,1,1,80,0,1
100278,-100,4,1,1,80,0,1
100359,-100,4,2,0,20,0,1
100441,-100,4,1,1,80,0,1
114224,-100,4,1,17,70,0,1
115197,-100,4,1,17,80,0,1
115522,-100,4,1,17,80,0,0
115846,-100,4,1,0,80,0,1
115927,-100,4,2,1,25,0,0
118116,-100,4,2,1,20,0,0
118765,-100,4,2,1,15,0,0
119414,-100,4,2,1,10,0,0
120062,-100,4,2,1,5,0,0

[Colours]
Combo1 : 65,65,65
Combo2 : 136,138,136
Combo3 : 239,239,239

[HitObjects]
96,56,1360,5,2,0:0:0:0:
120,44,1441,1,0,0:0:0:0:
148,44,1522,1,0,0:0:0:0:
172,56,1603,1,0,0:0:0:0:
192,76,1684,1,0,0:0:0:0:
200,100,1765,1,0,0:0:0:0:
196,128,1846,1,0,0:0:0:0:
180,152,1927,1,0,0:0:0:0:
156,164,2008,6,0,L|108:160,3,45
16,260,2332,2,0,L|64:256,3,45
88,252,2657,5,2,0:0:0:0:
116,248,2738,1,0,0:0:0:0:
144,244,2819,1,0,0:0:0:0:
172,240,2900,1,0,0:0:0:0:
208,272,2981,5,0,0:0:0:0:
236,268,3062,1,0,0:0:0:0:
264,264,3143,1,0,0:0:0:0:
292,260,3224,1,0,0:0:0:0:
328,292,3305,6,0,L|376:288,3,45
388,264,3630,2,0,L|436:268,3,45,0|0|0|0,0:0|0:0|0:0|0:0,0:0:0:0:
480,192,3954,5,2,0:0:0:0:
452,196,4035,1,0,0:0:0:0:
428,188,4116,1,0,0:0:0:0:
404,172,4197,1,0,0:0:0:0:
388,148,4278,2,0,L|376:104,3,45
312,36,4603,5,0,0:0:0:0:
284,32,4684,1,0,0:0:0:0:
260,40,4765,1,0,0:0:0:0:
236,56,4846,1,0,0:0:0:0:
220,80,4927,2,0,L|208:124,3,45
240,208,5251,5,2,0:0:0:0:
244,236,5332,1,0,0:0:0:0:
236,264,5414,1,0,0:0:0:0:
220,288,5495,1,0,0:0:0:0:
196,300,5576,1,0,0:0:0:0:
168,300,5657,1,0,0:0:0:0:
144,288,5738,1,0,0:0:0:0:
128,268,5819,1,0,0:0:0:0:
124,240,5900,5,0,0:0:0:0:
136,216,5981,1,0,0:0:0:0:
140,188,6062,1,0,0:0:0:0:
132,164,6143,1,0,0:0:0:0:
116,144,6224,1,0,0:0:0:0:
92,128,6305,1,0,0:0:0:0:
64,124,6387,1,0,0:0:0:0:
36,128,6468,1,0,0:0:0:0:
16,148,6549,6,0,L|12:192,3,45,2|0|0|0,0:0|0:0|0:0|0:0,0:0:0:0:
76,256,6873,2,0,L|72:300,3,45,0|0|0|0,0:0|0:0|0:0|0:0,0:0:0:0:
144,356,7197,5,0,0:0:0:0:
172,364,7278,1,0,0:0:0:0:
200,364,7359,1,0,0:0:0:0:
228,356,7441,1,0,0:0:0:0:
248,340,7522,1,0,0:0:0:0:
264,316,7603,1,0,0:0:0:0:
272,288,7684,1,0,0:0:0:0:
268,260,7765,1,0,0:0:0:0:
256,236,7846,6,0,L|264:184,3,45,2|0|0|0,0:0|0:0|0:0|0:0,0:0:0:0:
176,248,8170,2,0,L|184:196,3,45,0|0|0|0,0:0|0:0|0:0|0:0,0:0:0:0:
96,256,8495,6,0,L|104:204,3,45
16,268,8819,2,0,L|24:216,3,45,0|0|0|0,0:0|0:0|0:0|0:0,0:0:0:0:
28,180,9143,6,0,L|12:108,1,67.5000025749208,8|0,1:0|0:0,0:0:0:0:
132,40,9305,2,0,L|116:112,1,67.5000025749208,8|0,1:0|0:0,0:0:0:0:
240,204,9467,2,0,L|224:132,1,67.5000025749208,8|0,1:0|0:0,0:0:0:0:
344,16,9629,2,0,L|328:88,1,67.5000025749208,8|0,1:0|0:0,0:0:0:0:
391,234,9792,6,0,P|421:236|457:212,1,67.5000025749208,8|0,1:0|0:0,0:0:0:0:
301,190,9954,2,0,P|287:163|248:143,1,67.5000025749208,8|0,1:0|0:0,0:0:0:0:
311,294,10116,2,0,P|294:318|297:362,1,67.5000025749208,8|0,1:0|0:0,0:0:0:0:
166,367,10278,6,0,P|121:358|72:359,1,90,8|0,1:0|0:0,0:0:0:0:
72,108,10765,6,0,L|80:52,7,45
104,44,11414,6,0,B|136:32|136:32|112:116|224:160|248:112,1,202.500007724762,8|0,0:0|0:0,0:0:0:0:
296,72,11738,5,4,0:0:0:0:
400,248,11900,1,0,0:0:0:0:
408,220,11981,1,0,0:0:0:0:
400,196,12062,1,8,0:0:0:0:
288,284,12224,1,0,0:0:0:0:
448,336,12387,5,0,0:0:0:0:
288,285,12549,2,0,L|228:284,1,45
96,276,12711,1,8,0:0:0:0:
176,184,12873,1,0,0:0:0:0:
164,372,13035,5,0,0:0:0:0:
176,184,13197,2,0,L|172:120,1,45
168,44,13359,1,8,0:0:0:0:
276,196,13522,6,0,L|272:132,1,45
268,56,13684,1,0,0:0:0:0:
376,208,13846,6,0,L|372:144,1,45
368,68,14008,1,0,0:0:0:0:
382,45,14089,1,0,0:0:0:0:
407,37,14170,1,0,0:0:0:0:
431,49,14251,1,0,0:0:0:0:
443,73,14332,1,0,0:0:0:0:
470,233,14495,5,0,0:0:0:0:
469,237,14576,1,0,0:0:0:0:
468,241,14657,1,8,0:0:0:0:
510,150,14819,1,0,0:0:0:0:
321,191,14981,1,0,0:0:0:0:
293,33,15143,5,0,0:0:0:0:
292,27,15224,1,0,0:0:0:0:
291,21,15305,1,8,0:0:0:0:
157,58,15468,1,0,0:0:0:0:
252,156,15629,1,0,0:0:0:0:
120,242,15792,5,0,0:0:0:0:
119,250,15873,1,0,0:0:0:0:
119,258,15954,1,8,0:0:0:0:
10,142,16115,1,0,0:0:0:0:
157,58,16278,6,0,L|209:62,1,45
193,82,16441,2,0,L|245:78,1,45
310,26,16603,6,0,L|362:30,1,45
438,62,16765,1,0,0:0:0:0:
428,200,16927,6,0,B|432:212|432:212|420:224|420:224|432:240|432:240|420:248|420:248|424:268|424:268|388:308|400:364|444:372|488:368|496:332|492:288,1,270.000010299683
332,264,17414,5,0,0:0:0:0:
356,256,17495,1,0,0:0:0:0:
380,248,17576,1,8,0:0:0:0:
180,264,17738,5,0,0:0:0:0:
156,256,17819,1,0,0:0:0:0:
132,248,17900,1,8,0:0:0:0:
380,336,18062,5,0,0:0:0:0:
408,340,18143,1,0,0:0:0:0:
436,344,18224,1,8,0:0:0:0:
132,336,18387,5,0,0:0:0:0:
104,340,18468,1,0,0:0:0:0:
76,344,18549,1,8,0:0:0:0:
24,200,18711,5,0,0:0:0:0:
52,204,18792,1,0,0:0:0:0:
80,208,18873,1,8,0:0:0:0:
268,68,19035,6,0,L|224:72,1,45
148,92,19197,1,0,0:0:0:0:
144,108,19278,1,0,0:0:0:0:
156,148,19359,5,0,0:0:0:0:
152,164,19440,1,0,0:0:0:0:
164,204,19522,5,0,0:0:0:0:
348,204,19684,6,0,P|352:172|344:144,1,45
328,80,19846,1,8,0:0:0:0:
164,204,20008,6,0,P|160:172|168:144,1,45
184,80,20170,1,8,0:0:0:0:
380,308,20332,6,0,P|401:284|411:256,1,45
424,196,20495,1,8,0:0:0:0:
132,308,20657,6,0,P|110:284|100:256,1,45
98,143,20819,6,0,L|96:188,1,45,0|0,0:0|2:0,0:0:0:0:
216,260,20981,2,0,L|218:215,1,45,0|0,0:0|2:0,0:0:0:0:
348,144,21143,6,0,L|345:188,1,45,0|0,0:0|2:0,0:0:0:0:
465,260,21305,2,0,L|467:215,1,45,0|0,0:0|2:0,0:0:0:0:
474,92,21468,5,0,0:0:0:0:
481,70,21549,1,0,0:0:0:0:
477,47,21630,1,0,0:0:0:0:
462,30,21711,1,0,0:0:0:0:
440,22,21792,6,0,P|402:15|368:35,1,67.5000025749208
348,144,22116,5,0,0:0:0:0:
456,264,22278,2,0,B|460:287|460:287|445:364,1,67.5000025749208
344,352,22441,2,0,P|304:284|320:212,1,135.000005149842,4|0,0:0|0:0,0:0:0:0:
256,104,22765,5,0,0:0:0:0:
56,264,22927,2,0,B|52:287|52:287|67:364,1,67.5000025749208
168,352,23090,2,0,P|208:284|192:212,1,135.000005149842,4|0,0:0|0:0,0:0:0:0:
46,68,23414,6,0,B|57:151|57:151|41:172|41:172|56:264,2,202.500007724762
152,288,24062,6,0,B|137:196|137:196|153:175|153:175|140:80,1,199.80000487793,0|0,0:0|0:0,0:0:0:0:
142,95,24549,1,0,0:0:0:0:
46,68,24711,5,0,0:0:0:0:
244,120,24873,2,0,P|281:126|310:112,1,67.5000025749208
460,32,25035,2,0,B|438:18|438:18|330:34,1,135.000005149842,4|0,0:0|0:0,0:0:0:0:
46,316,25359,5,0,0:0:0:0:
244,264,25522,2,0,P|281:258|310:272,1,67.5000025749208
460,352,25684,2,0,B|438:366|438:366|330:350,1,135.000005149842,4|0,0:0|0:0,0:0:0:0:
110,372,26008,5,0,0:0:0:0:
252,336,26170,2,0,P|232:314|228:271,1,67.5000025749208,8|8,0:0|0:0,0:0:0:0:
234,205,26332,1,8,0:0:0:0:
372,87,26495,1,0,0:0:0:0:
460,352,26657,6,0,B|426:345|426:345|408:345|408:345|362:337,1,90.0000034332277
49,283,26873,2,0,P|92:265|134:271,1,90.0000034332277
406,159,27089,2,0,P|358:166|321:147,1,90.0000034332277
200,68,27305,6,0,B|157:53|157:53|117:73,1,90
312,316,27630,2,0,B|354:330|354:330|394:310,1,90,8|0,0:0|0:0,0:0:0:0:
62,211,27954,2,0,L|152:204,1,90
449,172,28278,2,0,L|360:180,1,90,8|0,0:0|0:0,0:0:0:0:
376,260,28603,6,0,B|437:269|437:269|408:252,1,90
136,124,28927,2,0,B|74:114|74:114|104:132,1,90,8|0,0:0|0:0,0:0:0:0:
332,150,29251,2,0,B|360:156|390:150|402:130|402:130|385:124,1,90
180,234,29576,2,0,B|152:228|122:234|110:254|110:254|127:260,1,90,8|0,0:0|0:0,0:0:0:0:
288,328,29900,5,0,0:0:0:0:
465,276,30062,1,0,0:0:0:0:
332,150,30224,1,8,0:0:0:0:
361,252,30387,1,0,0:0:0:0:
224,56,30549,5,0,0:0:0:0:
47,108,30711,1,0,0:0:0:0:
180,234,30873,1,8,0:0:0:0:
151,132,31036,1,0,0:0:0:0:
361,52,31197,5,0,0:0:0:0:
348,64,31278,1,0,0:0:0:0:
330,66,31359,1,0,0:0:0:0:
313,57,31441,1,0,0:0:0:0:
261,24,31522,5,8,0:0:0:0:
244,15,31604,1,0,0:0:0:0:
226,17,31685,1,0,0:0:0:0:
213,29,31766,1,0,0:0:0:0:
180,80,31846,6,0,L|184:144,1,45
332,132,32008,2,0,L|328:196,1,45,0|0,0:0|0:0,0:0:0:0:
124,220,32170,6,0,L|138:262,1,45,8|0,0:0|0:0,0:0:0:0:
388,260,32332,2,0,L|373:302,1,45,0|0,0:0|0:0,0:0:0:0:
256,360,32495,5,4,0:0:0:0:
256,360,33143,1,2,0:0:0:0:
300,152,33468,1,2,0:0:0:0:
216,184,33792,6,0,B|132:216|132:216|176:136,1,180,0|2,0:0|0:0,0:0:0:0:
256,24,34765,1,2,0:0:0:0:
336,137,35089,6,0,B|380:216|380:216|296:184,1,180,0|2,0:0|0:0,0:0:0:0:
156,40,36062,1,2,0:0:0:0:
356,40,36387,5,0,0:0:0:0:
256,312,36711,2,0,L|256:364,2,45,2|0|2,0:0|0:0|0:0,0:0:0:0:
156,40,37359,1,2,0:0:0:0:
416,240,37684,5,0,0:0:0:0:
444,152,37846,1,0,0:0:0:0:
420,228,38008,1,2,0:0:0:0:
396,140,38170,1,0,0:0:0:0:
372,52,38332,6,0,L|327:47,1,45,2|0,0:0|0:0,0:0:0:0:
244,100,38657,2,0,L|199:105,1,45,2|0,0:0|0:0,0:0:0:0:
116,72,38981,5,0,0:0:0:0:
380,312,39305,2,0,L|335:307,1,45,2|0,0:0|0:0,0:0:0:0:
256,328,39630,1,2,0:0:0:0:
460,288,39954,1,2,0:0:0:0:
52,288,40278,5,0,0:0:0:0:
236,72,40603,2,0,L|191:77,1,45,2|0,0:0|0:0,0:0:0:0:
74,182,40927,6,0,P|114:201|158:194,1,90,2|2,0:0|0:0,0:0:0:0:
172,172,41414,1,0,0:0:0:0:
184,144,41576,6,0,L|180:100,1,45
36,160,41900,2,0,L|32:204,1,45,2|0,0:0|0:0,0:0:0:0:
240,264,42224,2,0,L|236:220,1,45,2|0,0:0|0:0,0:0:0:0:
20,300,42549,2,0,L|16:344,1,45,2|0,0:0|0:0,0:0:0:0:
162,375,42873,6,0,P|207:380|266:358,1,90
257,351,43116,1,0,0:0:0:0:
256,333,43197,1,8,0:0:0:0:
324,151,43359,2,0,L|339:108,1,45
320,164,43522,5,0,0:0:0:0:
318,177,43603,1,0,0:0:0:0:
319,190,43684,1,0,0:0:0:0:
324,202,43765,1,0,0:0:0:0:
333,211,43846,1,8,0:0:0:0:
344,218,43927,1,0,0:0:0:0:
357,219,44008,1,0,0:0:0:0:
370,216,44089,1,0,0:0:0:0:
381,209,44170,6,0,L|368:152,1,45
316,84,44332,2,0,L|303:27,1,45
206,40,44495,2,0,L|196:84,1,45,8|0,0:0|0:0,0:0:0:0:
141,165,44657,2,0,L|131:209,1,45
76,288,44819,6,0,L|65:331,3,45
76,96,45143,2,0,L|65:52,3,45,8|0|0|0,0:0|0:0|0:0|0:0,0:0:0:0:
161,262,45468,6,0,P|216:264|262:295,1,90
255,295,45711,1,0,0:0:0:0:
254,312,45792,1,8,0:0:0:0:
307,123,45954,2,0,L|263:127,1,45
320,128,46116,5,0,0:0:0:0:
329,137,46197,1,0,0:0:0:0:
338,147,46278,1,0,0:0:0:0:
345,158,46359,1,0,0:0:0:0:
350,170,46441,1,8,0:0:0:0:
353,182,46522,1,0,0:0:0:0:
354,195,46603,1,0,0:0:0:0:
352,208,46684,1,0,0:0:0:0:
350,216,46765,6,0,L|302:220,1,45
224,312,46927,2,0,L|179:308,1,45
80,252,47089,5,8,0:0:0:0:
67,251,47170,1,0,0:0:0:0:
54,250,47251,1,0,0:0:0:0:
41,249,47332,1,0,0:0:0:0:
28,248,47414,6,0,L|17:204,3,45
104,116,47738,2,0,L|116:64,3,45,8|0|0|0,0:0|0:0|0:0|0:0,0:0:0:0:
24,24,48062,5,0,0:0:0:0:
28,60,48143,1,0,0:0:0:0:
32,96,48224,1,0,0:0:0:0:
36,132,48305,1,0,0:0:0:0:
116,160,48387,5,8,0:0:0:0:
112,196,48468,1,0,0:0:0:0:
108,232,48549,1,0,0:0:0:0:
104,268,48630,1,0,0:0:0:0:
40,340,48711,5,0,0:0:0:0:
68,344,48792,1,0,0:0:0:0:
96,348,48873,1,0,0:0:0:0:
124,352,48954,1,0,0:0:0:0:
152,356,49035,6,0,L|216:348,1,45,8|0,0:0|0:0,0:0:0:0:
360,356,49197,2,0,L|296:348,1,45
248,280,49359,5,0,0:0:0:0:
232,256,49441,1,0,0:0:0:0:
224,228,49522,1,0,0:0:0:0:
228,200,49603,1,0,0:0:0:0:
240,176,49684,1,8,0:0:0:0:
260,156,49765,1,0,0:0:0:0:
284,144,49846,1,0,0:0:0:0:
312,140,49927,1,0,0:0:0:0:
336,148,50008,6,0,L|380:153,3,45
212,80,50332,2,0,L|167:74,3,45,8|0|0|0,0:0|0:0|0:0|0:0,0:0:0:0:
32,104,50657,5,0,0:0:0:0:
12,136,50738,1,0,0:0:0:0:
8,172,50819,1,0,0:0:0:0:
24,204,50900,1,0,0:0:0:0:
52,224,50981,5,8,0:0:0:0:
44,248,51062,1,0,0:0:0:0:
12,292,51143,5,0,0:0:0:0:
20,316,51224,1,0,0:0:0:0:
68,344,51305,5,0,0:0:0:0:
92,316,51387,1,0,0:0:0:0:
128,304,51468,1,0,0:0:0:0:
164,308,51549,1,0,0:0:0:0:
208,352,51630,5,8,0:0:0:0:
244,356,51711,1,0,0:0:0:0:
280,344,51792,1,0,0:0:0:0:
304,316,51874,1,0,0:0:0:0:
292,264,51954,5,0,0:0:0:0:
152,188,52116,1,0,0:0:0:0:
136,380,52278,1,0,0:0:0:0:
156,176,52441,6,0,L|152:132,1,45
112,52,52603,1,0,0:0:0:0:
128,264,52765,1,0,0:0:0:0:
6,191,52927,6,0,P|137:158|271:167,1,270.000010299683,8|4,0:0|0:0,0:0:0:0:
456,228,53414,5,0,0:0:0:0:
444,252,53495,1,0,0:0:0:0:
432,276,53576,1,0,0:0:0:0:
472,356,53738,1,0,0:0:0:0:
416,148,53900,5,8,0:0:0:0:
388,356,54062,1,8,0:0:0:0:
340,192,54224,1,8,0:0:0:0:
304,356,54387,1,8,0:0:0:0:
260,232,54549,1,8,0:0:0:0:
177,357,54711,6,0,P|164:332|165:293,1,45
172,232,54873,1,8,0:0:0:0:
106,94,55035,6,0,P|134:95|167:115,1,45
217,153,55197,1,8,0:0:0:0:
366,165,55359,6,0,P|350:188|316:207,1,45
260,232,55521,1,8,0:0:0:0:
149,101,55684,1,0,0:0:0:0:
317,71,55846,1,8,0:0:0:0:
272,263,56008,6,0,P|250:256|231:243,1,45
118,97,56170,2,0,P|134:81|154:71,1,45
329,45,56332,2,0,P|333:66|332:89,1,45
303,173,56495,5,8,0:0:0:0:
194,92,56657,1,8,0:0:0:0:
243,340,56819,1,8,0:0:0:0:
205,58,56981,1,8,0:0:0:0:
76,145,57143,6,0,B|90:225|90:225|74:264|74:264|92:363,1,202.500007724762,8|0,0:0|0:0,0:0:0:0:
326,366,57468,2,0,P|385:291|332:200,1,202.500007724762,8|0,0:0|0:0,0:0:0:0:
470,315,57792,2,0,B|432:330|397:293|397:293|363:301|363:301|334:270|284:279,1,202.500007724762,8|0,0:0|0:0,0:0:0:0:
261,189,58116,2,0,B|236:187|203:206|190:238|190:238|119:251|96:181,1,202.500007724762,8|0,0:0|0:0,0:0:0:0:
74,106,58441,5,12,0:0:0:0:
199,12,58603,1,0,0:0:0:0:
216,14,58684,1,0,0:0:0:0:
230,24,58765,1,0,0:0:0:0:
261,189,58927,1,0,0:0:0:0:
181,116,59089,5,8,0:0:0:0:
429,154,59251,1,8,0:0:0:0:
205,270,59414,1,8,0:0:0:0:
319,45,59576,1,8,0:0:0:0:
359,293,59738,1,8,0:0:0:0:
144,224,59900,6,0,P|136:204|136:160,1,45
144,96,60062,1,8,0:0:0:0:
368,276,60224,6,0,P|376:256|376:212,1,45
368,148,60386,1,8,0:0:0:0:
112,316,60549,6,0,P|92:307|61:276,1,45
21,225,60711,1,8,0:0:0:0:
144,96,60873,1,0,0:0:0:0:
216,304,61035,6,0,L|221:360,1,45,8|0,0:0|0:0,0:0:0:0:
360,216,61197,2,0,P|380:212|408:228,1,45
152,168,61359,2,0,P|131:171|103:155,1,45
298,6,61522,2,0,L|293:62,1,45
286,128,61684,5,8,0:0:0:0:
271,290,61846,1,8,0:0:0:0:
433,305,62008,1,8,0:0:0:0:
448,143,62170,1,8,0:0:0:0:
271,290,62332,6,0,P|219:299|174:274,1,101.250003862381,8|0,0:0|0:0,0:0:0:0:
0,140,62657,6,0,P|52:104|121:122,1,135,8|0,0:0|0:0,0:0:0:0:
235,211,62981,6,0,B|291:209|291:209|332:222|332:222|398:217|398:217|329:186,1,202.500007724762,8|0,0:0|0:0,0:0:0:0:
174,44,63305,6,0,P|125:129|155:222,1,202.500007724762,8|0,0:0|0:0,0:0:0:0:
203,285,63630,5,12,0:0:0:0:
333,148,63792,1,0,0:0:0:0:
336,125,63873,1,0,0:0:0:0:
326,104,63954,1,0,0:0:0:0:
146,182,64116,1,0,0:0:0:0:
318,264,64278,5,8,0:0:0:0:
227,97,64441,1,8,0:0:0:0:
203,285,64603,1,8,0:0:0:0:
333,148,64765,1,8,0:0:0:0:
146,182,64927,1,8,0:0:0:0:
340,324,65089,5,0,0:0:0:0:
356,312,65170,1,0,0:0:0:0:
372,300,65251,2,0,L|268:312,1,90,8|0,0:0|0:0,0:0:0:0:
168,288,65495,5,0,0:0:0:0:
152,276,65576,2,0,L|256:288,1,90,8|0,0:0|0:0,0:0:0:0:
420,228,65819,5,0,0:0:0:0:
436,240,65900,2,0,L|332:228,1,90,8|0,0:0|0:0,0:0:0:0:
468,228,66224,6,0,B|456:220|456:220|440:224|440:224|424:216|424:216|408:220|408:220|392:212|392:212|340:236|276:196|292:116|364:108,1,270.000010299683,0|8,0:0|0:0,0:0:0:0:
352,111,66711,1,8,0:0:0:0:
358,113,66873,1,8,0:0:0:0:
363,117,67035,1,8,0:0:0:0:
367,122,67197,6,0,B|341:128|341:128|329:136|329:136|317:132|317:132|305:140|305:140|273:148,1,90,8|0,0:0|0:0,0:0:0:0:
67,270,67522,6,0,P|16:230|8:160,1,135.000005149842,8|0,0:0|0:0,0:0:0:0:
185,33,67765,6,0,P|239:79|218:179,1,161.999995056153,8|0,0:0|0:0,0:0:0:0:
67,270,68008,6,0,P|7:202|59:102,1,180,8|0,0:0|0:0,0:0:0:0:
185,33,68251,6,0,B|205:40|227:30|227:30|236:89|286:104|343:86,1,180,8|0,0:0|0:0,0:0:0:0:
398,67,68495,5,0,0:0:0:0:
411,67,68576,1,0,0:0:0:0:
423,71,68657,1,0,0:0:0:0:
430,82,68738,1,0,0:0:0:0:
432,95,68819,2,0,L|344:80,1,90,12|0,0:0|0:0,0:0:0:0:
84,53,69143,5,0,0:0:0:0:
56,73,69224,1,0,0:0:0:0:
48,109,69305,1,0,0:0:0:0:
64,141,69387,1,0,0:0:0:0:
92,161,69468,2,0,L|207:143,1,107.999996704102,12|0,0:0|0:0,0:0:0:0:
432,95,69792,5,0,0:0:0:0:
468,119,69873,1,0,0:0:0:0:
480,159,69954,1,0,0:0:0:0:
468,199,70035,1,0,0:0:0:0:
436,227,70116,2,0,L|302:203,1,125.999996154785,12|0,0:0|0:0,0:0:0:0:
92,124,70441,5,0,0:0:0:0:
48,148,70522,1,0,0:0:0:0:
28,192,70603,1,0,0:0:0:0:
40,240,70684,1,0,0:0:0:0:
76,276,70765,2,0,L|222:253,1,144,12|0,0:0|0:0,0:0:0:0:
416,180,71090,5,0,0:0:0:0:
460,216,71170,1,0,0:0:0:0:
472,272,71251,1,0,0:0:0:0:
440,320,71332,1,0,0:0:0:0:
384,332,71414,2,0,L|342:319,4,36,8|0|0|0|0,0:0|0:0|0:0|0:0|0:0,0:0:0:0:
128,332,71738,2,0,L|170:319,4,36,8|0|0|0|8,0:0|0:0|0:0|0:0|0:0,0:0:0:0:
64,276,72062,5,8,0:0:0:0:
256,356,72224,1,8,0:0:0:0:
180,167,72387,1,0,0:0:0:0:
196,200,72468,1,0,0:0:0:0:
188,236,72549,1,0,0:0:0:0:
180,272,72630,1,0,0:0:0:0:
172,308,72711,6,0,P|96:256|120:134,1,216,8|0,0:0|0:0,0:0:0:0:
402,143,73035,2,0,P|421:244|340:308,1,216,8|0,0:0|0:0,0:0:0:0:
172,308,73359,6,0,L|128:320,1,45,8|0,0:0|0:0,0:0:0:0:
340,308,73522,2,0,L|383:320,1,45,8|0,0:0|0:0,0:0:0:0:
110,144,73684,2,0,L|66:139,1,45,8|0,0:0|0:0,0:0:0:0:
402,144,73846,2,0,L|446:139,1,45,8|0,0:0|0:0,0:0:0:0:
256,18,74008,5,4,0:0:0:0:
256,192,74170,12,0,79197,0:0:0:0:
114,36,84387,6,0,P|126:67|121:100,1,67.5000025749208
65,186,84549,2,0,P|59:218|71:249,1,67.5000025749208
152,308,84711,6,0,P|212:260|204:180,1,135,4|0,0:0|0:0,0:0:0:0:
397,36,85035,6,0,P|385:67|391:100,1,67.5000025749208
447,186,85197,2,0,P|452:218|440:249,1,67.5000025749208
360,308,85359,6,0,P|300:260|308:180,1,135,4|0,0:0|0:0,0:0:0:0:
213,62,85684,6,0,P|174:41|132:51,1,80.9999975280763,8|0,0:0|0:0,0:0:0:0:
51,47,86008,6,0,P|90:68|132:58,1,80.9999975280763,8|0,0:0|0:0,0:0:0:0:
213,62,86332,6,0,P|170:74|147:111,1,80.9999975280763,8|0,0:0|0:0,0:0:0:0:
87,165,86656,6,0,P|129:152|152:115,1,80.9999975280763,8|0,0:0|0:0,0:0:0:0:
289,79,86981,6,0,B|305:74|305:74|369:86,1,67.5000025749208
418,140,87143,2,0,B|468:149|468:149|484:144,1,67.5000025749208
497,132,87305,6,0,L|365:108,1,135,4|0,0:0|0:0,0:0:0:0:
296,318,87630,6,0,B|280:323|280:323|216:311,1,67.5000025749208
167,257,87792,2,0,B|117:248|117:248|101:253,1,67.5000025749208
88,265,87954,6,0,L|220:289,1,135,4|0,0:0|0:0,0:0:0:0:
280,352,88278,5,8,0:0:0:0:
356,304,88441,1,8,0:0:0:0:
420,368,88603,1,8,0:0:0:0:
496,320,88766,1,8,0:0:0:0:
488,304,88927,5,8,0:0:0:0:
392,312,89035,5,8,0:0:0:0:
308,264,89143,5,8,0:0:0:0:
212,272,89251,5,8,0:0:0:0:
128,224,89359,5,8,0:0:0:0:
32,232,89467,5,8,0:0:0:0:
72,144,89576,6,0,L|64:48,1,67.5000025749208
128,224,89738,2,0,L|133:291,1,67.5000025749208
200,152,89900,6,0,L|212:8,1,135,4|0,0:0|0:0,0:0:0:0:
224,4,90224,6,0,L|218:71,1,67.5000025749208
296,200,90386,2,0,L|301:132,1,67.5000025749208
352,40,90549,6,0,P|396:20|476:72,1,135,4|0,0:0|0:0,0:0:0:0:
372,220,90873,6,0,L|304:215,1,67.5000025749208
140,292,91035,2,0,L|208:287,1,67.5000025749208
244,124,91197,6,0,L|100:112,1,135,4|0,0:0|0:0,0:0:0:0:
16,208,91522,6,0,B|48:212|48:212|84:203,1,67.5000025749208
140,16,91684,2,0,B|108:12|108:12|72:21,1,67.5000025749208
116,104,91846,6,0,L|250:92,1,135,4|0,0:0|0:0,0:0:0:0:
360,168,92170,6,0,L|292:163,1,67.5000025749208
406,253,92332,2,0,L|338:248,1,67.5000025749208
256,264,92495,6,0,P|240:320|308:372,1,135,4|0,0:0|0:0,0:0:0:0:
126,358,92819,6,0,L|140:292,1,67.5000025749208
96,224,92981,2,0,L|112:144,1,67.5000025749208,0|0,0:0|0:0,0:0:0:0:
129,62,93143,5,0,0:0:0:0:
145,49,93224,1,0,0:0:0:0:
165,47,93305,1,0,0:0:0:0:
182,57,93387,1,0,0:0:0:0:
193,74,93468,5,0,0:0:0:0:
244,237,93630,1,0,0:0:0:0:
360,168,93792,5,0,0:0:0:0:
262,319,93954,1,0,0:0:0:0:
424,353,94116,5,0,0:0:0:0:
454,333,94197,1,0,0:0:0:0:
466,299,94278,1,0,0:0:0:0:
453,265,94359,1,0,0:0:0:0:
421,247,94441,5,0,0:0:0:0:
407,249,94522,1,0,0:0:0:0:
395,243,94603,1,0,0:0:0:0:
382,249,94684,1,0,0:0:0:0:
368,247,94765,6,0,B|370:277|370:277|374:283|374:283|371:289|371:289|372:312,1,67.5
362,332,95089,5,4,0:0:0:0:
244,237,95251,1,0,0:0:0:0:
243,218,95333,1,0,0:0:0:0:
254,204,95414,2,0,P|269:251|246:299,1,90,8|0,0:0|0:0,0:0:0:0:
177,349,95657,1,8,0:0:0:0:
162,360,95738,2,0,B|84:356|84:356|70:320,1,90,0|8,0:0|0:0,0:0:0:0:
44,59,96062,5,8,0:0:0:0:
72,219,96224,1,0,0:0:0:0:
64,235,96305,2,0,L|58:167,1,45,8|0,0:0|0:0,0:0:0:0:
176,20,96468,2,0,L|172:64,1,45,8|0,0:0|0:0,0:0:0:0:
152,248,96711,6,0,B|108:251|108:251|64:235,1,90,8|0,0:0|0:0,0:0:0:0:
240,136,96954,2,0,B|301:130|301:130|309:127|314:120|308:111|300:109,1,90,8|0,0:0|0:0,0:0:0:0:
440,24,97197,1,8,0:0:0:0:
253,45,97359,5,0,0:0:0:0:
242,53,97441,1,0,0:0:0:0:
233,63,97522,1,0,0:0:0:0:
227,75,97603,1,0,0:0:0:0:
224,88,97684,1,8,0:0:0:0:
223,101,97765,1,0,0:0:0:0:
226,113,97846,1,0,0:0:0:0:
232,124,97927,1,0,0:0:0:0:
240,136,98008,6,0,L|304:152,1,45
208,208,98170,2,0,L|272:224,1,45
176,280,98332,2,0,L|240:296,1,45,8|0,0:0|0:0,0:0:0:0:
144,352,98494,2,0,L|208:368,1,45
293,326,98657,5,8,0:0:0:0:
380,295,98765,1,8,0:0:0:0:
311,234,98873,1,8,0:0:0:0:
286,336,98981,5,8,0:0:0:0:
392,296,99089,1,8,0:0:0:0:
306,222,99197,1,8,0:0:0:0:
279,347,99305,6,0,B|298:368|298:368|337:375,1,60,8|8,0:0|0:0,0:0:0:0:
406,297,99522,2,0,B|414:269|414:269|400:231,1,60,8|8,0:0|0:0,0:0:0:0:
299,211,99738,2,0,B|270:215|270:215|244:247,1,60,8|8,0:0|0:0,0:0:0:0:
156,376,99954,6,0,P|140:344|144:304,1,67.5
88,180,100278,6,0,L|76:240,1,45,8|0,0:0|0:0,0:0:0:0:
16,116,100441,1,0,0:0:0:0:
172,132,100603,1,8,0:0:0:0:
76,268,100765,1,0,0:0:0:0:
84,284,100846,1,0,0:0:0:0:
90,300,100927,2,0,L|104:212,1,90,8|0,0:0|0:0,0:0:0:0:
84,68,101251,5,8,0:0:0:0:
72,84,101332,2,0,L|69:39,1,45
186,106,101495,1,8,0:0:0:0:
180,87,101576,2,0,L|172:132,1,45
264,204,101738,2,0,L|283:163,1,45,8|0,0:0|0:0,0:0:0:0:
320,284,101900,5,8,0:0:0:0:
327,310,101981,1,0,0:0:0:0:
315,335,102062,1,8,0:0:0:0:
291,349,102143,1,0,0:0:0:0:
264,348,102224,6,0,L|219:344,1,45,8|0,0:0|0:0,0:0:0:0:
160,216,102387,2,0,L|115:220,1,45,8|0,0:0|0:0,0:0:0:0:
95,367,102549,6,0,P|161:375|220:344,1,135,8|0,0:0|0:0,0:0:0:0:
432,292,102873,2,0,L|352:280,1,45,8|0,0:0|0:0,0:0:0:0:
256,216,103035,2,0,L|336:204,1,45,8|0,0:0|0:0,0:0:0:0:
400,120,103197,6,0,P|348:92|268:104,1,135,8|0,0:0|0:0,0:0:0:0:
180,172,103521,2,0,L|100:160,1,45,8|0,0:0|0:0,0:0:0:0:
60,224,103684,2,0,L|-20:236,1,45,8|0,0:0|0:0,0:0:0:0:
32,92,103846,5,8,0:0:0:0:
56,88,103927,1,0,0:0:0:0:
88,36,104008,5,8,0:0:0:0:
112,40,104089,1,0,0:0:0:0:
160,80,104170,5,8,0:0:0:0:
182,65,104251,1,0,0:0:0:0:
205,78,104332,1,8,0:0:0:0:
228,64,104414,1,0,0:0:0:0:
252,76,104495,6,0,P|276:116|264:160,1,90,8|0,0:0|0:0,0:0:0:0:
204,244,104738,2,0,P|195:287|218:324,1,90,8|0,0:0|0:0,0:0:0:0:
324,356,104981,1,8,0:0:0:0:
360,204,105143,5,0,0:0:0:0:
192,160,105306,1,0,0:0:0:0:
168,168,105387,1,0,0:0:0:0:
142,175,105468,2,0,B|79:166|79:166|68:162|70:153|83:152,1,90,8|0,0:0|0:0,0:0:0:0:
24,312,105792,6,0,L|96:301,1,45,8|0,0:0|0:0,0:0:0:0:
144,352,105954,2,0,L|189:359,1,45,8|0,0:0|0:0,0:0:0:0:
284,276,106116,2,0,B|276:208|276:208|268:236,1,90,8|0,0:0|0:0,0:0:0:0:
280,372,106441,5,0,0:0:0:0:
408,308,106603,1,0,0:0:0:0:
420,284,106684,1,0,0:0:0:0:
428,260,106765,2,0,L|421:170,1,90,8|0,0:0|0:0,0:0:0:0:
400,44,107089,6,0,B|380:36|380:36|356:40,1,45,8|0,0:0|0:0,0:0:0:0:
236,132,107251,2,0,B|256:140|256:140|280:136,1,45,8|0,0:0|0:0,0:0:0:0:
148,40,107414,1,8,0:0:0:0:
73,170,107576,2,0,B|68:187|68:187|84:260,1,90,0|8,0:0|0:0,0:0:0:0:
188,348,107900,5,0,0:0:0:0:
192,332,107981,1,0,0:0:0:0:
196,316,108062,1,8,0:0:0:0:
196,120,108224,1,0,0:0:0:0:
200,136,108305,1,0,0:0:0:0:
204,152,108387,6,0,L|208:176,4,22.5,8|0|0|0|0,0:0|0:0|0:0|0:0|0:0,0:0:0:0:
288,304,108711,2,0,L|292:280,4,22.5
296,140,109035,5,8,0:0:0:0:
380,316,109197,1,0,0:0:0:0:
388,128,109359,1,8,0:0:0:0:
472,328,109522,1,0,0:0:0:0:
478,115,109684,6,0,P|483:71|462:33,1,90,8|0,0:0|0:0,0:0:0:0:
423,177,109927,1,0,0:0:0:0:
362,233,110008,2,0,P|358:277|380:316,1,90,8|0,0:0|0:0,0:0:0:0:
296,140,110332,5,8,0:0:0:0:
204,176,110495,1,8,0:0:0:0:
120,128,110657,1,8,0:0:0:0:
28,164,110820,1,8,0:0:0:0:
44,316,110981,5,8,0:0:0:0:
28,164,111143,2,0,L|24:140,4,22.5,8|0|0|0|8,0:0|0:0|0:0|0:0|0:0,0:0:0:0:
128,276,111468,2,0,L|124:300,4,22.5,8|0|0|0|8,0:0|0:0|0:0|0:0|0:0,0:0:0:0:
204,176,111792,5,8,0:0:0:0:
256,352,111954,1,8,0:0:0:0:
332,252,112116,1,8,0:0:0:0:
128,276,112278,5,8,0:0:0:0:
332,252,112441,2,0,L|356:256,4,22.5,8|0|0|0|8,0:0|0:0|0:0|0:0|0:0,0:0:0:0:
96,124,112765,2,0,L|73:126,1,22.5,8|0,0:0|0:0,0:0:0:0:
80,144,112846,2,0,L|57:146,1,22.5
84,168,112927,5,0,0:0:0:0:
93,178,113008,1,0,0:0:0:0:
99,190,113089,1,0,0:0:0:0:
102,203,113170,1,0,0:0:0:0:
103,216,113251,1,8,0:0:0:0:
102,229,113332,1,0,0:0:0:0:
97,241,113414,1,0,0:0:0:0:
91,252,113495,1,0,0:0:0:0:
81,260,113576,2,0,L|28:256,1,45
179,306,113738,2,0,L|232:310,1,45
296,280,113900,5,8,0:0:0:0:
340,216,113981,1,0,0:0:0:0:
328,140,114062,1,0,0:0:0:0:
264,96,114143,1,0,0:0:0:0:
188,92,114224,6,0,L|120:96,1,45,8|0,0:0|0:0,0:0:0:0:
328,140,114387,2,0,L|372:137,1,45,8|0,0:0|0:0,0:0:0:0:
148,200,114549,6,0,L|80:196,1,45,8|0,0:0|0:0,0:0:0:0:
368,32,114711,2,0,L|436:36,1,45,8|0,0:0|0:0,0:0:0:0:
488,108,114873,5,8,0:0:0:0:
460,188,114981,1,8,0:0:0:0:
488,268,115089,1,8,0:0:0:0:
460,348,115197,5,8,0:0:0:0:
376,338,115305,1,8,0:0:0:0:
292,328,115414,1,8,0:0:0:0:
220,56,115846,5,4,0:0:0:0:
256,192,115927,12,0,120711,0:0:0:0:
