osu file format v14

[General]
AudioFilename: BLACK or WHITE.mp3
AudioLeadIn: 2000
PreviewTime: 52927
Countdown: 0
SampleSet: None
StackLeniency: 0.3
Mode: 0
LetterboxInBreaks: 0
WidescreenStoryboard: 0

[Editor]
DistanceSpacing: 1
BeatDivisor: 4
GridSize: 4
TimelineZoom: 1.2

[Metadata]
Title:BLACK or WHITE?
TitleUnicode:BLACK or WHITE?
Artist:BlackYooh vs. siromaru
ArtistUnicode:BlackYooh vs. siromaru
Creator:Frobe
Version:BASIC
Source:SOUND VOLTEX II -infinite infection-
Tags:SDVX BlackY KAC 2013 yooh symphonic schranz
BeatmapID:1559733
BeatmapSetID:739113

[Difficulty]
HPDrainRate:2
CircleSize:3
OverallDifficulty:2
ApproachRate:3
SliderMultiplier:0.8
SliderTickRate:1

[Events]
//Background and Video events
0,0,"bg.jpg",0,0
//Break Periods
2,37884,41433
2,79397,82947
//Storyboard Layer 0 (Background)
//Storyboard Layer 1 (Fail)
//Storyboard Layer 2 (Pass)
//Storyboard Layer 3 (Foreground)
//Storyboard Sound Samples

[TimingPoints]
1360,324.324324324324,4,2,1,80,1,0
9143,-100,4,1,1,70,0,0
10116,-100,4,1,1,30,0,0
10278,-100,4,1,1,70,0,0
10441,-100,4,1,1,30,0,0
10765,-100,4,2,1,80,0,0
11414,-100,4,1,0,40,0,0
11738,-100,4,1,1,60,0,0
13035,-100,4,1,11,50,0,0
13684,-100,4,1,1,60,0,0
15630,-100,4,1,11,50,0,0
16927,-100,4,2,2,60,0,0
17251,-100,4,1,1,60,0,0
22116,-100,4,1,10,60,0,0
23332,-100,4,3,12,90,0,0
24062,-100,4,3,12,70,0,0
24711,-100,4,1,10,60,0,0
25359,-100,4,1,1,60,0,0
27305,-100,4,1,13,60,0,0
31197,-100,4,1,14,60,0,0
32495,-100,4,1,0,60,0,0
32819,-100,4,2,0,20,0,0
37684,-100,4,2,0,5,0,0
42873,-100,4,1,14,60,0,0
44170,-100,4,1,13,60,0,0
45468,-100,4,1,14,60,0,0
46765,-100,4,1,13,60,0,0
48062,-100,4,1,14,60,0,0
48711,-100,4,1,13,60,0,0
50657,-100,4,1,14,60,0,0
51305,-100,4,1,13,60,0,0
52927,-100,4,1,0,60,0,0
53251,-100,4,1,1,80,0,1
66224,-100,4,2,1,90,0,1
66549,-100,4,1,1,80,0,1
74008,-100,4,1,0,60,0,0
74170,-100,4,2,0,20,0,0
75305,-100,4,2,0,15,0,0
76603,-100,4,2,0,10,0,0
77900,-100,4,2,0,5,0,0
84387,-100,4,1,1,60,0,0
88278,-100,4,1,17,50,0,0
88927,-100,4,1,17,60,0,0
89576,-100,4,1,1,70,0,1
93468,-100,4,1,1,60,0,0
95089,-100,4,1,1,80,0,1
97684,-100,4,1,11,60,0,1
98008,-100,4,1,1,80,0,1
98657,-100,4,1,17,50,0,1
98981,-100,4,1,17,60,0,1
99305,-100,4,1,17,70,0,1
99630,-100,4,1,17,80,0,1
99954,-100,4,1,1,80,0,1
114224,-100,4,1,17,70,0,1
115197,-100,4,1,17,80,0,1
115522,-100,4,1,17,80,0,0
115846,-100,4,1,0,80,0,1
115927,-100,4,2,1,25,0,0
118116,-100,4,2,1,20,0,0
118765,-100,4,2,1,15,0,0
119414,-100,4,2,1,10,0,0
120062,-100,4,2,1,5,0,0

[Colours]
Combo1 : 65,65,65
Combo2 : 136,138,136
Combo3 : 239,239,239

[HitObjects]
341,350,1360,6,0,P|328:298|404:227,1,160,2|0,0:0|0:0,0:0:0:0:
408,306,2332,1,0,0:0:0:0:
471,256,2657,2,0,P|472:200|389:149,1,160,2|0,0:0|0:0,0:0:0:0:
316,177,3630,1,0,0:0:0:0:
245,213,3954,6,0,B|199:233|199:233|91:208,1,160,2|0,0:0|0:0,0:0:0:0:
92,48,5251,2,0,B|199:23|199:23|245:43,1,160,2|0,0:0|0:0,0:0:0:0:
370,144,6549,6,0,P|406:145|468:43,1,160,2|0,0:0|0:0,0:0:0:0:
390,64,7522,1,0,0:0:0:0:
312,84,7846,2,0,P|288:159|352:224,1,160,2|0,0:0|0:0,0:0:0:0:
297,289,8819,1,0,0:0:0:0:
254,354,9143,6,0,L|161:349,1,80,8|8,0:0|0:0,0:0:0:0:
95,347,9792,2,0,P|122:288|182:271,2,120,8|8|0,0:0|0:0|0:0,0:0:0:0:
36,199,11414,2,0,L|30:106,1,80,8|4,0:0|0:0,0:0:0:0:
79,54,12062,6,0,P|122:91|227:84,1,160,8|8,0:0|0:0,0:0:0:0:
291,50,13035,2,0,P|368:39|432:83,1,160
466,159,14008,2,0,L|462:252,1,80
411,300,14657,6,0,B|392:287|382:253|382:253|386:143,1,160,8|8,0:0|0:0,0:0:0:0:
433,85,15630,2,0,P|356:74|307:133,1,160
263,199,16603,2,0,L|173:194,1,80
151,122,17251,6,0,P|107:127|61:127,2,80,8|8|8,0:0|0:0|0:0,0:0:0:0:
204,62,18224,2,0,P|243:58|283:66,2,80,8|8|8,0:0|0:0|0:0,0:0:0:0:
151,122,19197,1,0,0:0:0:0:
95,180,19522,6,0,P|108:256|176:293,1,160,8|8,0:0|0:0,0:0:0:0:
336,294,20819,2,0,P|404:257|417:181,1,160
366,116,21792,1,0,0:0:0:0:
314,55,22116,6,0,B|245:49|245:49|224:58|224:58|145:52,2,160
460,120,24062,2,0,P|456:161|468:206,1,80
482,276,24711,6,0,P|450:308|338:297,1,160
276,255,25684,1,4,0:0:0:0:
218,200,26008,2,0,P|142:181|78:225,1,160
60,303,26981,1,8,0:0:0:0:
121,354,27305,6,0,P|140:320|137:281,1,80,0|8,0:0|0:0,0:0:0:0:
78,224,27954,2,0,P|76:184|98:151,1,80,0|8,0:0|0:0,0:0:0:0:
162,104,28603,6,0,B|227:106|227:106|248:119,1,80,0|8,0:0|0:0,0:0:0:0:
303,162,29251,2,0,B|315:169|315:169|380:171,1,80,0|8,0:0|0:0,0:0:0:0:
454,141,29900,6,0,P|471:103|461:61,1,80,0|8,0:0|0:0,0:0:0:0:
399,18,30549,2,0,P|382:56|392:98,1,80,0|8,0:0|0:0,0:0:0:0:
379,171,31197,6,0,P|336:196|224:173,2,160,0|0|4,0:0|0:0|0:0,0:0:0:0:
256,192,32819,12,0,37684,0:0:0:0:
82,203,42873,6,0,B|61:259|61:259|96:357,2,160
160,218,44495,2,0,P|135:143|50:131,1,160,8|8,0:0|0:0,0:0:0:0:
80,45,45468,6,0,L|252:40,2,160
62,126,47089,2,0,P|94:180|193:186,1,160,8|8,0:0|0:0,0:0:0:0:
257,157,48062,6,0,P|308:147|397:209,1,160
410,281,49035,2,0,L|405:364,1,80,8|0,0:0|0:0,0:0:0:0:
325,367,49684,2,0,P|256:357|243:266,1,160,8|8,0:0|0:0,0:0:0:0:
259,201,50657,6,0,L|426:195,1,160
470,133,51630,2,0,P|478:104|463:51,1,80,8|0,0:0|0:0,0:0:0:0:
397,97,52278,2,0,P|333:111|273:46,1,160,0|8,0:0|0:0,0:0:0:0:
193,39,53251,6,0,B|154:29|154:29|30:47,1,160,4|8,0:0|0:0,0:0:0:0:
31,126,54224,1,8,0:0:0:0:
27,206,54549,6,0,P|33:248|34:297,1,80,8|8,0:0|0:0,0:0:0:0:
12,362,55197,2,0,P|57:363|95:338,1,80,8|8,0:0|0:0,0:0:0:0:
114,271,55846,5,8,0:0:0:0:
242,366,56495,2,0,P|283:362|325:363,1,80,8|8,0:0|0:0,0:0:0:0:
388,318,57143,6,0,L|471:321,2,80,8|8|8,0:0|0:0|0:0,0:0:0:0:
343,251,58116,1,8,0:0:0:0:
394,189,58441,6,0,P|434:125|391:46,1,160,12|8,0:0|0:0,0:0:0:0:
354,117,59414,1,8,0:0:0:0:
322,43,59738,6,0,P|284:42|233:33,1,80,8|8,0:0|0:0,0:0:0:0:
170,69,60387,2,0,P|132:70|81:79,1,80,8|8,0:0|0:0,0:0:0:0:
47,143,61035,5,8,0:0:0:0:
110,289,61684,2,0,P|139:296|192:283,1,80,8|8,0:0|0:0,0:0:0:0:
230,218,62332,6,0,L|220:124,2,80,8|8|8,0:0|0:0|0:0,0:0:0:0:
266,289,63305,1,8,0:0:0:0:
307,357,63630,6,0,P|354:374|436:306,1,160,12|8,0:0|0:0,0:0:0:0:
357,292,64603,1,8,0:0:0:0:
414,236,64927,6,0,P|426:199|418:158,1,80,8|8,0:0|0:0,0:0:0:0:
345,192,65576,2,0,P|337:153|349:115,1,80,8|8,0:0|0:0,0:0:0:0:
422,82,66224,5,0,0:0:0:0:
356,36,66549,2,0,L|194:45,1,160,8|8,0:0|0:0,0:0:0:0:
144,105,67522,6,0,P|99:124|23:59,2,160,8|0|12,0:0|0:0|0:0,0:0:0:0:
223,122,69143,6,0,L|220:206,1,80,2|12,2:0|0:0,0:0:0:0:
146,232,69792,2,0,P|135:276|156:316,1,80,2|12,2:0|0:0,0:0:0:0:
213,351,70441,2,0,P|257:349|303:356,1,80,2|12,2:0|0:0,0:0:0:0:
359,309,71089,2,0,P|398:313|438:311,1,80,2|8,2:0|0:0,0:0:0:0:
494,161,72062,5,8,0:0:0:0:
356,78,72711,2,0,P|323:144|351:221,2,160,8|8|4,0:0|0:0|0:0,0:0:0:0:
256,192,74332,12,0,79197,0:0:0:0:
68,266,84387,6,0,P|104:280|160:264,1,80,0|4,0:0|0:0,0:0:0:0:
208,228,85035,2,0,P|247:221|284:235,1,80,0|4,0:0|0:0,0:0:0:0:
352,280,85684,6,0,L|348:360,2,80,8|8|8,0:0|0:0|0:0,0:0:0:0:
420,240,86657,1,8,0:0:0:0:
488,196,86981,6,0,P|500:156|488:120,1,80,0|4,0:0|0:0,0:0:0:0:
417,82,87630,2,0,P|405:122|417:158,1,80,0|4,0:0|0:0,0:0:0:0:
345,194,88278,6,0,L|176:184,2,160,8|8|0,0:0|0:0|0:0,0:0:0:0:
330,273,89900,6,0,L|233:268,1,80,4|0,0:0|0:0,0:0:0:0:
174,298,90549,2,0,P|136:302|97:291,1,80,4|0,0:0|0:0,0:0:0:0:
43,232,91197,2,0,L|37:141,2,80,4|0|4,0:0|0:0|0:0,0:0:0:0:
19,308,92170,5,0,0:0:0:0:
78,361,92495,2,0,P|131:355|186:268,1,160,4|0,0:0|0:0,0:0:0:0:
169,193,93468,6,0,L|3:206,2,160
211,125,95089,2,0,P|270:116|360:184,1,160,4|8,0:0|0:0,0:0:0:0:
328,244,96062,6,0,P|377:244|426:141,1,160,8|8,0:0|0:0,0:0:0:0:
388,89,97035,1,8,0:0:0:0:
335,28,97359,6,0,B|256:42|256:42|177:28,1,160
124,87,98332,1,8,0:0:0:0:
83,157,98657,6,0,P|108:229|184:244,2,160,8|8|0,0:0|0:0|0:0,0:0:0:0:
124,87,100278,6,0,L|203:84,1,80,8|8,0:0|0:0,0:0:0:0:
256,144,100927,1,8,0:0:0:0:
310,202,101251,2,0,P|361:196|410:101,1,160,8|8,0:0|0:0,0:0:0:0:
505,238,102549,5,8,0:0:0:0:
466,308,102873,2,0,P|427:302|387:301,1,80,8|8,0:0|0:0,0:0:0:0:
326,249,103522,1,8,0:0:0:0:
263,298,103846,2,0,P|190:312|105:265,1,160,8|8,0:0|0:0,0:0:0:0:
18,148,105143,6,0,P|88:112|165:126,1,160,8|8,0:0|0:0,0:0:0:0:
246,149,106116,2,0,L|240:64,1,80,8|8,0:0|0:0,0:0:0:0:
393,23,107089,2,0,P|434:66|391:160,1,160,8|8,0:0|0:0,0:0:0:0:
445,221,108062,6,0,L|442:305,1,80,8|8,0:0|0:0,0:0:0:0:
406,372,108711,2,0,P|361:365|326:366,1,80,8|8,0:0|0:0,0:0:0:0:
256,328,109359,1,8,0:0:0:0:
185,365,109684,2,0,P|145:365|106:372,1,80,8|8,0:0|0:0,0:0:0:0:
39,327,110332,6,0,P|15:262|55:175,1,160,8|8,0:0|0:0,0:0:0:0:
139,49,111630,2,0,P|163:114|123:201,1,160,8|8,0:0|0:0,0:0:0:0:
273,265,112927,6,0,P|271:314|299:351,1,80,0|8,0:0|0:0,0:0:0:0:
362,363,113576,2,0,P|364:314|336:277,1,80,0|8,0:0|0:0,0:0:0:0:
332,210,114224,6,0,B|412:209|412:209|494:172,1,160,8|8,0:0|0:0,0:0:0:0:
499,97,115197,1,8,0:0:0:0:
256,192,115846,12,0,120711,0:0:0:0:
