osu file format v14

[General]
AudioFilename: audio.mp3
AudioLeadIn: 0
PreviewTime: 101266
Countdown: 0
SampleSet: None
StackLeniency: 0.7
Mode: 3
LetterboxInBreaks: 0
SpecialStyle: 0
WidescreenStoryboard: 1

[Editor]
Bookmarks: 25881,50496,52035,76650,127419,152035,176650,192035
DistanceSpacing: 0.8
BeatDivisor: 4
GridSize: 4
TimelineZoom: 1.3

[Metadata]
Title:Babalon
TitleUnicode:Babalon
Artist:BlackY's BEATFLOOR
ArtistUnicode:BlackY's BEATFLOOR
Creator:ExNeko
Version:Normal
Source:
Tags:
BeatmapID:1210737
BeatmapSetID:571292

[Difficulty]
HPDrainRate:7
CircleSize:7
OverallDifficulty:7
ApproachRate:5
SliderMultiplier:1.4
SliderTickRate:1

[Events]
//Background and Video events
0,0,"864302.png",0,0
//Break Periods
//Storyboard Layer 0 (Background)
//Storyboard Layer 1 (Fail)
//Storyboard Layer 2 (Pass)
//Storyboard Layer 3 (Foreground)
//Storyboard Sound Samples

[TimingPoints]
1266,384.615384615385,4,2,1,35,1,0
88958,-100,4,2,1,35,0,1
101266,-100,4,2,1,35,0,0
176650,-100,4,2,1,35,0,1
188958,-100,4,2,1,35,0,0

[HitObjects]
329,192,1266,128,0,2804:0:0:0:0:
182,192,2804,128,0,3573:0:0:0:0:
109,192,3573,128,0,4342:0:0:0:0:
36,192,4342,128,0,5112:0:0:0:0:
402,192,5112,128,0,5881:0:0:0:0:
329,192,5881,128,0,7419:0:0:0:0:
109,192,7419,128,0,8189:0:0:0:0:
329,192,8189,1,0,0:0:0:0:
402,192,8477,1,0,0:0:0:0:
475,192,8766,1,0,0:0:0:0:
256,192,8958,128,0,9727:0:0:0:0:
182,192,9727,128,0,10496:0:0:0:0:
109,192,10496,128,0,11266:0:0:0:0:
475,192,11266,128,0,12035:0:0:0:0:
329,192,12035,128,0,12804:0:0:0:0:
256,192,12804,128,0,13189:0:0:0:0:
182,192,13381,1,0,0:0:0:0:
109,192,13381,1,0,0:0:0:0:
329,192,13573,1,0,0:0:0:0:
402,192,13573,1,0,0:0:0:0:
36,192,13766,1,0,0:0:0:0:
182,192,13958,1,0,0:0:0:0:
329,192,14150,1,0,0:0:0:0:
109,192,14342,1,0,0:0:0:0:
256,192,14535,1,0,0:0:0:0:
402,192,14727,1,0,0:0:0:0:
182,192,14919,1,0,0:0:0:0:
329,192,15112,1,0,0:0:0:0:
475,192,15304,1,0,0:0:0:0:
256,192,15496,1,0,0:0:0:0:
109,192,15689,1,0,0:0:0:0:
329,192,15881,1,0,0:0:0:0:
182,192,16073,1,0,0:0:0:0:
36,192,16266,1,0,0:0:0:0:
402,192,16458,1,0,0:0:0:0:
109,192,16650,1,0,0:0:0:0:
256,192,16650,1,0,0:0:0:0:
475,192,16842,1,0,0:0:0:0:
182,192,17035,1,0,0:0:0:0:
329,192,17227,1,0,0:0:0:0:
109,192,17419,1,0,0:0:0:0:
256,192,17612,1,0,0:0:0:0:
402,192,17804,1,0,0:0:0:0:
182,192,17996,1,0,0:0:0:0:
36,192,18189,1,0,0:0:0:0:
329,192,18189,1,0,0:0:0:0:
475,192,18381,1,0,0:0:0:0:
256,192,18573,1,0,0:0:0:0:
402,192,18766,1,0,0:0:0:0:
182,192,18958,1,0,0:0:0:0:
36,192,18958,1,0,0:0:0:0:
329,192,19150,1,0,0:0:0:0:
109,192,19342,1,0,0:0:0:0:
256,192,19535,1,0,0:0:0:0:
402,192,19535,1,0,0:0:0:0:
182,192,19727,1,0,0:0:0:0:
36,192,19727,1,0,0:0:0:0:
329,192,19919,1,0,0:0:0:0:
475,192,20112,1,0,0:0:0:0:
109,192,20304,1,0,0:0:0:0:
256,192,20496,1,0,0:0:0:0:
402,192,20689,1,0,0:0:0:0:
36,192,20881,1,0,0:0:0:0:
182,192,21073,1,0,0:0:0:0:
329,192,21266,1,0,0:0:0:0:
475,192,21266,1,0,0:0:0:0:
109,192,21458,1,0,0:0:0:0:
402,192,21650,1,0,0:0:0:0:
182,192,21842,1,0,0:0:0:0:
475,192,22035,1,0,0:0:0:0:
36,192,22035,1,0,0:0:0:0:
256,192,22227,1,0,0:0:0:0:
109,192,22419,1,0,0:0:0:0:
402,192,22612,1,0,0:0:0:0:
329,192,22612,1,0,0:0:0:0:
182,192,22804,1,0,0:0:0:0:
36,192,22804,1,0,0:0:0:0:
109,192,23189,1,0,0:0:0:0:
256,192,23189,1,0,0:0:0:0:
182,192,23573,1,0,0:0:0:0:
329,192,23573,1,0,0:0:0:0:
256,192,23958,1,0,0:0:0:0:
402,192,23958,1,0,0:0:0:0:
182,192,24150,1,0,0:0:0:0:
329,192,24150,1,0,0:0:0:0:
109,192,24342,1,0,0:0:0:0:
36,192,24342,1,0,0:0:0:0:
329,192,24535,1,0,0:0:0:0:
402,192,24535,1,0,0:0:0:0:
109,192,24727,1,0,0:0:0:0:
182,192,24727,1,0,0:0:0:0:
402,192,24919,1,0,0:0:0:0:
475,192,24919,1,0,0:0:0:0:
182,192,25112,128,0,25496:0:0:0:0:
329,192,25496,128,0,25881:0:0:0:0:
256,192,25881,1,0,0:0:0:0:
36,192,25881,1,0,0:0:0:0:
