osu file format v14

[General]
AudioFilename: audio.mp3
AudioLeadIn: 0
PreviewTime: 101266
Countdown: 0
SampleSet: None
StackLeniency: 0.7
Mode: 3
LetterboxInBreaks: 0
SpecialStyle: 0
WidescreenStoryboard: 0

[Editor]
DistanceSpacing: 0.8
BeatDivisor: 6
GridSize: 4
TimelineZoom: 1.1

[Metadata]
Title:Babalon
TitleUnicode:Babalon
Artist:BlackY's BEATFLOOR
ArtistUnicode:BlackY's BEATFLOOR
Creator:ExNeko
Version:ExInyf's Hyper
Source:
Tags:
BeatmapID:1210736
BeatmapSetID:571292

[Difficulty]
HPDrainRate:7.5
CircleSize:7
OverallDifficulty:7.5
ApproachRate:5
SliderMultiplier:1.4
SliderTickRate:1

[Events]
//Background and Video events
0,0,"864302.png",0,0
//Break Periods
//Storyboard Layer 0 (Background)
//Storyboard Layer 1 (Fail)
//Storyboard Layer 2 (Pass)
//Storyboard Layer 3 (Foreground)
//Storyboard Sound Samples

[TimingPoints]
1266,384.615384615385,4,2,1,35,1,0
1266,-100,4,2,1,35,0,0
13381,-100,4,2,1,35,0,0
101266,-100,4,2,1,35,0,0
113381,-100,4,2,1,35,0,0
143573,-133.333333333333,4,2,1,35,0,0
143766,-66.6666666666667,4,2,1,35,0,0
143862,-133.333333333333,4,2,1,35,0,0
144054,-66.6666666666667,4,2,1,35,0,0
144150,-133.333333333333,4,2,1,35,0,0
144246,-66.6666666666667,4,2,1,35,0,0
144342,-100,4,2,1,35,0,0
152035,-100,4,2,1,35,0,1
168189,-133.333333333333,4,2,1,35,0,1
168381,-66.6666666666667,4,2,1,35,0,1
168477,-133.333333333333,4,2,1,35,0,1
168669,-66.6666666666667,4,2,1,35,0,1
168766,-133.333333333333,4,2,1,35,0,1
168862,-66.6666666666667,4,2,1,35,0,1
168958,-100,4,2,1,35,0,1
176554,-100,4,2,1,35,0,0
176650,-100,4,2,1,35,0,1
192035,-100,4,2,1,35,0,0

[HitObjects]
329,192,1266,128,0,2804:0:0:0:0:
182,192,1266,128,0,2804:0:0:0:0:
402,192,2804,128,0,4342:0:0:0:0:
256,192,2804,128,0,3573:0:0:0:0:
182,192,3573,128,0,4342:0:0:0:0:
256,192,4342,128,0,5112:0:0:0:0:
36,192,4342,128,0,5881:0:0:0:0:
329,192,5112,128,0,5881:0:0:0:0:
475,192,5881,128,0,7419:0:0:0:0:
182,192,5881,128,0,7419:0:0:0:0:
36,192,7419,128,0,8958:0:0:0:0:
329,192,7419,1,0,0:0:0:0:
475,192,8189,1,0,0:0:0:0:
329,192,8477,1,0,0:0:0:0:
256,192,8766,1,0,0:0:0:0:
475,192,8958,128,0,9727:0:0:0:0:
109,192,8958,1,0,0:0:0:0:
182,192,9727,128,0,10496:0:0:0:0:
402,192,10496,128,0,12035:0:0:0:0:
109,192,10496,128,0,11266:0:0:0:0:
256,192,11266,128,0,12035:0:0:0:0:
329,192,12035,128,0,13189:0:0:0:0:
109,192,12035,1,0,0:0:0:0:
182,192,12804,128,0,13189:0:0:0:0:
329,192,13381,1,0,0:0:0:0:
182,192,13381,1,0,0:0:0:0:
256,192,13573,1,0,0:0:0:0:
36,192,13573,1,0,0:0:0:0:
475,192,13573,1,0,0:0:0:0:
329,192,13766,1,0,0:0:0:0:
109,192,13958,1,0,0:0:0:0:
475,192,13958,1,0,0:0:0:0:
182,192,14150,1,0,0:0:0:0:
475,192,14342,1,0,0:0:0:0:
256,192,14342,1,0,0:0:0:0:
182,192,14439,1,0,0:0:0:0:
109,192,14535,1,0,0:0:0:0:
256,192,14631,1,0,0:0:0:0:
36,192,14727,1,0,0:0:0:0:
402,192,14727,1,0,0:0:0:0:
109,192,14823,1,0,0:0:0:0:
182,192,14919,1,0,0:0:0:0:
256,192,15016,1,0,0:0:0:0:
475,192,15112,1,0,0:0:0:0:
329,192,15112,1,0,0:0:0:0:
182,192,15208,1,0,0:0:0:0:
36,192,15304,1,0,0:0:0:0:
109,192,15496,1,0,0:0:0:0:
256,192,15496,1,0,0:0:0:0:
329,192,15592,1,0,0:0:0:0:
475,192,15689,1,0,0:0:0:0:
36,192,15785,1,0,0:0:0:0:
182,192,15881,1,0,0:0:0:0:
402,192,15977,1,0,0:0:0:0:
256,192,16073,1,0,0:0:0:0:
475,192,16169,1,0,0:0:0:0:
36,192,16266,1,0,0:0:0:0:
329,192,16266,1,0,0:0:0:0:
256,192,16362,1,0,0:0:0:0:
182,192,16458,1,0,0:0:0:0:
109,192,16554,1,0,0:0:0:0:
36,192,16650,1,0,0:0:0:0:
402,192,16650,1,0,0:0:0:0:
475,192,16650,1,0,0:0:0:0:
256,192,16746,1,0,0:0:0:0:
109,192,16842,1,0,0:0:0:0:
475,192,17035,1,0,0:0:0:0:
329,192,17035,1,0,0:0:0:0:
182,192,17131,1,0,0:0:0:0:
36,192,17227,1,0,0:0:0:0:
475,192,17419,1,0,0:0:0:0:
329,192,17419,1,0,0:0:0:0:
182,192,17516,1,0,0:0:0:0:
109,192,17612,1,0,0:0:0:0:
475,192,17804,1,0,0:0:0:0:
36,192,17804,1,0,0:0:0:0:
256,192,17900,1,0,0:0:0:0:
329,192,17996,1,0,0:0:0:0:
402,192,18092,1,0,0:0:0:0:
475,192,18189,1,0,0:0:0:0:
36,192,18189,1,0,0:0:0:0:
109,192,18189,1,0,0:0:0:0:
256,192,18285,1,0,0:0:0:0:
402,192,18381,1,0,0:0:0:0:
182,192,18477,1,0,0:0:0:0:
109,192,18573,1,0,0:0:0:0:
475,192,18573,1,0,0:0:0:0:
329,192,18669,1,0,0:0:0:0:
182,192,18766,1,0,0:0:0:0:
36,192,18862,1,0,0:0:0:0:
402,192,18958,1,0,0:0:0:0:
109,192,18958,1,0,0:0:0:0:
475,192,18958,1,0,0:0:0:0:
256,192,19054,1,0,0:0:0:0:
182,192,19150,1,0,0:0:0:0:
402,192,19246,1,0,0:0:0:0:
256,192,19342,1,0,0:0:0:0:
475,192,19342,1,0,0:0:0:0:
109,192,19439,1,0,0:0:0:0:
329,192,19535,1,0,0:0:0:0:
182,192,19535,1,0,0:0:0:0:
402,192,19631,1,0,0:0:0:0:
256,192,19727,1,0,0:0:0:0:
36,192,19727,1,0,0:0:0:0:
475,192,19727,128,0,20496:0:0:0:0:
109,192,19727,1,0,0:0:0:0:
329,192,19919,1,0,0:0:0:0:
109,192,20112,1,0,0:0:0:0:
256,192,20304,1,0,0:0:0:0:
36,192,20496,1,0,0:0:0:0:
329,192,20496,1,0,0:0:0:0:
109,192,20592,1,0,0:0:0:0:
182,192,20689,1,0,0:0:0:0:
402,192,20785,1,0,0:0:0:0:
256,192,20881,1,0,0:0:0:0:
36,192,20881,1,0,0:0:0:0:
329,192,20977,1,0,0:0:0:0:
182,192,21073,1,0,0:0:0:0:
109,192,21169,1,0,0:0:0:0:
36,192,21266,1,0,0:0:0:0:
475,192,21266,1,0,0:0:0:0:
256,192,21266,1,0,0:0:0:0:
402,192,21362,1,0,0:0:0:0:
329,192,21458,1,0,0:0:0:0:
182,192,21554,1,0,0:0:0:0:
109,192,21650,1,0,0:0:0:0:
402,192,21746,1,0,0:0:0:0:
256,192,21842,1,0,0:0:0:0:
182,192,21939,1,0,0:0:0:0:
329,192,22035,1,0,0:0:0:0:
475,192,22035,1,0,0:0:0:0:
109,192,22131,1,0,0:0:0:0:
36,192,22227,1,0,0:0:0:0:
402,192,22323,1,0,0:0:0:0:
182,192,22419,1,0,0:0:0:0:
329,192,22516,1,0,0:0:0:0:
109,192,22612,1,0,0:0:0:0:
402,192,22612,1,0,0:0:0:0:
256,192,22708,1,0,0:0:0:0:
182,192,22804,1,0,0:0:0:0:
475,192,22804,1,0,0:0:0:0:
36,192,22804,1,0,0:0:0:0:
329,192,22900,1,0,0:0:0:0:
256,192,22996,1,0,0:0:0:0:
109,192,23092,1,0,0:0:0:0:
475,192,23189,1,0,0:0:0:0:
329,192,23189,1,0,0:0:0:0:
182,192,23285,1,0,0:0:0:0:
256,192,23381,1,0,0:0:0:0:
402,192,23477,1,0,0:0:0:0:
475,192,23573,1,0,0:0:0:0:
36,192,23573,1,0,0:0:0:0:
182,192,23573,1,0,0:0:0:0:
329,192,23766,1,0,0:0:0:0:
109,192,23958,1,0,0:0:0:0:
402,192,23958,1,0,0:0:0:0:
329,192,24150,1,0,0:0:0:0:
182,192,24150,1,0,0:0:0:0:
475,192,24342,1,0,0:0:0:0:
256,192,24342,1,0,0:0:0:0:
36,192,24342,1,0,0:0:0:0:
402,192,24439,1,0,0:0:0:0:
329,192,24535,1,0,0:0:0:0:
182,192,24631,1,0,0:0:0:0:
36,192,24727,1,0,0:0:0:0:
475,192,24727,1,0,0:0:0:0:
402,192,24727,1,0,0:0:0:0:
109,192,24823,1,0,0:0:0:0:
256,192,24919,1,0,0:0:0:0:
402,192,25016,1,0,0:0:0:0:
36,192,25112,1,0,0:0:0:0:
109,192,25112,1,0,0:0:0:0:
475,192,25112,1,0,0:0:0:0:
402,192,25208,1,0,0:0:0:0:
329,192,25208,1,0,0:0:0:0:
109,192,25304,1,0,0:0:0:0:
182,192,25304,1,0,0:0:0:0:
402,192,25400,1,0,0:0:0:0:
475,192,25400,1,0,0:0:0:0:
109,192,25496,1,0,0:0:0:0:
36,192,25496,1,0,0:0:0:0:
329,192,25592,1,0,0:0:0:0:
402,192,25592,1,0,0:0:0:0:
182,192,25689,1,0,0:0:0:0:
109,192,25689,1,0,0:0:0:0:
402,192,25785,1,0,0:0:0:0:
475,192,25785,1,0,0:0:0:0:
109,192,25881,1,0,0:0:0:0:
36,192,25881,1,0,0:0:0:0:
329,192,25881,1,0,0:0:0:0:
256,192,26073,1,0,0:0:0:0:
402,192,26266,1,0,0:0:0:0:
329,192,26266,1,0,0:0:0:0:
109,192,26266,1,0,0:0:0:0:
256,192,26458,1,0,0:0:0:0:
36,192,26650,1,0,0:0:0:0:
109,192,26650,1,0,0:0:0:0:
402,192,26650,1,0,0:0:0:0:
329,192,26746,1,0,0:0:0:0:
256,192,26842,1,0,0:0:0:0:
182,192,26939,1,0,0:0:0:0:
329,192,27035,1,0,0:0:0:0:
36,192,27035,1,0,0:0:0:0:
475,192,27035,1,0,0:0:0:0:
256,192,27131,1,0,0:0:0:0:
182,192,27227,1,0,0:0:0:0:
109,192,27323,1,0,0:0:0:0:
36,192,27419,1,0,0:0:0:0:
329,192,27419,1,0,0:0:0:0:
402,192,27419,1,0,0:0:0:0:
182,192,27612,1,0,0:0:0:0:
256,192,27804,1,0,0:0:0:0:
475,192,27804,1,0,0:0:0:0:
109,192,27804,1,0,0:0:0:0:
329,192,27996,1,0,0:0:0:0:
36,192,28189,1,0,0:0:0:0:
182,192,28189,1,0,0:0:0:0:
475,192,28189,1,0,0:0:0:0:
402,192,28285,1,0,0:0:0:0:
256,192,28381,1,0,0:0:0:0:
329,192,28477,1,0,0:0:0:0:
109,192,28573,1,0,0:0:0:0:
475,192,28573,1,0,0:0:0:0:
402,192,28573,1,0,0:0:0:0:
256,192,28669,1,0,0:0:0:0:
36,192,28766,1,0,0:0:0:0:
182,192,28862,1,0,0:0:0:0:
329,192,28958,1,0,0:0:0:0:
475,192,28958,1,0,0:0:0:0:
109,192,28958,1,0,0:0:0:0:
256,192,29150,1,0,0:0:0:0:
36,192,29342,1,0,0:0:0:0:
182,192,29342,1,0,0:0:0:0:
402,192,29342,1,0,0:0:0:0:
329,192,29535,1,0,0:0:0:0:
109,192,29727,1,0,0:0:0:0:
256,192,29727,1,0,0:0:0:0:
475,192,29727,1,0,0:0:0:0:
182,192,29919,1,0,0:0:0:0:
475,192,30112,1,0,0:0:0:0:
36,192,30112,1,0,0:0:0:0:
402,192,30112,1,0,0:0:0:0:
256,192,30208,1,0,0:0:0:0:
109,192,30304,1,0,0:0:0:0:
329,192,30400,1,0,0:0:0:0:
475,192,30496,1,0,0:0:0:0:
402,192,30496,1,0,0:0:0:0:
36,192,30496,1,0,0:0:0:0:
182,192,30592,1,0,0:0:0:0:
329,192,30689,1,0,0:0:0:0:
109,192,30785,1,0,0:0:0:0:
256,192,30881,1,0,0:0:0:0:
475,192,30881,1,0,0:0:0:0:
402,192,30881,1,0,0:0:0:0:
36,192,30977,1,0,0:0:0:0:
182,192,31073,1,0,0:0:0:0:
329,192,31169,1,0,0:0:0:0:
475,192,31266,1,0,0:0:0:0:
36,192,31266,1,0,0:0:0:0:
109,192,31266,1,0,0:0:0:0:
256,192,31362,1,0,0:0:0:0:
402,192,31458,1,0,0:0:0:0:
182,192,31554,1,0,0:0:0:0:
36,192,31650,1,0,0:0:0:0:
475,192,31650,1,0,0:0:0:0:
329,192,31650,1,0,0:0:0:0:
256,192,31746,1,0,0:0:0:0:
109,192,31842,1,0,0:0:0:0:
402,192,31842,1,0,0:0:0:0:
329,192,31939,1,0,0:0:0:0:
182,192,32035,1,0,0:0:0:0:
475,192,32035,1,0,0:0:0:0:
36,192,32035,1,0,0:0:0:0:
256,192,32227,1,0,0:0:0:0:
475,192,32419,1,0,0:0:0:0:
36,192,32419,1,0,0:0:0:0:
182,192,32419,1,0,0:0:0:0:
329,192,32516,1,0,0:0:0:0:
256,192,32612,1,0,0:0:0:0:
109,192,32708,1,0,0:0:0:0:
36,192,32804,1,0,0:0:0:0:
402,192,32804,1,0,0:0:0:0:
329,192,32900,1,0,0:0:0:0:
109,192,32996,1,0,0:0:0:0:
182,192,33092,1,0,0:0:0:0:
475,192,33189,1,0,0:0:0:0:
36,192,33189,1,0,0:0:0:0:
256,192,33189,1,0,0:0:0:0:
182,192,33381,1,0,0:0:0:0:
329,192,33477,1,0,0:0:0:0:
475,192,33573,1,0,0:0:0:0:
109,192,33573,1,0,0:0:0:0:
402,192,33669,1,0,0:0:0:0:
256,192,33766,1,0,0:0:0:0:
182,192,33862,1,0,0:0:0:0:
109,192,33958,1,0,0:0:0:0:
475,192,33958,1,0,0:0:0:0:
36,192,33958,1,0,0:0:0:0:
402,192,34054,1,0,0:0:0:0:
182,192,34150,1,0,0:0:0:0:
329,192,34246,1,0,0:0:0:0:
109,192,34342,1,0,0:0:0:0:
36,192,34342,1,0,0:0:0:0:
475,192,34342,1,0,0:0:0:0:
256,192,34439,1,0,0:0:0:0:
329,192,34535,1,0,0:0:0:0:
182,192,34631,1,0,0:0:0:0:
109,192,34727,1,0,0:0:0:0:
475,192,34727,1,0,0:0:0:0:
402,192,34727,1,0,0:0:0:0:
256,192,34919,1,0,0:0:0:0:
402,192,35112,1,0,0:0:0:0:
182,192,35112,1,0,0:0:0:0:
109,192,35112,1,0,0:0:0:0:
256,192,35304,1,0,0:0:0:0:
402,192,35496,1,0,0:0:0:0:
329,192,35496,1,0,0:0:0:0:
36,192,35496,1,0,0:0:0:0:
182,192,35689,1,0,0:0:0:0:
109,192,35881,1,0,0:0:0:0:
256,192,35881,1,0,0:0:0:0:
402,192,35881,1,0,0:0:0:0:
475,192,35977,1,0,0:0:0:0:
329,192,36073,1,0,0:0:0:0:
182,192,36169,1,0,0:0:0:0:
36,192,36266,1,0,0:0:0:0:
402,192,36266,1,0,0:0:0:0:
475,192,36266,1,0,0:0:0:0:
329,192,36362,1,0,0:0:0:0:
256,192,36458,1,0,0:0:0:0:
182,192,36554,1,0,0:0:0:0:
109,192,36650,1,0,0:0:0:0:
36,192,36650,1,0,0:0:0:0:
475,192,36650,1,0,0:0:0:0:
402,192,36746,1,0,0:0:0:0:
182,192,36842,1,0,0:0:0:0:
329,192,36939,1,0,0:0:0:0:
109,192,37035,1,0,0:0:0:0:
256,192,37035,1,0,0:0:0:0:
402,192,37035,1,0,0:0:0:0:
36,192,37131,1,0,0:0:0:0:
182,192,37227,1,0,0:0:0:0:
475,192,37227,1,0,0:0:0:0:
329,192,37323,1,0,0:0:0:0:
475,192,37419,1,0,0:0:0:0:
36,192,37419,1,0,0:0:0:0:
182,192,37516,1,0,0:0:0:0:
329,192,37516,1,0,0:0:0:0:
475,192,37612,1,0,0:0:0:0:
36,192,37612,1,0,0:0:0:0:
182,192,37708,1,0,0:0:0:0:
329,192,37708,1,0,0:0:0:0:
475,192,37804,1,0,0:0:0:0:
36,192,37804,1,0,0:0:0:0:
329,192,37996,1,0,0:0:0:0:
182,192,37996,1,0,0:0:0:0:
402,192,38189,1,0,0:0:0:0:
256,192,38189,1,0,0:0:0:0:
109,192,38189,1,0,0:0:0:0:
182,192,38381,1,0,0:0:0:0:
329,192,38477,1,0,0:0:0:0:
109,192,38573,1,0,0:0:0:0:
475,192,38573,1,0,0:0:0:0:
256,192,38573,1,0,0:0:0:0:
402,192,38766,1,0,0:0:0:0:
256,192,38862,1,0,0:0:0:0:
109,192,38958,1,0,0:0:0:0:
475,192,38958,1,0,0:0:0:0:
36,192,38958,1,0,0:0:0:0:
329,192,39054,1,0,0:0:0:0:
182,192,39150,1,0,0:0:0:0:
329,192,39246,1,0,0:0:0:0:
402,192,39342,1,0,0:0:0:0:
109,192,39342,1,0,0:0:0:0:
36,192,39342,1,0,0:0:0:0:
475,192,39439,1,0,0:0:0:0:
329,192,39535,1,0,0:0:0:0:
182,192,39631,1,0,0:0:0:0:
109,192,39727,1,0,0:0:0:0:
402,192,39727,1,0,0:0:0:0:
256,192,39727,1,0,0:0:0:0:
329,192,39919,1,0,0:0:0:0:
109,192,40016,1,0,0:0:0:0:
182,192,40112,1,0,0:0:0:0:
402,192,40112,1,0,0:0:0:0:
475,192,40112,1,0,0:0:0:0:
109,192,40304,1,0,0:0:0:0:
329,192,40400,1,0,0:0:0:0:
256,192,40496,1,0,0:0:0:0:
475,192,40496,1,0,0:0:0:0:
36,192,40496,1,0,0:0:0:0:
182,192,40592,1,0,0:0:0:0:
402,192,40689,1,0,0:0:0:0:
109,192,40785,1,0,0:0:0:0:
329,192,40881,1,0,0:0:0:0:
475,192,40881,1,0,0:0:0:0:
182,192,40881,1,0,0:0:0:0:
36,192,40977,1,0,0:0:0:0:
402,192,41073,1,0,0:0:0:0:
256,192,41169,1,0,0:0:0:0:
182,192,41266,1,0,0:0:0:0:
36,192,41266,1,0,0:0:0:0:
475,192,41266,1,0,0:0:0:0:
402,192,41458,1,0,0:0:0:0:
182,192,41554,1,0,0:0:0:0:
109,192,41650,1,0,0:0:0:0:
475,192,41650,1,0,0:0:0:0:
329,192,41650,1,0,0:0:0:0:
182,192,41842,1,0,0:0:0:0:
402,192,41939,1,0,0:0:0:0:
256,192,42035,1,0,0:0:0:0:
36,192,42035,1,0,0:0:0:0:
329,192,42035,1,0,0:0:0:0:
182,192,42227,1,0,0:0:0:0:
109,192,42323,1,0,0:0:0:0:
36,192,42419,1,0,0:0:0:0:
475,192,42419,1,0,0:0:0:0:
329,192,42419,1,0,0:0:0:0:
256,192,42516,1,0,0:0:0:0:
109,192,42612,1,0,0:0:0:0:
329,192,42708,1,0,0:0:0:0:
402,192,42804,1,0,0:0:0:0:
182,192,42804,1,0,0:0:0:0:
475,192,42804,1,0,0:0:0:0:
109,192,42900,1,0,0:0:0:0:
329,192,42996,1,0,0:0:0:0:
36,192,43092,1,0,0:0:0:0:
182,192,43189,1,0,0:0:0:0:
402,192,43189,1,0,0:0:0:0:
256,192,43189,1,0,0:0:0:0:
109,192,43285,1,0,0:0:0:0:
329,192,43381,1,0,0:0:0:0:
182,192,43477,1,0,0:0:0:0:
36,192,43573,1,0,0:0:0:0:
475,192,43573,1,0,0:0:0:0:
256,192,43573,1,0,0:0:0:0:
329,192,43669,1,0,0:0:0:0:
109,192,43766,1,0,0:0:0:0:
182,192,43862,1,0,0:0:0:0:
402,192,43862,1,0,0:0:0:0:
329,192,44150,1,0,0:0:0:0:
182,192,44150,1,0,0:0:0:0:
475,192,44342,1,0,0:0:0:0:
256,192,44342,1,0,0:0:0:0:
36,192,44342,1,0,0:0:0:0:
329,192,44727,1,0,0:0:0:0:
329,192,45112,1,0,0:0:0:0:
329,192,45496,1,0,0:0:0:0:
329,192,45689,1,0,0:0:0:0:
182,192,45689,1,0,0:0:0:0:
182,192,45881,1,0,0:0:0:0:
329,192,45881,1,0,0:0:0:0:
36,192,45881,1,0,0:0:0:0:
182,192,46266,1,0,0:0:0:0:
182,192,46650,1,0,0:0:0:0:
329,192,46650,1,0,0:0:0:0:
329,192,46939,1,0,0:0:0:0:
182,192,46939,1,0,0:0:0:0:
329,192,47227,1,0,0:0:0:0:
182,192,47227,1,0,0:0:0:0:
475,192,47419,1,0,0:0:0:0:
256,192,47419,1,0,0:0:0:0:
36,192,47419,1,0,0:0:0:0:
36,192,47612,1,0,0:0:0:0:
475,192,47612,1,0,0:0:0:0:
329,192,47804,1,0,0:0:0:0:
182,192,47804,1,0,0:0:0:0:
182,192,47996,1,0,0:0:0:0:
329,192,47996,1,0,0:0:0:0:
402,192,48189,1,0,0:0:0:0:
256,192,48189,1,0,0:0:0:0:
109,192,48189,1,0,0:0:0:0:
475,192,48381,1,0,0:0:0:0:
182,192,48381,1,0,0:0:0:0:
402,192,48573,1,0,0:0:0:0:
109,192,48573,1,0,0:0:0:0:
329,192,48669,1,0,0:0:0:0:
256,192,48766,1,0,0:0:0:0:
182,192,48862,1,0,0:0:0:0:
475,192,48958,1,0,0:0:0:0:
36,192,48958,1,0,0:0:0:0:
256,192,48958,1,0,0:0:0:0:
329,192,49054,1,0,0:0:0:0:
36,192,49150,1,0,0:0:0:0:
475,192,49150,1,0,0:0:0:0:
109,192,49198,1,0,0:0:0:0:
182,192,49246,1,0,0:0:0:0:
256,192,49294,1,0,0:0:0:0:
329,192,49342,1,0,0:0:0:0:
402,192,49342,1,0,0:0:0:0:
36,192,49342,1,0,0:0:0:0:
182,192,49439,1,0,0:0:0:0:
475,192,49535,1,0,0:0:0:0:
36,192,49535,1,0,0:0:0:0:
402,192,49583,1,0,0:0:0:0:
329,192,49631,1,0,0:0:0:0:
256,192,49679,1,0,0:0:0:0:
182,192,49727,1,0,0:0:0:0:
109,192,49727,1,0,0:0:0:0:
329,192,49823,1,0,0:0:0:0:
402,192,49823,1,0,0:0:0:0:
182,192,49919,1,0,0:0:0:0:
109,192,49919,1,0,0:0:0:0:
329,192,50016,1,0,0:0:0:0:
402,192,50016,1,0,0:0:0:0:
256,192,50112,128,0,50304:0:0:0:0:
475,192,50112,128,0,50496:0:0:0:0:
36,192,50112,128,0,50496:0:0:0:0:
256,192,51266,128,0,52035:0:0:0:0:
329,192,51650,128,0,52035:0:0:0:0:
182,192,51650,128,0,52035:0:0:0:0:
475,192,52035,1,0,0:0:0:0:
402,192,52035,1,0,0:0:0:0:
109,192,52035,1,0,0:0:0:0:
36,192,52035,1,0,0:0:0:0:
329,192,52612,1,0,0:0:0:0:
182,192,52612,1,0,0:0:0:0:
256,192,52804,1,0,0:0:0:0:
36,192,52804,1,0,0:0:0:0:
475,192,52804,1,0,0:0:0:0:
402,192,52996,1,0,0:0:0:0:
109,192,52996,1,0,0:0:0:0:
182,192,53092,1,0,0:0:0:0:
329,192,53092,1,0,0:0:0:0:
109,192,53189,1,0,0:0:0:0:
402,192,53189,1,0,0:0:0:0:
329,192,53381,1,0,0:0:0:0:
182,192,53381,1,0,0:0:0:0:
475,192,53573,128,0,53766:0:0:0:0:
36,192,53573,1,0,0:0:0:0:
329,192,53766,1,0,0:0:0:0:
256,192,53814,1,0,0:0:0:0:
182,192,53862,1,0,0:0:0:0:
109,192,53910,1,0,0:0:0:0:
36,192,53958,1,0,0:0:0:0:
475,192,53958,1,0,0:0:0:0:
329,192,54150,1,0,0:0:0:0:
182,192,54150,1,0,0:0:0:0:
36,192,54342,1,0,0:0:0:0:
475,192,54342,1,0,0:0:0:0:
256,192,54342,1,0,0:0:0:0:
329,192,54535,1,0,0:0:0:0:
182,192,54631,1,0,0:0:0:0:
329,192,54727,1,0,0:0:0:0:
182,192,54823,1,0,0:0:0:0:
329,192,54919,1,0,0:0:0:0:
402,192,54919,1,0,0:0:0:0:
182,192,55016,1,0,0:0:0:0:
109,192,55016,1,0,0:0:0:0:
36,192,55112,1,0,0:0:0:0:
329,192,55112,1,0,0:0:0:0:
475,192,55112,1,0,0:0:0:0:
402,192,55400,1,0,0:0:0:0:
256,192,55400,1,0,0:0:0:0:
109,192,55400,1,0,0:0:0:0:
329,192,55592,1,0,0:0:0:0:
182,192,55592,1,0,0:0:0:0:
475,192,55689,1,0,0:0:0:0:
36,192,55689,1,0,0:0:0:0:
402,192,55881,1,0,0:0:0:0:
256,192,55881,1,0,0:0:0:0:
109,192,55881,1,0,0:0:0:0:
36,192,56073,1,0,0:0:0:0:
475,192,56073,1,0,0:0:0:0:
182,192,56169,1,0,0:0:0:0:
329,192,56169,1,0,0:0:0:0:
475,192,56266,1,0,0:0:0:0:
36,192,56266,1,0,0:0:0:0:
329,192,56394,1,0,0:0:0:0:
182,192,56394,1,0,0:0:0:0:
182,192,56522,1,0,0:0:0:0:
329,192,56522,1,0,0:0:0:0:
182,192,56842,1,0,0:0:0:0:
256,192,56891,1,0,0:0:0:0:
329,192,56939,1,0,0:0:0:0:
402,192,56987,1,0,0:0:0:0:
475,192,57035,1,0,0:0:0:0:
36,192,57035,1,0,0:0:0:0:
182,192,57227,1,0,0:0:0:0:
256,192,57419,1,0,0:0:0:0:
475,192,57419,1,0,0:0:0:0:
36,192,57419,1,0,0:0:0:0:
475,192,57548,1,0,0:0:0:0:
475,192,57676,1,0,0:0:0:0:
36,192,57804,1,0,0:0:0:0:
329,192,57804,1,0,0:0:0:0:
182,192,57900,1,0,0:0:0:0:
475,192,57900,1,0,0:0:0:0:
36,192,57996,1,0,0:0:0:0:
329,192,57996,1,0,0:0:0:0:
182,192,58092,1,0,0:0:0:0:
475,192,58092,1,0,0:0:0:0:
36,192,58189,1,0,0:0:0:0:
329,192,58189,1,0,0:0:0:0:
402,192,58189,1,0,0:0:0:0:
109,192,58237,1,0,0:0:0:0:
182,192,58285,1,0,0:0:0:0:
256,192,58333,1,0,0:0:0:0:
329,192,58381,1,0,0:0:0:0:
402,192,58477,1,0,0:0:0:0:
475,192,58573,1,0,0:0:0:0:
36,192,58573,1,0,0:0:0:0:
475,192,58701,1,0,0:0:0:0:
36,192,58701,1,0,0:0:0:0:
475,192,58830,1,0,0:0:0:0:
36,192,58830,1,0,0:0:0:0:
402,192,58958,1,0,0:0:0:0:
256,192,58958,1,0,0:0:0:0:
109,192,58958,1,0,0:0:0:0:
109,192,59150,1,0,0:0:0:0:
402,192,59150,1,0,0:0:0:0:
182,192,59439,1,0,0:0:0:0:
329,192,59439,1,0,0:0:0:0:
182,192,59631,1,0,0:0:0:0:
329,192,59631,1,0,0:0:0:0:
182,192,59823,1,0,0:0:0:0:
329,192,59823,1,0,0:0:0:0:
475,192,60016,1,0,0:0:0:0:
329,192,60064,1,0,0:0:0:0:
182,192,60112,1,0,0:0:0:0:
36,192,60112,1,0,0:0:0:0:
402,192,60304,1,0,0:0:0:0:
109,192,60304,1,0,0:0:0:0:
475,192,60496,1,0,0:0:0:0:
256,192,60496,1,0,0:0:0:0:
36,192,60496,1,0,0:0:0:0:
256,192,60881,128,0,61266:0:0:0:0:
402,192,60881,1,0,0:0:0:0:
109,192,60881,1,0,0:0:0:0:
402,192,61266,1,0,0:0:0:0:
109,192,61266,1,0,0:0:0:0:
402,192,61650,1,0,0:0:0:0:
256,192,61650,1,0,0:0:0:0:
109,192,61650,1,0,0:0:0:0:
329,192,62035,1,0,0:0:0:0:
182,192,62035,1,0,0:0:0:0:
36,192,62035,1,0,0:0:0:0:
402,192,62227,1,0,0:0:0:0:
256,192,62227,1,0,0:0:0:0:
475,192,62612,1,0,0:0:0:0:
329,192,62660,1,0,0:0:0:0:
182,192,62708,1,0,0:0:0:0:
36,192,62756,1,0,0:0:0:0:
256,192,62804,1,0,0:0:0:0:
109,192,62804,1,0,0:0:0:0:
402,192,62804,1,0,0:0:0:0:
256,192,63092,1,0,0:0:0:0:
475,192,63092,1,0,0:0:0:0:
36,192,63092,1,0,0:0:0:0:
402,192,63285,1,0,0:0:0:0:
109,192,63285,1,0,0:0:0:0:
182,192,63381,1,0,0:0:0:0:
329,192,63381,1,0,0:0:0:0:
256,192,63477,1,0,0:0:0:0:
402,192,63573,128,0,64342:0:0:0:0:
109,192,63573,128,0,64342:0:0:0:0:
182,192,63766,128,0,64342:0:0:0:0:
329,192,63766,128,0,64342:0:0:0:0:
475,192,64342,1,0,0:0:0:0:
256,192,64342,1,0,0:0:0:0:
36,192,64342,1,0,0:0:0:0:
256,192,64727,1,0,0:0:0:0:
329,192,64919,1,0,0:0:0:0:
182,192,64919,1,0,0:0:0:0:
402,192,65112,1,0,0:0:0:0:
256,192,65112,1,0,0:0:0:0:
109,192,65112,1,0,0:0:0:0:
475,192,65304,1,0,0:0:0:0:
36,192,65304,1,0,0:0:0:0:
329,192,65400,1,0,0:0:0:0:
182,192,65400,1,0,0:0:0:0:
475,192,65496,1,0,0:0:0:0:
36,192,65496,1,0,0:0:0:0:
182,192,65689,1,0,0:0:0:0:
329,192,65689,1,0,0:0:0:0:
475,192,65881,128,0,66073:0:0:0:0:
36,192,65881,1,0,0:0:0:0:
329,192,66073,1,0,0:0:0:0:
256,192,66121,1,0,0:0:0:0:
182,192,66169,1,0,0:0:0:0:
109,192,66217,1,0,0:0:0:0:
475,192,66266,1,0,0:0:0:0:
36,192,66266,1,0,0:0:0:0:
329,192,66362,1,0,0:0:0:0:
475,192,66458,1,0,0:0:0:0:
182,192,66458,1,0,0:0:0:0:
329,192,66554,1,0,0:0:0:0:
475,192,66650,1,0,0:0:0:0:
256,192,66650,1,0,0:0:0:0:
36,192,66650,1,0,0:0:0:0:
402,192,66842,1,0,0:0:0:0:
256,192,66939,1,0,0:0:0:0:
109,192,67035,128,0,67419:0:0:0:0:
475,192,67035,1,0,0:0:0:0:
329,192,67131,1,0,0:0:0:0:
475,192,67227,1,0,0:0:0:0:
402,192,67323,1,0,0:0:0:0:
182,192,67419,1,0,0:0:0:0:
329,192,67419,1,0,0:0:0:0:
475,192,67516,1,0,0:0:0:0:
329,192,67612,1,0,0:0:0:0:
36,192,67708,1,0,0:0:0:0:
182,192,67708,1,0,0:0:0:0:
475,192,67804,1,0,0:0:0:0:
182,192,67900,1,0,0:0:0:0:
109,192,67900,1,0,0:0:0:0:
329,192,67996,1,0,0:0:0:0:
402,192,67996,1,0,0:0:0:0:
182,192,68092,1,0,0:0:0:0:
256,192,68189,1,0,0:0:0:0:
475,192,68189,1,0,0:0:0:0:
36,192,68189,1,0,0:0:0:0:
402,192,68381,1,0,0:0:0:0:
109,192,68381,1,0,0:0:0:0:
329,192,68477,1,0,0:0:0:0:
182,192,68477,1,0,0:0:0:0:
402,192,68573,1,0,0:0:0:0:
109,192,68573,1,0,0:0:0:0:
402,192,68701,1,0,0:0:0:0:
109,192,68701,1,0,0:0:0:0:
109,192,68830,1,0,0:0:0:0:
402,192,68830,1,0,0:0:0:0:
475,192,68958,1,0,0:0:0:0:
329,192,69054,1,0,0:0:0:0:
475,192,69150,1,0,0:0:0:0:
36,192,69150,1,0,0:0:0:0:
109,192,69198,1,0,0:0:0:0:
182,192,69246,1,0,0:0:0:0:
256,192,69294,1,0,0:0:0:0:
329,192,69342,1,0,0:0:0:0:
475,192,69342,128,0,69535:0:0:0:0:
36,192,69535,1,0,0:0:0:0:
182,192,69535,1,0,0:0:0:0:
256,192,69727,1,0,0:0:0:0:
36,192,69727,1,0,0:0:0:0:
475,192,69727,1,0,0:0:0:0:
402,192,69919,1,0,0:0:0:0:
109,192,69919,1,0,0:0:0:0:
256,192,70016,1,0,0:0:0:0:
109,192,70112,1,0,0:0:0:0:
402,192,70112,1,0,0:0:0:0:
256,192,70304,128,0,70496:0:0:0:0:
475,192,70496,1,0,0:0:0:0:
36,192,70496,1,0,0:0:0:0:
109,192,70496,1,0,0:0:0:0:
402,192,70544,1,0,0:0:0:0:
329,192,70592,1,0,0:0:0:0:
256,192,70641,1,0,0:0:0:0:
182,192,70689,1,0,0:0:0:0:
109,192,70785,1,0,0:0:0:0:
36,192,70881,1,0,0:0:0:0:
475,192,70881,1,0,0:0:0:0:
36,192,71009,1,0,0:0:0:0:
475,192,71009,1,0,0:0:0:0:
36,192,71137,1,0,0:0:0:0:
475,192,71137,1,0,0:0:0:0:
402,192,71266,1,0,0:0:0:0:
256,192,71266,1,0,0:0:0:0:
109,192,71266,1,0,0:0:0:0:
329,192,71458,1,0,0:0:0:0:
182,192,71458,1,0,0:0:0:0:
402,192,71554,1,0,0:0:0:0:
109,192,71650,1,0,0:0:0:0:
329,192,71746,1,0,0:0:0:0:
182,192,71746,1,0,0:0:0:0:
475,192,71842,1,0,0:0:0:0:
329,192,71939,1,0,0:0:0:0:
182,192,71939,1,0,0:0:0:0:
256,192,72035,1,0,0:0:0:0:
329,192,72131,1,0,0:0:0:0:
182,192,72131,1,0,0:0:0:0:
402,192,72227,1,0,0:0:0:0:
109,192,72227,1,0,0:0:0:0:
475,192,72323,1,0,0:0:0:0:
256,192,72371,1,0,0:0:0:0:
36,192,72419,1,0,0:0:0:0:
402,192,72516,1,0,0:0:0:0:
329,192,72612,1,0,0:0:0:0:
182,192,72612,1,0,0:0:0:0:
402,192,72804,128,0,73573:0:0:0:0:
109,192,72804,128,0,73573:0:0:0:0:
475,192,72804,1,0,0:0:0:0:
329,192,72996,128,0,73189:0:0:0:0:
182,192,72996,128,0,73189:0:0:0:0:
256,192,73189,128,0,73573:0:0:0:0:
329,192,73573,1,0,0:0:0:0:
182,192,73573,1,0,0:0:0:0:
36,192,73573,1,0,0:0:0:0:
475,192,73669,1,0,0:0:0:0:
329,192,73766,1,0,0:0:0:0:
182,192,73862,1,0,0:0:0:0:
36,192,73958,1,0,0:0:0:0:
402,192,73958,1,0,0:0:0:0:
182,192,74054,1,0,0:0:0:0:
329,192,74150,1,0,0:0:0:0:
475,192,74246,1,0,0:0:0:0:
402,192,74342,1,0,0:0:0:0:
256,192,74342,1,0,0:0:0:0:
109,192,74342,1,0,0:0:0:0:
329,192,74535,1,0,0:0:0:0:
182,192,74535,1,0,0:0:0:0:
256,192,74727,1,0,0:0:0:0:
475,192,74919,1,0,0:0:0:0:
329,192,74967,1,0,0:0:0:0:
182,192,75016,1,0,0:0:0:0:
36,192,75064,1,0,0:0:0:0:
475,192,75112,1,0,0:0:0:0:
329,192,75112,1,0,0:0:0:0:
182,192,75208,1,0,0:0:0:0:
36,192,75208,1,0,0:0:0:0:
329,192,75304,1,0,0:0:0:0:
402,192,75304,1,0,0:0:0:0:
182,192,75400,1,0,0:0:0:0:
109,192,75400,1,0,0:0:0:0:
402,192,75592,1,0,0:0:0:0:
329,192,75592,1,0,0:0:0:0:
36,192,75689,1,0,0:0:0:0:
182,192,75785,1,0,0:0:0:0:
329,192,75833,1,0,0:0:0:0:
475,192,75881,1,0,0:0:0:0:
36,192,75881,1,0,0:0:0:0:
256,192,75881,1,0,0:0:0:0:
182,192,76266,128,0,76650:0:0:0:0:
329,192,76458,128,0,76650:0:0:0:0:
109,192,76650,1,0,0:0:0:0:
256,192,76650,1,0,0:0:0:0:
402,192,76650,1,0,0:0:0:0:
402,192,77035,1,0,0:0:0:0:
109,192,77035,1,0,0:0:0:0:
256,192,77227,1,0,0:0:0:0:
36,192,77419,1,0,0:0:0:0:
182,192,77419,1,0,0:0:0:0:
329,192,77419,1,0,0:0:0:0:
402,192,77612,1,0,0:0:0:0:
109,192,77612,1,0,0:0:0:0:
182,192,77708,1,0,0:0:0:0:
329,192,77708,1,0,0:0:0:0:
109,192,77804,1,0,0:0:0:0:
402,192,77804,1,0,0:0:0:0:
329,192,77996,1,0,0:0:0:0:
182,192,77996,1,0,0:0:0:0:
256,192,78189,128,0,78381:0:0:0:0:
36,192,78189,1,0,0:0:0:0:
475,192,78381,1,0,0:0:0:0:
402,192,78429,1,0,0:0:0:0:
329,192,78477,1,0,0:0:0:0:
256,192,78525,1,0,0:0:0:0:
182,192,78573,1,0,0:0:0:0:
36,192,78573,1,0,0:0:0:0:
329,192,78766,1,0,0:0:0:0:
182,192,78766,1,0,0:0:0:0:
475,192,78958,1,0,0:0:0:0:
256,192,78958,1,0,0:0:0:0:
36,192,78958,1,0,0:0:0:0:
329,192,79150,1,0,0:0:0:0:
182,192,79246,1,0,0:0:0:0:
329,192,79342,1,0,0:0:0:0:
182,192,79439,1,0,0:0:0:0:
402,192,79535,1,0,0:0:0:0:
329,192,79535,1,0,0:0:0:0:
182,192,79631,1,0,0:0:0:0:
109,192,79631,1,0,0:0:0:0:
475,192,79727,1,0,0:0:0:0:
36,192,79727,1,0,0:0:0:0:
329,192,79727,1,0,0:0:0:0:
329,192,80016,1,0,0:0:0:0:
182,192,80016,1,0,0:0:0:0:
402,192,80208,1,0,0:0:0:0:
329,192,80208,1,0,0:0:0:0:
182,192,80304,1,0,0:0:0:0:
109,192,80304,1,0,0:0:0:0:
475,192,80496,1,0,0:0:0:0:
256,192,80496,1,0,0:0:0:0:
36,192,80496,1,0,0:0:0:0:
402,192,80689,1,0,0:0:0:0:
109,192,80689,1,0,0:0:0:0:
329,192,80785,1,0,0:0:0:0:
182,192,80785,1,0,0:0:0:0:
402,192,80881,1,0,0:0:0:0:
109,192,80881,1,0,0:0:0:0:
402,192,81009,1,0,0:0:0:0:
109,192,81009,1,0,0:0:0:0:
402,192,81137,1,0,0:0:0:0:
109,192,81137,1,0,0:0:0:0:
475,192,81458,1,0,0:0:0:0:
402,192,81506,1,0,0:0:0:0:
329,192,81554,1,0,0:0:0:0:
256,192,81602,1,0,0:0:0:0:
36,192,81650,1,0,0:0:0:0:
182,192,81650,1,0,0:0:0:0:
329,192,81842,1,0,0:0:0:0:
475,192,81842,1,0,0:0:0:0:
402,192,82035,1,0,0:0:0:0:
256,192,82035,1,0,0:0:0:0:
109,192,82035,1,0,0:0:0:0:
329,192,82227,1,0,0:0:0:0:
182,192,82227,1,0,0:0:0:0:
329,192,82419,1,0,0:0:0:0:
182,192,82419,1,0,0:0:0:0:
256,192,82516,1,0,0:0:0:0:
109,192,82612,1,0,0:0:0:0:
402,192,82612,1,0,0:0:0:0:
256,192,82708,1,0,0:0:0:0:
36,192,82804,1,0,0:0:0:0:
475,192,82804,1,0,0:0:0:0:
329,192,82804,1,0,0:0:0:0:
109,192,82852,1,0,0:0:0:0:
182,192,82900,1,0,0:0:0:0:
256,192,82948,1,0,0:0:0:0:
329,192,82996,1,0,0:0:0:0:
402,192,83092,1,0,0:0:0:0:
475,192,83189,1,0,0:0:0:0:
36,192,83189,1,0,0:0:0:0:
329,192,83317,1,0,0:0:0:0:
182,192,83317,1,0,0:0:0:0:
36,192,83445,1,0,0:0:0:0:
475,192,83445,1,0,0:0:0:0:
402,192,83573,1,0,0:0:0:0:
256,192,83573,1,0,0:0:0:0:
109,192,83573,1,0,0:0:0:0:
329,192,83766,1,0,0:0:0:0:
182,192,83766,1,0,0:0:0:0:
329,192,84054,1,0,0:0:0:0:
182,192,84054,1,0,0:0:0:0:
329,192,84246,1,0,0:0:0:0:
182,192,84246,1,0,0:0:0:0:
329,192,84439,1,0,0:0:0:0:
182,192,84439,1,0,0:0:0:0:
402,192,84631,1,0,0:0:0:0:
256,192,84679,1,0,0:0:0:0:
109,192,84727,1,0,0:0:0:0:
329,192,84919,1,0,0:0:0:0:
182,192,84919,1,0,0:0:0:0:
475,192,85112,1,0,0:0:0:0:
256,192,85112,1,0,0:0:0:0:
36,192,85112,1,0,0:0:0:0:
329,192,85304,1,0,0:0:0:0:
182,192,85304,1,0,0:0:0:0:
402,192,85496,128,0,85881:0:0:0:0:
109,192,85496,128,0,85881:0:0:0:0:
256,192,85496,128,0,85689:0:0:0:0:
256,192,85881,1,0,0:0:0:0:
36,192,85881,1,0,0:0:0:0:
475,192,85881,1,0,0:0:0:0:
402,192,86266,1,0,0:0:0:0:
109,192,86266,1,0,0:0:0:0:
256,192,86650,1,0,0:0:0:0:
36,192,86650,1,0,0:0:0:0:
475,192,86650,1,0,0:0:0:0:
329,192,86842,1,0,0:0:0:0:
182,192,86842,1,0,0:0:0:0:
256,192,87035,128,0,87227:0:0:0:0:
475,192,87227,1,0,0:0:0:0:
402,192,87275,1,0,0:0:0:0:
329,192,87323,1,0,0:0:0:0:
256,192,87371,1,0,0:0:0:0:
182,192,87419,1,0,0:0:0:0:
36,192,87419,1,0,0:0:0:0:
182,192,87708,1,0,0:0:0:0:
329,192,87708,1,0,0:0:0:0:
329,192,87900,1,0,0:0:0:0:
402,192,87900,1,0,0:0:0:0:
182,192,87996,1,0,0:0:0:0:
109,192,87996,1,0,0:0:0:0:
329,192,88092,1,0,0:0:0:0:
402,192,88092,1,0,0:0:0:0:
256,192,88189,128,0,88958:0:0:0:0:
475,192,88381,128,0,88958:0:0:0:0:
36,192,88381,128,0,88958:0:0:0:0:
402,192,88958,1,0,0:0:0:0:
329,192,88958,1,0,0:0:0:0:
182,192,88958,1,0,0:0:0:0:
109,192,88958,1,0,0:0:0:0:
475,192,89150,1,0,0:0:0:0:
256,192,89150,1,0,0:0:0:0:
182,192,89246,1,0,0:0:0:0:
329,192,89342,1,0,0:0:0:0:
109,192,89342,1,0,0:0:0:0:
182,192,89535,1,0,0:0:0:0:
402,192,89535,1,0,0:0:0:0:
256,192,89727,1,0,0:0:0:0:
36,192,89727,1,0,0:0:0:0:
475,192,89727,1,0,0:0:0:0:
329,192,89919,1,0,0:0:0:0:
182,192,89919,1,0,0:0:0:0:
402,192,90112,1,0,0:0:0:0:
256,192,90112,1,0,0:0:0:0:
329,192,90304,1,0,0:0:0:0:
475,192,90304,1,0,0:0:0:0:
36,192,90496,1,0,0:0:0:0:
329,192,90689,1,0,0:0:0:0:
402,192,90689,1,0,0:0:0:0:
256,192,90737,1,0,0:0:0:0:
182,192,90785,1,0,0:0:0:0:
109,192,90833,1,0,0:0:0:0:
36,192,90881,1,0,0:0:0:0:
475,192,90881,1,0,0:0:0:0:
182,192,91073,1,0,0:0:0:0:
402,192,91073,1,0,0:0:0:0:
256,192,91266,1,0,0:0:0:0:
475,192,91266,1,0,0:0:0:0:
36,192,91266,1,0,0:0:0:0:
329,192,91458,1,0,0:0:0:0:
109,192,91458,1,0,0:0:0:0:
329,192,91554,1,0,0:0:0:0:
182,192,91650,1,0,0:0:0:0:
402,192,91650,1,0,0:0:0:0:
256,192,91842,1,0,0:0:0:0:
402,192,92035,1,0,0:0:0:0:
109,192,92035,1,0,0:0:0:0:
36,192,92035,1,0,0:0:0:0:
329,192,92227,1,0,0:0:0:0:
182,192,92227,1,0,0:0:0:0:
109,192,92323,1,0,0:0:0:0:
256,192,92419,1,0,0:0:0:0:
402,192,92419,1,0,0:0:0:0:
36,192,92516,1,0,0:0:0:0:
329,192,92612,1,0,0:0:0:0:
182,192,92612,1,0,0:0:0:0:
256,192,92804,1,0,0:0:0:0:
36,192,92804,1,0,0:0:0:0:
475,192,92804,1,0,0:0:0:0:
402,192,92996,1,0,0:0:0:0:
109,192,92996,1,0,0:0:0:0:
256,192,93092,1,0,0:0:0:0:
402,192,93189,1,0,0:0:0:0:
109,192,93189,1,0,0:0:0:0:
182,192,93381,1,0,0:0:0:0:
329,192,93573,1,0,0:0:0:0:
256,192,93766,1,0,0:0:0:0:
182,192,93814,1,0,0:0:0:0:
109,192,93862,1,0,0:0:0:0:
36,192,93910,1,0,0:0:0:0:
329,192,93958,1,0,0:0:0:0:
475,192,93958,1,0,0:0:0:0:
109,192,94150,1,0,0:0:0:0:
402,192,94150,1,0,0:0:0:0:
475,192,94342,1,0,0:0:0:0:
256,192,94342,1,0,0:0:0:0:
36,192,94342,1,0,0:0:0:0:
402,192,94535,1,0,0:0:0:0:
182,192,94535,1,0,0:0:0:0:
109,192,94727,1,0,0:0:0:0:
329,192,94727,1,0,0:0:0:0:
256,192,94919,1,0,0:0:0:0:
475,192,95112,1,0,0:0:0:0:
36,192,95112,1,0,0:0:0:0:
402,192,95160,1,0,0:0:0:0:
329,192,95208,1,0,0:0:0:0:
256,192,95256,1,0,0:0:0:0:
182,192,95304,1,0,0:0:0:0:
109,192,95400,1,0,0:0:0:0:
36,192,95496,1,0,0:0:0:0:
475,192,95496,1,0,0:0:0:0:
475,192,95624,1,0,0:0:0:0:
36,192,95624,1,0,0:0:0:0:
36,192,95753,1,0,0:0:0:0:
475,192,95753,1,0,0:0:0:0:
402,192,95881,1,0,0:0:0:0:
256,192,95881,1,0,0:0:0:0:
109,192,95881,1,0,0:0:0:0:
329,192,96073,1,0,0:0:0:0:
182,192,96073,1,0,0:0:0:0:
182,192,96362,1,0,0:0:0:0:
329,192,96362,1,0,0:0:0:0:
475,192,96650,1,0,0:0:0:0:
182,192,96650,1,0,0:0:0:0:
402,192,96842,1,0,0:0:0:0:
109,192,96842,1,0,0:0:0:0:
329,192,96939,1,0,0:0:0:0:
256,192,96987,1,0,0:0:0:0:
182,192,97035,1,0,0:0:0:0:
329,192,97227,1,0,0:0:0:0:
109,192,97227,1,0,0:0:0:0:
475,192,97419,1,0,0:0:0:0:
36,192,97419,1,0,0:0:0:0:
256,192,97419,1,0,0:0:0:0:
402,192,97612,128,0,98189:0:0:0:0:
109,192,97612,128,0,98189:0:0:0:0:
256,192,97612,128,0,97804:0:0:0:0:
182,192,97804,128,0,98189:0:0:0:0:
329,192,97804,128,0,98189:0:0:0:0:
256,192,98189,1,0,0:0:0:0:
36,192,98189,1,0,0:0:0:0:
475,192,98189,1,0,0:0:0:0:
402,192,98381,1,0,0:0:0:0:
182,192,98381,1,0,0:0:0:0:
256,192,98477,1,0,0:0:0:0:
329,192,98573,1,0,0:0:0:0:
109,192,98573,1,0,0:0:0:0:
402,192,98766,1,0,0:0:0:0:
182,192,98766,1,0,0:0:0:0:
36,192,98958,1,0,0:0:0:0:
256,192,98958,1,0,0:0:0:0:
475,192,98958,1,0,0:0:0:0:
329,192,99150,1,0,0:0:0:0:
182,192,99150,1,0,0:0:0:0:
256,192,99342,128,0,99535:0:0:0:0:
475,192,99535,1,0,0:0:0:0:
329,192,99583,1,0,0:0:0:0:
182,192,99631,1,0,0:0:0:0:
36,192,99679,1,0,0:0:0:0:
402,192,99727,1,0,0:0:0:0:
329,192,99727,1,0,0:0:0:0:
182,192,99823,1,0,0:0:0:0:
109,192,99823,1,0,0:0:0:0:
329,192,99919,1,0,0:0:0:0:
402,192,99919,1,0,0:0:0:0:
182,192,100016,1,0,0:0:0:0:
109,192,100016,1,0,0:0:0:0:
36,192,100208,1,0,0:0:0:0:
475,192,100208,1,0,0:0:0:0:
182,192,100304,1,0,0:0:0:0:
329,192,100400,1,0,0:0:0:0:
402,192,100448,1,0,0:0:0:0:
475,192,100496,1,0,0:0:0:0:
36,192,100496,1,0,0:0:0:0:
256,192,100496,1,0,0:0:0:0:
402,192,101266,1,0,0:0:0:0:
329,192,101266,1,0,0:0:0:0:
182,192,101266,1,0,0:0:0:0:
109,192,101266,1,0,0:0:0:0:
256,192,102035,1,0,0:0:0:0:
182,192,102419,1,0,0:0:0:0:
109,192,102804,1,0,0:0:0:0:
475,192,102804,1,0,0:0:0:0:
402,192,103381,1,0,0:0:0:0:
329,192,103477,1,0,0:0:0:0:
182,192,103573,1,0,0:0:0:0:
256,192,104150,1,0,0:0:0:0:
402,192,104342,1,0,0:0:0:0:
109,192,104342,1,0,0:0:0:0:
109,192,104919,1,0,0:0:0:0:
329,192,105016,1,0,0:0:0:0:
402,192,105112,1,0,0:0:0:0:
36,192,105304,1,0,0:0:0:0:
329,192,105496,1,0,0:0:0:0:
402,192,105689,1,0,0:0:0:0:
475,192,105881,1,0,0:0:0:0:
36,192,105881,1,0,0:0:0:0:
402,192,106458,1,0,0:0:0:0:
182,192,106554,1,0,0:0:0:0:
109,192,106650,1,0,0:0:0:0:
329,192,106842,1,0,0:0:0:0:
475,192,107035,1,0,0:0:0:0:
182,192,107227,1,0,0:0:0:0:
402,192,107419,1,0,0:0:0:0:
109,192,107419,1,0,0:0:0:0:
109,192,107996,1,0,0:0:0:0:
182,192,108092,1,0,0:0:0:0:
329,192,108189,1,0,0:0:0:0:
36,192,108477,1,0,0:0:0:0:
256,192,108766,1,0,0:0:0:0:
475,192,108958,1,0,0:0:0:0:
109,192,108958,1,0,0:0:0:0:
182,192,109535,1,0,0:0:0:0:
329,192,109631,1,0,0:0:0:0:
402,192,109727,1,0,0:0:0:0:
109,192,109919,1,0,0:0:0:0:
182,192,110112,1,0,0:0:0:0:
475,192,110304,1,0,0:0:0:0:
329,192,110496,1,0,0:0:0:0:
109,192,110496,1,0,0:0:0:0:
256,192,111458,1,0,0:0:0:0:
182,192,111842,1,0,0:0:0:0:
109,192,112035,1,0,0:0:0:0:
402,192,112035,1,0,0:0:0:0:
182,192,112419,1,0,0:0:0:0:
329,192,112804,1,0,0:0:0:0:
329,192,113381,1,0,0:0:0:0:
402,192,113477,1,0,0:0:0:0:
475,192,113573,1,0,0:0:0:0:
256,192,113573,1,0,0:0:0:0:
36,192,113573,1,0,0:0:0:0:
402,192,114150,1,0,0:0:0:0:
256,192,114342,1,0,0:0:0:0:
109,192,114535,1,0,0:0:0:0:
182,192,114727,1,0,0:0:0:0:
329,192,114919,1,0,0:0:0:0:
402,192,115112,1,0,0:0:0:0:
36,192,115112,1,0,0:0:0:0:
329,192,115400,1,0,0:0:0:0:
402,192,115689,1,0,0:0:0:0:
182,192,115881,1,0,0:0:0:0:
109,192,116650,1,0,0:0:0:0:
256,192,116650,1,0,0:0:0:0:
402,192,116650,1,0,0:0:0:0:
475,192,117035,128,0,117419:0:0:0:0:
329,192,117419,128,0,117804:0:0:0:0:
182,192,117804,128,0,118189:0:0:0:0:
36,192,118189,128,0,118573:0:0:0:0:
329,192,118189,1,0,0:0:0:0:
402,192,118573,128,0,118958:0:0:0:0:
109,192,118958,128,0,119342:0:0:0:0:
329,192,118958,1,0,0:0:0:0:
329,192,119342,128,0,119535:0:0:0:0:
109,192,119535,1,0,0:0:0:0:
402,192,119535,1,0,0:0:0:0:
256,192,119727,1,0,0:0:0:0:
36,192,119727,1,0,0:0:0:0:
475,192,119727,1,0,0:0:0:0:
402,192,120112,128,0,120496:0:0:0:0:
182,192,120496,128,0,121266:0:0:0:0:
329,192,120496,1,0,0:0:0:0:
402,192,120881,128,0,121266:0:0:0:0:
36,192,121266,128,0,122035:0:0:0:0:
256,192,121266,1,0,0:0:0:0:
475,192,121266,1,0,0:0:0:0:
329,192,122035,128,0,122612:0:0:0:0:
109,192,122035,1,0,0:0:0:0:
109,192,122612,1,0,0:0:0:0:
402,192,122612,1,0,0:0:0:0:
256,192,122804,1,0,0:0:0:0:
475,192,122804,1,0,0:0:0:0:
36,192,122804,1,0,0:0:0:0:
402,192,123189,1,0,0:0:0:0:
182,192,123189,1,0,0:0:0:0:
475,192,123573,1,0,0:0:0:0:
256,192,123573,1,0,0:0:0:0:
36,192,123573,1,0,0:0:0:0:
402,192,123958,1,0,0:0:0:0:
182,192,123958,1,0,0:0:0:0:
109,192,124150,1,0,0:0:0:0:
329,192,124150,1,0,0:0:0:0:
256,192,124342,1,0,0:0:0:0:
475,192,124342,1,0,0:0:0:0:
36,192,124342,1,0,0:0:0:0:
109,192,124439,1,0,0:0:0:0:
329,192,124535,1,0,0:0:0:0:
402,192,124535,1,0,0:0:0:0:
182,192,124631,1,0,0:0:0:0:
256,192,124727,1,0,0:0:0:0:
475,192,124727,1,0,0:0:0:0:
36,192,124727,1,0,0:0:0:0:
329,192,124823,1,0,0:0:0:0:
402,192,124919,1,0,0:0:0:0:
109,192,124919,1,0,0:0:0:0:
256,192,125016,1,0,0:0:0:0:
182,192,125112,1,0,0:0:0:0:
36,192,125112,1,0,0:0:0:0:
475,192,125112,1,0,0:0:0:0:
329,192,125208,1,0,0:0:0:0:
402,192,125304,1,0,0:0:0:0:
109,192,125304,1,0,0:0:0:0:
329,192,125400,1,0,0:0:0:0:
475,192,125496,1,0,0:0:0:0:
36,192,125496,1,0,0:0:0:0:
182,192,125496,1,0,0:0:0:0:
329,192,125592,1,0,0:0:0:0:
402,192,125689,1,0,0:0:0:0:
182,192,125689,1,0,0:0:0:0:
329,192,125785,1,0,0:0:0:0:
36,192,125881,1,0,0:0:0:0:
475,192,125881,1,0,0:0:0:0:
256,192,125881,128,0,127035:0:0:0:0:
329,192,127035,128,0,127419:0:0:0:0:
182,192,127035,128,0,127419:0:0:0:0:
475,192,127419,1,0,0:0:0:0:
256,192,127419,1,0,0:0:0:0:
36,192,127419,1,0,0:0:0:0:
329,192,127516,1,0,0:0:0:0:
109,192,127612,1,0,0:0:0:0:
256,192,127708,1,0,0:0:0:0:
182,192,127804,1,0,0:0:0:0:
402,192,127804,1,0,0:0:0:0:
36,192,127804,1,0,0:0:0:0:
329,192,127996,1,0,0:0:0:0:
182,192,128092,1,0,0:0:0:0:
329,192,128189,1,0,0:0:0:0:
475,192,128189,1,0,0:0:0:0:
109,192,128189,1,0,0:0:0:0:
256,192,128285,1,0,0:0:0:0:
36,192,128381,1,0,0:0:0:0:
402,192,128477,1,0,0:0:0:0:
109,192,128573,1,0,0:0:0:0:
182,192,128573,1,0,0:0:0:0:
475,192,128573,1,0,0:0:0:0:
329,192,128766,1,0,0:0:0:0:
109,192,128862,1,0,0:0:0:0:
402,192,128958,1,0,0:0:0:0:
182,192,128958,1,0,0:0:0:0:
475,192,128958,1,0,0:0:0:0:
329,192,129054,1,0,0:0:0:0:
109,192,129150,1,0,0:0:0:0:
256,192,129246,1,0,0:0:0:0:
36,192,129342,1,0,0:0:0:0:
182,192,129342,1,0,0:0:0:0:
402,192,129342,1,0,0:0:0:0:
329,192,129535,1,0,0:0:0:0:
109,192,129631,1,0,0:0:0:0:
256,192,129727,1,0,0:0:0:0:
402,192,129727,1,0,0:0:0:0:
36,192,129727,1,0,0:0:0:0:
182,192,129823,1,0,0:0:0:0:
329,192,129919,1,0,0:0:0:0:
109,192,130016,1,0,0:0:0:0:
256,192,130112,1,0,0:0:0:0:
36,192,130112,1,0,0:0:0:0:
475,192,130112,1,0,0:0:0:0:
402,192,130304,1,0,0:0:0:0:
109,192,130400,1,0,0:0:0:0:
329,192,130496,1,0,0:0:0:0:
182,192,130496,1,0,0:0:0:0:
475,192,130496,1,0,0:0:0:0:
109,192,130592,1,0,0:0:0:0:
256,192,130689,1,0,0:0:0:0:
182,192,130785,1,0,0:0:0:0:
329,192,130881,1,0,0:0:0:0:
402,192,130881,1,0,0:0:0:0:
36,192,130881,1,0,0:0:0:0:
109,192,131073,1,0,0:0:0:0:
256,192,131169,1,0,0:0:0:0:
402,192,131266,1,0,0:0:0:0:
182,192,131266,1,0,0:0:0:0:
36,192,131266,1,0,0:0:0:0:
329,192,131362,1,0,0:0:0:0:
109,192,131458,1,0,0:0:0:0:
402,192,131554,1,0,0:0:0:0:
256,192,131650,1,0,0:0:0:0:
182,192,131650,1,0,0:0:0:0:
475,192,131650,1,0,0:0:0:0:
329,192,131842,1,0,0:0:0:0:
109,192,131939,1,0,0:0:0:0:
182,192,132035,1,0,0:0:0:0:
475,192,132035,1,0,0:0:0:0:
402,192,132035,1,0,0:0:0:0:
36,192,132131,1,0,0:0:0:0:
256,192,132227,1,0,0:0:0:0:
109,192,132323,1,0,0:0:0:0:
402,192,132419,1,0,0:0:0:0:
182,192,132419,1,0,0:0:0:0:
329,192,132419,1,0,0:0:0:0:
402,192,132612,1,0,0:0:0:0:
329,192,132612,1,0,0:0:0:0:
182,192,132708,1,0,0:0:0:0:
109,192,132708,1,0,0:0:0:0:
329,192,132804,1,0,0:0:0:0:
402,192,132804,1,0,0:0:0:0:
182,192,132900,1,0,0:0:0:0:
109,192,132900,1,0,0:0:0:0:
329,192,132996,1,0,0:0:0:0:
402,192,132996,1,0,0:0:0:0:
475,192,133189,1,0,0:0:0:0:
256,192,133189,1,0,0:0:0:0:
36,192,133189,1,0,0:0:0:0:
329,192,133381,1,0,0:0:0:0:
182,192,133381,1,0,0:0:0:0:
402,192,133573,1,0,0:0:0:0:
256,192,133573,1,0,0:0:0:0:
109,192,133573,1,0,0:0:0:0:
36,192,133669,1,0,0:0:0:0:
329,192,133766,1,0,0:0:0:0:
182,192,133862,1,0,0:0:0:0:
475,192,133958,1,0,0:0:0:0:
109,192,133958,1,0,0:0:0:0:
256,192,133958,1,0,0:0:0:0:
329,192,134150,1,0,0:0:0:0:
182,192,134246,1,0,0:0:0:0:
256,192,134342,1,0,0:0:0:0:
402,192,134342,1,0,0:0:0:0:
36,192,134342,1,0,0:0:0:0:
109,192,134439,1,0,0:0:0:0:
329,192,134535,1,0,0:0:0:0:
182,192,134631,1,0,0:0:0:0:
402,192,134727,1,0,0:0:0:0:
109,192,134727,1,0,0:0:0:0:
475,192,134727,1,0,0:0:0:0:
182,192,134919,1,0,0:0:0:0:
329,192,135016,1,0,0:0:0:0:
256,192,135112,1,0,0:0:0:0:
36,192,135112,1,0,0:0:0:0:
475,192,135112,1,0,0:0:0:0:
182,192,135208,1,0,0:0:0:0:
109,192,135304,1,0,0:0:0:0:
329,192,135400,1,0,0:0:0:0:
402,192,135496,1,0,0:0:0:0:
256,192,135496,1,0,0:0:0:0:
36,192,135496,1,0,0:0:0:0:
329,192,135689,1,0,0:0:0:0:
182,192,135785,1,0,0:0:0:0:
475,192,135881,1,0,0:0:0:0:
109,192,135881,1,0,0:0:0:0:
256,192,135881,1,0,0:0:0:0:
329,192,135977,1,0,0:0:0:0:
182,192,136073,1,0,0:0:0:0:
256,192,136169,1,0,0:0:0:0:
109,192,136266,1,0,0:0:0:0:
402,192,136266,1,0,0:0:0:0:
36,192,136266,1,0,0:0:0:0:
182,192,136458,1,0,0:0:0:0:
329,192,136458,1,0,0:0:0:0:
109,192,136554,1,0,0:0:0:0:
475,192,136650,1,0,0:0:0:0:
36,192,136650,1,0,0:0:0:0:
329,192,136650,1,0,0:0:0:0:
256,192,136746,1,0,0:0:0:0:
182,192,136842,1,0,0:0:0:0:
109,192,136939,1,0,0:0:0:0:
256,192,137035,1,0,0:0:0:0:
402,192,137035,1,0,0:0:0:0:
329,192,137227,1,0,0:0:0:0:
182,192,137323,1,0,0:0:0:0:
109,192,137419,1,0,0:0:0:0:
475,192,137419,1,0,0:0:0:0:
36,192,137419,1,0,0:0:0:0:
256,192,137516,1,0,0:0:0:0:
402,192,137612,1,0,0:0:0:0:
182,192,137708,1,0,0:0:0:0:
329,192,137804,1,0,0:0:0:0:
109,192,137804,1,0,0:0:0:0:
475,192,137804,1,0,0:0:0:0:
182,192,137996,1,0,0:0:0:0:
475,192,138092,1,0,0:0:0:0:
36,192,138092,1,0,0:0:0:0:
182,192,138189,1,0,0:0:0:0:
329,192,138189,1,0,0:0:0:0:
329,192,138381,1,0,0:0:0:0:
182,192,138381,1,0,0:0:0:0:
36,192,138573,1,0,0:0:0:0:
475,192,138573,1,0,0:0:0:0:
329,192,138862,1,0,0:0:0:0:
182,192,138862,1,0,0:0:0:0:
402,192,138958,1,0,0:0:0:0:
109,192,138958,1,0,0:0:0:0:
329,192,139150,1,0,0:0:0:0:
182,192,139150,1,0,0:0:0:0:
402,192,139342,1,0,0:0:0:0:
109,192,139342,1,0,0:0:0:0:
182,192,139439,1,0,0:0:0:0:
329,192,139439,1,0,0:0:0:0:
256,192,139535,1,0,0:0:0:0:
182,192,139631,1,0,0:0:0:0:
329,192,139631,1,0,0:0:0:0:
109,192,139727,1,0,0:0:0:0:
402,192,139727,1,0,0:0:0:0:
256,192,139727,1,0,0:0:0:0:
475,192,139823,1,0,0:0:0:0:
182,192,139919,1,0,0:0:0:0:
329,192,140016,1,0,0:0:0:0:
256,192,140112,1,0,0:0:0:0:
402,192,140112,1,0,0:0:0:0:
36,192,140112,1,0,0:0:0:0:
182,192,140304,1,0,0:0:0:0:
329,192,140400,1,0,0:0:0:0:
109,192,140496,1,0,0:0:0:0:
402,192,140496,1,0,0:0:0:0:
475,192,140496,1,0,0:0:0:0:
329,192,140689,1,0,0:0:0:0:
182,192,140785,1,0,0:0:0:0:
256,192,140881,1,0,0:0:0:0:
36,192,140881,1,0,0:0:0:0:
475,192,140881,1,0,0:0:0:0:
109,192,140977,1,0,0:0:0:0:
182,192,141073,1,0,0:0:0:0:
329,192,141073,1,0,0:0:0:0:
402,192,141169,1,0,0:0:0:0:
475,192,141266,1,0,0:0:0:0:
256,192,141266,1,0,0:0:0:0:
36,192,141266,1,0,0:0:0:0:
182,192,141362,1,0,0:0:0:0:
329,192,141458,1,0,0:0:0:0:
109,192,141554,1,0,0:0:0:0:
256,192,141650,1,0,0:0:0:0:
402,192,141650,1,0,0:0:0:0:
36,192,141650,1,0,0:0:0:0:
182,192,141746,1,0,0:0:0:0:
329,192,141842,1,0,0:0:0:0:
402,192,141939,1,0,0:0:0:0:
256,192,142035,1,0,0:0:0:0:
36,192,142035,1,0,0:0:0:0:
475,192,142035,1,0,0:0:0:0:
402,192,142227,1,0,0:0:0:0:
329,192,142323,1,0,0:0:0:0:
109,192,142323,1,0,0:0:0:0:
256,192,142419,1,0,0:0:0:0:
36,192,142419,1,0,0:0:0:0:
475,192,142419,1,0,0:0:0:0:
329,192,142612,1,0,0:0:0:0:
182,192,142612,1,0,0:0:0:0:
256,192,142804,1,0,0:0:0:0:
475,192,142804,1,0,0:0:0:0:
36,192,142804,1,0,0:0:0:0:
109,192,142996,1,0,0:0:0:0:
182,192,143044,1,0,0:0:0:0:
256,192,143092,1,0,0:0:0:0:
329,192,143141,1,0,0:0:0:0:
402,192,143189,1,0,0:0:0:0:
36,192,143189,1,0,0:0:0:0:
475,192,143189,1,0,0:0:0:0:
329,192,143381,1,0,0:0:0:0:
182,192,143381,1,0,0:0:0:0:
475,192,143573,1,0,0:0:0:0:
36,192,143573,1,0,0:0:0:0:
256,192,143573,1,0,0:0:0:0:
402,192,143862,1,0,0:0:0:0:
256,192,143862,1,0,0:0:0:0:
182,192,143862,1,0,0:0:0:0:
329,192,144150,1,0,0:0:0:0:
109,192,144150,1,0,0:0:0:0:
182,192,144150,1,0,0:0:0:0:
36,192,144342,1,0,0:0:0:0:
256,192,144342,1,0,0:0:0:0:
475,192,144342,1,0,0:0:0:0:
329,192,144535,1,0,0:0:0:0:
182,192,144535,1,0,0:0:0:0:
402,192,144727,1,0,0:0:0:0:
109,192,144727,1,0,0:0:0:0:
256,192,144727,1,0,0:0:0:0:
182,192,144919,1,0,0:0:0:0:
475,192,144919,1,0,0:0:0:0:
402,192,145112,1,0,0:0:0:0:
329,192,145112,1,0,0:0:0:0:
182,192,145208,1,0,0:0:0:0:
109,192,145208,1,0,0:0:0:0:
402,192,145304,1,0,0:0:0:0:
329,192,145304,1,0,0:0:0:0:
182,192,145400,1,0,0:0:0:0:
109,192,145400,1,0,0:0:0:0:
475,192,145496,1,0,0:0:0:0:
329,192,145496,1,0,0:0:0:0:
182,192,145592,1,0,0:0:0:0:
36,192,145592,1,0,0:0:0:0:
402,192,145689,1,0,0:0:0:0:
329,192,145689,1,0,0:0:0:0:
182,192,145785,1,0,0:0:0:0:
109,192,145785,1,0,0:0:0:0:
36,192,145881,1,0,0:0:0:0:
475,192,145881,1,0,0:0:0:0:
329,192,145881,1,0,0:0:0:0:
256,192,145977,1,0,0:0:0:0:
402,192,146073,1,0,0:0:0:0:
182,192,146169,1,0,0:0:0:0:
475,192,146266,1,0,0:0:0:0:
109,192,146266,1,0,0:0:0:0:
329,192,146266,1,0,0:0:0:0:
182,192,146458,1,0,0:0:0:0:
402,192,146554,1,0,0:0:0:0:
475,192,146650,1,0,0:0:0:0:
256,192,146650,1,0,0:0:0:0:
36,192,146650,1,0,0:0:0:0:
182,192,146746,1,0,0:0:0:0:
329,192,146842,1,0,0:0:0:0:
109,192,146939,1,0,0:0:0:0:
256,192,147035,1,0,0:0:0:0:
36,192,147035,1,0,0:0:0:0:
402,192,147035,1,0,0:0:0:0:
329,192,147227,1,0,0:0:0:0:
182,192,147227,1,0,0:0:0:0:
475,192,147419,1,0,0:0:0:0:
256,192,147419,1,0,0:0:0:0:
36,192,147419,1,0,0:0:0:0:
329,192,147708,1,0,0:0:0:0:
182,192,147708,1,0,0:0:0:0:
256,192,147804,1,0,0:0:0:0:
402,192,147804,1,0,0:0:0:0:
329,192,147996,1,0,0:0:0:0:
182,192,148092,1,0,0:0:0:0:
402,192,148189,1,0,0:0:0:0:
109,192,148189,1,0,0:0:0:0:
256,192,148381,1,0,0:0:0:0:
475,192,148573,1,0,0:0:0:0:
329,192,148621,1,0,0:0:0:0:
182,192,148669,1,0,0:0:0:0:
36,192,148717,1,0,0:0:0:0:
329,192,148766,1,0,0:0:0:0:
475,192,148766,1,0,0:0:0:0:
182,192,148862,1,0,0:0:0:0:
36,192,148862,1,0,0:0:0:0:
329,192,148958,1,0,0:0:0:0:
475,192,148958,1,0,0:0:0:0:
256,192,148958,1,0,0:0:0:0:
109,192,149150,1,0,0:0:0:0:
182,192,149150,1,0,0:0:0:0:
256,192,149342,1,0,0:0:0:0:
36,192,149342,1,0,0:0:0:0:
182,192,149535,1,0,0:0:0:0:
402,192,149535,1,0,0:0:0:0:
109,192,149727,1,0,0:0:0:0:
329,192,149727,1,0,0:0:0:0:
475,192,149727,1,0,0:0:0:0:
182,192,149919,1,0,0:0:0:0:
402,192,149919,1,0,0:0:0:0:
475,192,150112,1,0,0:0:0:0:
256,192,150112,1,0,0:0:0:0:
329,192,150304,1,0,0:0:0:0:
109,192,150304,1,0,0:0:0:0:
182,192,150400,1,0,0:0:0:0:
402,192,150400,1,0,0:0:0:0:
256,192,150496,1,0,0:0:0:0:
36,192,150496,1,0,0:0:0:0:
475,192,150496,128,0,151266:0:0:0:0:
182,192,150689,1,0,0:0:0:0:
329,192,150881,1,0,0:0:0:0:
36,192,150881,1,0,0:0:0:0:
182,192,151073,1,0,0:0:0:0:
256,192,151169,1,0,0:0:0:0:
109,192,151266,1,0,0:0:0:0:
402,192,151266,1,0,0:0:0:0:
182,192,151362,1,0,0:0:0:0:
329,192,151458,1,0,0:0:0:0:
36,192,151554,1,0,0:0:0:0:
109,192,151650,128,0,152035:0:0:0:0:
402,192,151650,128,0,152035:0:0:0:0:
256,192,152035,1,0,0:0:0:0:
36,192,152035,1,0,0:0:0:0:
475,192,152035,128,0,152804:0:0:0:0:
182,192,152227,1,0,0:0:0:0:
329,192,152323,1,0,0:0:0:0:
256,192,152419,1,0,0:0:0:0:
109,192,152419,1,0,0:0:0:0:
36,192,152612,1,0,0:0:0:0:
182,192,152708,1,0,0:0:0:0:
329,192,152804,128,0,153189:0:0:0:0:
109,192,152804,1,0,0:0:0:0:
402,192,152804,1,0,0:0:0:0:
256,192,152996,1,0,0:0:0:0:
36,192,153092,1,0,0:0:0:0:
182,192,153189,128,0,153573:0:0:0:0:
475,192,153189,1,0,0:0:0:0:
109,192,153189,1,0,0:0:0:0:
256,192,153381,1,0,0:0:0:0:
329,192,153477,1,0,0:0:0:0:
109,192,153573,128,0,154150:0:0:0:0:
475,192,153573,1,0,0:0:0:0:
402,192,153573,1,0,0:0:0:0:
256,192,153766,1,0,0:0:0:0:
182,192,153862,1,0,0:0:0:0:
402,192,153958,1,0,0:0:0:0:
475,192,153958,1,0,0:0:0:0:
36,192,154150,1,0,0:0:0:0:
256,192,154150,1,0,0:0:0:0:
109,192,154246,1,0,0:0:0:0:
329,192,154246,1,0,0:0:0:0:
475,192,154342,128,0,154919:0:0:0:0:
182,192,154342,1,0,0:0:0:0:
402,192,154342,1,0,0:0:0:0:
109,192,154535,1,0,0:0:0:0:
182,192,154631,1,0,0:0:0:0:
329,192,154727,1,0,0:0:0:0:
36,192,154727,1,0,0:0:0:0:
256,192,154919,1,0,0:0:0:0:
109,192,155016,1,0,0:0:0:0:
36,192,155112,128,0,155689:0:0:0:0:
402,192,155112,1,0,0:0:0:0:
475,192,155112,1,0,0:0:0:0:
182,192,155304,1,0,0:0:0:0:
329,192,155400,1,0,0:0:0:0:
402,192,155496,1,0,0:0:0:0:
109,192,155689,1,0,0:0:0:0:
256,192,155689,1,0,0:0:0:0:
182,192,155785,1,0,0:0:0:0:
329,192,155785,1,0,0:0:0:0:
256,192,155881,1,0,0:0:0:0:
36,192,155881,1,0,0:0:0:0:
475,192,155881,1,0,0:0:0:0:
109,192,156073,1,0,0:0:0:0:
402,192,156073,1,0,0:0:0:0:
329,192,156169,1,0,0:0:0:0:
182,192,156266,1,0,0:0:0:0:
256,192,156266,1,0,0:0:0:0:
475,192,156266,1,0,0:0:0:0:
36,192,156458,1,0,0:0:0:0:
329,192,156458,1,0,0:0:0:0:
109,192,156650,1,0,0:0:0:0:
256,192,156650,1,0,0:0:0:0:
475,192,156650,128,0,157227:0:0:0:0:
182,192,156842,1,0,0:0:0:0:
36,192,156939,1,0,0:0:0:0:
256,192,157035,1,0,0:0:0:0:
402,192,157035,1,0,0:0:0:0:
36,192,157227,1,0,0:0:0:0:
182,192,157323,1,0,0:0:0:0:
475,192,157419,1,0,0:0:0:0:
329,192,157419,1,0,0:0:0:0:
109,192,157419,1,0,0:0:0:0:
256,192,157516,1,0,0:0:0:0:
402,192,157612,1,0,0:0:0:0:
182,192,157804,1,0,0:0:0:0:
475,192,157804,1,0,0:0:0:0:
256,192,157996,1,0,0:0:0:0:
402,192,157996,1,0,0:0:0:0:
109,192,158092,1,0,0:0:0:0:
329,192,158189,1,0,0:0:0:0:
475,192,158189,1,0,0:0:0:0:
36,192,158189,128,0,158766:0:0:0:0:
182,192,158381,1,0,0:0:0:0:
256,192,158477,1,0,0:0:0:0:
329,192,158573,1,0,0:0:0:0:
475,192,158573,1,0,0:0:0:0:
109,192,158766,1,0,0:0:0:0:
182,192,158862,1,0,0:0:0:0:
329,192,158958,128,0,159246:0:0:0:0:
256,192,158958,1,0,0:0:0:0:
475,192,158958,1,0,0:0:0:0:
402,192,159150,1,0,0:0:0:0:
109,192,159246,128,0,159535:0:0:0:0:
182,192,159246,1,0,0:0:0:0:
475,192,159342,1,0,0:0:0:0:
256,192,159342,1,0,0:0:0:0:
402,192,159535,128,0,159727:0:0:0:0:
36,192,159535,1,0,0:0:0:0:
109,192,159631,1,0,0:0:0:0:
475,192,159727,128,0,160304:0:0:0:0:
182,192,159727,1,0,0:0:0:0:
256,192,159727,1,0,0:0:0:0:
36,192,159919,1,0,0:0:0:0:
109,192,160016,1,0,0:0:0:0:
182,192,160112,1,0,0:0:0:0:
402,192,160112,1,0,0:0:0:0:
109,192,160304,1,0,0:0:0:0:
329,192,160304,1,0,0:0:0:0:
182,192,160400,1,0,0:0:0:0:
402,192,160400,1,0,0:0:0:0:
256,192,160496,1,0,0:0:0:0:
36,192,160496,1,0,0:0:0:0:
475,192,160496,1,0,0:0:0:0:
109,192,160689,128,0,160881:0:0:0:0:
256,192,160881,128,0,161073:0:0:0:0:
36,192,160881,1,0,0:0:0:0:
402,192,160881,1,0,0:0:0:0:
182,192,161073,1,0,0:0:0:0:
475,192,161073,128,0,161266:0:0:0:0:
402,192,161266,1,0,0:0:0:0:
36,192,161266,128,0,162035:0:0:0:0:
109,192,161266,1,0,0:0:0:0:
329,192,161362,1,0,0:0:0:0:
256,192,161458,1,0,0:0:0:0:
182,192,161554,1,0,0:0:0:0:
329,192,161650,1,0,0:0:0:0:
475,192,161650,1,0,0:0:0:0:
256,192,161746,1,0,0:0:0:0:
182,192,161842,1,0,0:0:0:0:
109,192,161939,1,0,0:0:0:0:
402,192,162035,1,0,0:0:0:0:
256,192,162035,1,0,0:0:0:0:
182,192,162227,1,0,0:0:0:0:
109,192,162323,1,0,0:0:0:0:
36,192,162419,1,0,0:0:0:0:
475,192,162419,1,0,0:0:0:0:
329,192,162419,1,0,0:0:0:0:
256,192,162612,1,0,0:0:0:0:
329,192,162708,1,0,0:0:0:0:
182,192,162708,1,0,0:0:0:0:
475,192,162804,1,0,0:0:0:0:
36,192,162804,1,0,0:0:0:0:
329,192,162996,1,0,0:0:0:0:
182,192,162996,1,0,0:0:0:0:
402,192,163189,1,0,0:0:0:0:
109,192,163189,1,0,0:0:0:0:
329,192,163477,1,0,0:0:0:0:
182,192,163477,1,0,0:0:0:0:
36,192,163573,1,0,0:0:0:0:
475,192,163573,1,0,0:0:0:0:
475,192,163958,1,0,0:0:0:0:
36,192,163958,1,0,0:0:0:0:
109,192,164054,1,0,0:0:0:0:
402,192,164054,1,0,0:0:0:0:
329,192,164150,1,0,0:0:0:0:
182,192,164150,1,0,0:0:0:0:
109,192,164246,1,0,0:0:0:0:
402,192,164246,1,0,0:0:0:0:
36,192,164342,1,0,0:0:0:0:
475,192,164342,1,0,0:0:0:0:
256,192,164342,128,0,164919:0:0:0:0:
329,192,164535,1,0,0:0:0:0:
402,192,164631,1,0,0:0:0:0:
475,192,164727,1,0,0:0:0:0:
36,192,164727,1,0,0:0:0:0:
109,192,164919,1,0,0:0:0:0:
182,192,165016,1,0,0:0:0:0:
402,192,165112,128,0,165304:0:0:0:0:
256,192,165112,1,0,0:0:0:0:
475,192,165112,1,0,0:0:0:0:
109,192,165304,128,0,165496:0:0:0:0:
329,192,165400,1,0,0:0:0:0:
256,192,165496,128,0,165689:0:0:0:0:
402,192,165496,1,0,0:0:0:0:
36,192,165496,1,0,0:0:0:0:
475,192,165689,128,0,165881:0:0:0:0:
182,192,165689,1,0,0:0:0:0:
109,192,165785,1,0,0:0:0:0:
36,192,165881,1,0,0:0:0:0:
256,192,165881,1,0,0:0:0:0:
402,192,165881,1,0,0:0:0:0:
109,192,166169,1,0,0:0:0:0:
256,192,166169,1,0,0:0:0:0:
182,192,166266,1,0,0:0:0:0:
329,192,166266,1,0,0:0:0:0:
475,192,166266,1,0,0:0:0:0:
402,192,166458,1,0,0:0:0:0:
256,192,166458,1,0,0:0:0:0:
256,192,166650,1,0,0:0:0:0:
36,192,166650,1,0,0:0:0:0:
475,192,166650,1,0,0:0:0:0:
329,192,166939,1,0,0:0:0:0:
182,192,166939,1,0,0:0:0:0:
109,192,167035,1,0,0:0:0:0:
402,192,167035,1,0,0:0:0:0:
256,192,167227,1,0,0:0:0:0:
329,192,167419,1,0,0:0:0:0:
182,192,167419,1,0,0:0:0:0:
475,192,167612,1,0,0:0:0:0:
402,192,167660,1,0,0:0:0:0:
329,192,167708,1,0,0:0:0:0:
256,192,167756,1,0,0:0:0:0:
182,192,167804,1,0,0:0:0:0:
36,192,167804,1,0,0:0:0:0:
475,192,167804,1,0,0:0:0:0:
109,192,167996,1,0,0:0:0:0:
329,192,167996,1,0,0:0:0:0:
256,192,168189,1,0,0:0:0:0:
475,192,168189,1,0,0:0:0:0:
402,192,168189,1,0,0:0:0:0:
182,192,168477,1,0,0:0:0:0:
402,192,168477,1,0,0:0:0:0:
329,192,168477,1,0,0:0:0:0:
109,192,168766,1,0,0:0:0:0:
329,192,168766,1,0,0:0:0:0:
256,192,168766,1,0,0:0:0:0:
475,192,168958,1,0,0:0:0:0:
36,192,168958,1,0,0:0:0:0:
182,192,168958,1,0,0:0:0:0:
402,192,169150,1,0,0:0:0:0:
109,192,169150,1,0,0:0:0:0:
329,192,169342,1,0,0:0:0:0:
182,192,169342,1,0,0:0:0:0:
475,192,169342,1,0,0:0:0:0:
36,192,169535,1,0,0:0:0:0:
256,192,169535,1,0,0:0:0:0:
475,192,169727,1,0,0:0:0:0:
329,192,169727,1,0,0:0:0:0:
182,192,169823,1,0,0:0:0:0:
36,192,169919,1,0,0:0:0:0:
182,192,170016,1,0,0:0:0:0:
475,192,170112,1,0,0:0:0:0:
402,192,170112,1,0,0:0:0:0:
256,192,170112,1,0,0:0:0:0:
109,192,170208,1,0,0:0:0:0:
182,192,170304,1,0,0:0:0:0:
329,192,170400,1,0,0:0:0:0:
402,192,170496,1,0,0:0:0:0:
475,192,170496,1,0,0:0:0:0:
36,192,170496,128,0,170881:0:0:0:0:
256,192,170689,1,0,0:0:0:0:
182,192,170785,1,0,0:0:0:0:
475,192,170881,1,0,0:0:0:0:
402,192,170881,1,0,0:0:0:0:
182,192,171073,128,0,171650:0:0:0:0:
329,192,171073,1,0,0:0:0:0:
256,192,171169,1,0,0:0:0:0:
402,192,171266,1,0,0:0:0:0:
36,192,171266,1,0,0:0:0:0:
475,192,171458,1,0,0:0:0:0:
329,192,171554,1,0,0:0:0:0:
402,192,171650,1,0,0:0:0:0:
36,192,171650,1,0,0:0:0:0:
329,192,171842,1,0,0:0:0:0:
182,192,171842,1,0,0:0:0:0:
475,192,172035,1,0,0:0:0:0:
256,192,172035,1,0,0:0:0:0:
36,192,172035,1,0,0:0:0:0:
402,192,172323,1,0,0:0:0:0:
109,192,172323,1,0,0:0:0:0:
329,192,172419,1,0,0:0:0:0:
182,192,172419,1,0,0:0:0:0:
475,192,172612,1,0,0:0:0:0:
36,192,172612,1,0,0:0:0:0:
329,192,172708,1,0,0:0:0:0:
182,192,172708,1,0,0:0:0:0:
475,192,172804,1,0,0:0:0:0:
36,192,172804,1,0,0:0:0:0:
182,192,172996,1,0,0:0:0:0:
329,192,172996,1,0,0:0:0:0:
256,192,173189,128,0,173573:0:0:0:0:
402,192,173189,1,0,0:0:0:0:
109,192,173189,1,0,0:0:0:0:
475,192,173573,1,0,0:0:0:0:
36,192,173573,1,0,0:0:0:0:
402,192,173766,1,0,0:0:0:0:
109,192,173766,1,0,0:0:0:0:
182,192,173958,1,0,0:0:0:0:
329,192,173958,1,0,0:0:0:0:
256,192,174150,1,0,0:0:0:0:
402,192,174150,1,0,0:0:0:0:
475,192,174342,1,0,0:0:0:0:
329,192,174342,1,0,0:0:0:0:
182,192,174439,1,0,0:0:0:0:
36,192,174439,1,0,0:0:0:0:
329,192,174535,1,0,0:0:0:0:
475,192,174535,1,0,0:0:0:0:
402,192,174727,1,0,0:0:0:0:
109,192,174727,1,0,0:0:0:0:
329,192,174919,1,0,0:0:0:0:
182,192,174919,1,0,0:0:0:0:
402,192,175016,1,0,0:0:0:0:
109,192,175016,1,0,0:0:0:0:
475,192,175112,1,0,0:0:0:0:
36,192,175112,1,0,0:0:0:0:
256,192,175112,128,0,175881:0:0:0:0:
329,192,175304,1,0,0:0:0:0:
182,192,175304,1,0,0:0:0:0:
109,192,175496,1,0,0:0:0:0:
402,192,175496,1,0,0:0:0:0:
329,192,175689,1,0,0:0:0:0:
182,192,175689,1,0,0:0:0:0:
475,192,175881,1,0,0:0:0:0:
36,192,175881,1,0,0:0:0:0:
329,192,175977,1,0,0:0:0:0:
182,192,176073,1,0,0:0:0:0:
36,192,176169,1,0,0:0:0:0:
109,192,176266,1,0,0:0:0:0:
475,192,176266,1,0,0:0:0:0:
329,192,176266,1,0,0:0:0:0:
256,192,176362,1,0,0:0:0:0:
402,192,176458,1,0,0:0:0:0:
182,192,176554,1,0,0:0:0:0:
109,192,176650,1,0,0:0:0:0:
475,192,176650,1,0,0:0:0:0:
329,192,176650,1,0,0:0:0:0:
256,192,176746,1,0,0:0:0:0:
182,192,176842,1,0,0:0:0:0:
329,192,176939,1,0,0:0:0:0:
109,192,177035,1,0,0:0:0:0:
256,192,177035,1,0,0:0:0:0:
475,192,177035,1,0,0:0:0:0:
402,192,177131,1,0,0:0:0:0:
182,192,177227,1,0,0:0:0:0:
329,192,177323,1,0,0:0:0:0:
36,192,177419,1,0,0:0:0:0:
256,192,177419,1,0,0:0:0:0:
475,192,177419,1,0,0:0:0:0:
109,192,177516,1,0,0:0:0:0:
402,192,177612,1,0,0:0:0:0:
182,192,177708,1,0,0:0:0:0:
256,192,177804,1,0,0:0:0:0:
475,192,177804,1,0,0:0:0:0:
36,192,177804,1,0,0:0:0:0:
329,192,177996,1,0,0:0:0:0:
182,192,177996,1,0,0:0:0:0:
256,192,178189,1,0,0:0:0:0:
475,192,178189,1,0,0:0:0:0:
36,192,178189,1,0,0:0:0:0:
329,192,178285,1,0,0:0:0:0:
109,192,178381,1,0,0:0:0:0:
256,192,178477,1,0,0:0:0:0:
182,192,178573,1,0,0:0:0:0:
475,192,178573,1,0,0:0:0:0:
402,192,178573,1,0,0:0:0:0:
36,192,178669,1,0,0:0:0:0:
109,192,178766,1,0,0:0:0:0:
256,192,178862,1,0,0:0:0:0:
329,192,178958,1,0,0:0:0:0:
182,192,178958,1,0,0:0:0:0:
475,192,178958,1,0,0:0:0:0:
256,192,179150,1,0,0:0:0:0:
109,192,179150,1,0,0:0:0:0:
182,192,179342,1,0,0:0:0:0:
329,192,179342,1,0,0:0:0:0:
475,192,179342,1,0,0:0:0:0:
109,192,179535,1,0,0:0:0:0:
256,192,179535,1,0,0:0:0:0:
329,192,179727,1,0,0:0:0:0:
182,192,179727,1,0,0:0:0:0:
36,192,179727,1,0,0:0:0:0:
402,192,179823,1,0,0:0:0:0:
475,192,179919,1,0,0:0:0:0:
256,192,180016,1,0,0:0:0:0:
329,192,180112,1,0,0:0:0:0:
109,192,180112,1,0,0:0:0:0:
402,192,180112,1,0,0:0:0:0:
182,192,180208,1,0,0:0:0:0:
256,192,180304,1,0,0:0:0:0:
36,192,180400,1,0,0:0:0:0:
182,192,180496,1,0,0:0:0:0:
329,192,180496,1,0,0:0:0:0:
475,192,180496,1,0,0:0:0:0:
109,192,180592,1,0,0:0:0:0:
256,192,180689,1,0,0:0:0:0:
329,192,180785,1,0,0:0:0:0:
402,192,180881,1,0,0:0:0:0:
182,192,180881,1,0,0:0:0:0:
36,192,180881,1,0,0:0:0:0:
109,192,181073,1,0,0:0:0:0:
329,192,181073,1,0,0:0:0:0:
402,192,181266,1,0,0:0:0:0:
256,192,181266,1,0,0:0:0:0:
36,192,181266,1,0,0:0:0:0:
182,192,181458,1,0,0:0:0:0:
329,192,181458,1,0,0:0:0:0:
256,192,181650,1,0,0:0:0:0:
109,192,181650,1,0,0:0:0:0:
182,192,181842,1,0,0:0:0:0:
329,192,181842,1,0,0:0:0:0:
402,192,182035,1,0,0:0:0:0:
475,192,182035,1,0,0:0:0:0:
109,192,182131,1,0,0:0:0:0:
36,192,182131,1,0,0:0:0:0:
329,192,182227,1,0,0:0:0:0:
402,192,182227,1,0,0:0:0:0:
109,192,182323,1,0,0:0:0:0:
182,192,182323,1,0,0:0:0:0:
256,192,182419,1,0,0:0:0:0:
182,192,182612,1,0,0:0:0:0:
329,192,182612,1,0,0:0:0:0:
109,192,182708,1,0,0:0:0:0:
475,192,182804,1,0,0:0:0:0:
36,192,182804,1,0,0:0:0:0:
256,192,182804,1,0,0:0:0:0:
109,192,182996,1,0,0:0:0:0:
182,192,183092,1,0,0:0:0:0:
329,192,183189,1,0,0:0:0:0:
475,192,183189,1,0,0:0:0:0:
36,192,183189,1,0,0:0:0:0:
182,192,183381,1,0,0:0:0:0:
329,192,183477,1,0,0:0:0:0:
475,192,183573,1,0,0:0:0:0:
256,192,183573,1,0,0:0:0:0:
36,192,183573,1,0,0:0:0:0:
109,192,183669,1,0,0:0:0:0:
182,192,183766,1,0,0:0:0:0:
109,192,183862,1,0,0:0:0:0:
36,192,183958,1,0,0:0:0:0:
256,192,183958,1,0,0:0:0:0:
475,192,183958,1,0,0:0:0:0:
402,192,184150,1,0,0:0:0:0:
329,192,184150,1,0,0:0:0:0:
109,192,184246,1,0,0:0:0:0:
36,192,184342,1,0,0:0:0:0:
475,192,184342,1,0,0:0:0:0:
256,192,184342,1,0,0:0:0:0:
329,192,184535,1,0,0:0:0:0:
182,192,184535,1,0,0:0:0:0:
256,192,184727,1,0,0:0:0:0:
36,192,184727,1,0,0:0:0:0:
475,192,184727,1,0,0:0:0:0:
329,192,184919,1,0,0:0:0:0:
402,192,185016,1,0,0:0:0:0:
475,192,185112,128,0,185496:0:0:0:0:
182,192,185112,1,0,0:0:0:0:
109,192,185112,1,0,0:0:0:0:
36,192,185304,128,0,185496:0:0:0:0:
329,192,185496,1,0,0:0:0:0:
182,192,185496,1,0,0:0:0:0:
256,192,185689,1,0,0:0:0:0:
475,192,185881,1,0,0:0:0:0:
329,192,185881,1,0,0:0:0:0:
109,192,185881,1,0,0:0:0:0:
475,192,186073,1,0,0:0:0:0:
329,192,186073,1,0,0:0:0:0:
182,192,186266,1,0,0:0:0:0:
36,192,186266,1,0,0:0:0:0:
182,192,186458,1,0,0:0:0:0:
36,192,186458,1,0,0:0:0:0:
329,192,186650,1,0,0:0:0:0:
402,192,186650,1,0,0:0:0:0:
109,192,186650,1,0,0:0:0:0:
402,192,186842,1,0,0:0:0:0:
329,192,186842,1,0,0:0:0:0:
182,192,187035,1,0,0:0:0:0:
109,192,187035,1,0,0:0:0:0:
109,192,187227,1,0,0:0:0:0:
182,192,187227,1,0,0:0:0:0:
256,192,187323,1,0,0:0:0:0:
329,192,187419,1,0,0:0:0:0:
402,192,187419,1,0,0:0:0:0:
36,192,187419,1,0,0:0:0:0:
256,192,187612,1,0,0:0:0:0:
109,192,187612,1,0,0:0:0:0:
182,192,187804,1,0,0:0:0:0:
329,192,187804,1,0,0:0:0:0:
475,192,187804,1,0,0:0:0:0:
402,192,187996,1,0,0:0:0:0:
256,192,187996,1,0,0:0:0:0:
329,192,188189,1,0,0:0:0:0:
182,192,188189,1,0,0:0:0:0:
475,192,188381,1,0,0:0:0:0:
36,192,188381,1,0,0:0:0:0:
329,192,188477,1,0,0:0:0:0:
182,192,188477,1,0,0:0:0:0:
475,192,188573,1,0,0:0:0:0:
36,192,188573,1,0,0:0:0:0:
109,192,188766,1,0,0:0:0:0:
402,192,188766,1,0,0:0:0:0:
182,192,188862,1,0,0:0:0:0:
475,192,188958,1,0,0:0:0:0:
36,192,188958,1,0,0:0:0:0:
256,192,188958,1,0,0:0:0:0:
402,192,189054,1,0,0:0:0:0:
109,192,189150,1,0,0:0:0:0:
182,192,189246,1,0,0:0:0:0:
256,192,189342,1,0,0:0:0:0:
475,192,189342,1,0,0:0:0:0:
36,192,189342,1,0,0:0:0:0:
109,192,189439,1,0,0:0:0:0:
402,192,189535,1,0,0:0:0:0:
329,192,189631,1,0,0:0:0:0:
256,192,189727,1,0,0:0:0:0:
36,192,189727,1,0,0:0:0:0:
475,192,189727,1,0,0:0:0:0:
402,192,189823,1,0,0:0:0:0:
182,192,189919,1,0,0:0:0:0:
109,192,190016,1,0,0:0:0:0:
36,192,190112,1,0,0:0:0:0:
475,192,190112,1,0,0:0:0:0:
256,192,190112,1,0,0:0:0:0:
109,192,190208,1,0,0:0:0:0:
329,192,190304,1,0,0:0:0:0:
256,192,190400,1,0,0:0:0:0:
182,192,190496,1,0,0:0:0:0:
36,192,190496,1,0,0:0:0:0:
402,192,190592,1,0,0:0:0:0:
182,192,190689,1,0,0:0:0:0:
402,192,190785,1,0,0:0:0:0:
109,192,190881,1,0,0:0:0:0:
329,192,190977,1,0,0:0:0:0:
109,192,191073,1,0,0:0:0:0:
329,192,191169,1,0,0:0:0:0:
36,192,191266,1,0,0:0:0:0:
109,192,191362,1,0,0:0:0:0:
182,192,191458,1,0,0:0:0:0:
256,192,191554,1,0,0:0:0:0:
475,192,191650,1,0,0:0:0:0:
402,192,191746,1,0,0:0:0:0:
329,192,191842,1,0,0:0:0:0:
256,192,191939,1,0,0:0:0:0:
36,192,192035,1,0,0:0:0:0:
109,192,192035,1,0,0:0:0:0:
182,192,192035,1,0,0:0:0:0:
329,192,196586,1,0,0:0:0:0:
402,192,196650,1,0,0:0:0:0:
402,192,198189,1,0,0:0:0:0:
256,192,198189,1,0,0:0:0:0:
109,192,198189,1,0,0:0:0:0:
256,192,200881,1,0,0:0:0:0:
182,192,201266,1,0,0:0:0:0:
109,192,201842,1,0,0:0:0:0:
256,192,202419,1,0,0:0:0:0:
329,192,203381,1,0,0:0:0:0:
402,192,203766,1,0,0:0:0:0:
475,192,204342,1,0,0:0:0:0:
256,192,204342,1,0,0:0:0:0:
36,192,204342,1,0,0:0:0:0:
402,192,204727,1,0,0:0:0:0:
256,192,206842,1,0,0:0:0:0:
329,192,207131,1,0,0:0:0:0:
402,192,207419,1,0,0:0:0:0:
182,192,207419,1,0,0:0:0:0:
36,192,207419,1,0,0:0:0:0:
329,192,209054,1,0,0:0:0:0:
256,192,209727,1,0,0:0:0:0:
182,192,210496,1,0,0:0:0:0:
36,192,210496,1,0,0:0:0:0:
475,192,210496,1,0,0:0:0:0:
329,192,212035,1,0,0:0:0:0:
475,192,214214,1,0,0:0:0:0:
